  0
SECTION
  2
HEADER
  9
$ACADVER
  1
AC1015
  9
$ACADMAINTVER
 70
     6
  9
$DWGCODEPAGE
  3
ANSI_1250
  9
$INSBASE
 10
0.0
 20
0.0
 30
0.0
  9
$EXTMIN
 10
0.0
 20
0.0
 30
0.0
  9
$EXTMAX
 10
14850.0
 20
10500.0
 30
0.0
  9
$LIMMIN
 10
0.0
 20
0.0
  9
$LIMMAX
 10
14850.0
 20
10500.0
  9
$ORTHOMODE
 70
     0
  9
$REGENMODE
 70
     1
  9
$FILLMODE
 70
     1
  9
$QTEXTMODE
 70
     0
  9
$MIRRTEXT
 70
     1
  9
$LTSCALE
 40
25.0
  9
$ATTMODE
 70
     1
  9
$TEXTSIZE
 40
112.5
  9
$TRACEWID
 40
1.0
  9
$TEXTSTYLE
  7
Standard
  9
$CLAYER
  8
0
  9
$CELTYPE
  6
ByLayer
  9
$CECOLOR
 62
   256
  9
$CELTSCALE
 40
1.0
  9
$DISPSILH
 70
     0
  9
$DIMSCALE
 40
1.0
  9
$DIMASZ
 40
82.55
  9
$DIMEXO
 40
25.0
  9
$DIMDLI
 40
3.75
  9
$DIMRND
 40
0.0
  9
$DIMDLE
 40
0.0
  9
$DIMEXE
 40
25.0
  9
$DIMTP
 40
0.0
  9
$DIMTM
 40
0.0
  9
$DIMTXT
 40
112.5
  9
$DIMCEN
 40
2.5
  9
$DIMTSZ
 40
0.0
  9
$DIMTOL
 70
     0
  9
$DIMLIM
 70
     0
  9
$DIMTIH
 70
     1
  9
$DIMTOH
 70
     1
  9
$DIMSE1
 70
     0
  9
$DIMSE2
 70
     0
  9
$DIMTAD
 70
     1
  9
$DIMZIN
 70
     1
  9
$DIMBLK
  1

  9
$DIMASO
 70
     1
  9
$DIMSHO
 70
     1
  9
$DIMPOST
  1

  9
$DIMAPOST
  1

  9
$DIMALT
 70
     0
  9
$DIMALTD
 70
     3
  9
$DIMALTF
 40
0.0393700787
  9
$DIMLFAC
 40
1.0
  9
$DIMTOFL
 70
     1
  9
$DIMTVP
 40
0.0
  9
$DIMTIX
 70
     0
  9
$DIMSOXD
 70
     0
  9
$DIMSAH
 70
     0
  9
$DIMBLK1
  1

  9
$DIMBLK2
  1

  9
$DIMSTYLE
  2
ISO-25
  9
$DIMCLRD
 70
     0
  9
$DIMCLRE
 70
     0
  9
$DIMCLRT
 70
     0
  9
$DIMTFAC
 40
1.0
  9
$DIMGAP
 40
38.1
  9
$DIMJUST
 70
     0
  9
$DIMSD1
 70
     0
  9
$DIMSD2
 70
     0
  9
$DIMTOLJ
 70
     0
  9
$DIMTZIN
 70
     1
  9
$DIMALTZ
 70
     0
  9
$DIMALTTZ
 70
     0
  9
$DIMUPT
 70
     0
  9
$DIMDEC
 70
     0
  9
$DIMTDEC
 70
     0
  9
$DIMALTU
 70
     2
  9
$DIMALTTD
 70
     3
  9
$DIMTXSTY
  7
Standard
  9
$DIMAUNIT
 70
     0
  9
$DIMADEC
 70
     2
  9
$DIMALTRND
 40
0.0
  9
$DIMAZIN
 70
     0
  9
$DIMDSEP
 70
    44
  9
$DIMATFIT
 70
     3
  9
$DIMFRAC
 70
     0
  9
$DIMLDRBLK
  1

  9
$DIMLUNIT
 70
     2
  9
$DIMLWD
 70
    -2
  9
$DIMLWE
 70
    -2
  9
$DIMTMOVE
 70
     0
  9
$LUNITS
 70
     2
  9
$LUPREC
 70
     2
  9
$SKETCHINC
 40
1.0
  9
$FILLETRAD
 40
10.0
  9
$AUNITS
 70
     0
  9
$AUPREC
 70
     2
  9
$MENU
  1
.
  9
$ELEVATION
 40
0.0
  9
$PELEVATION
 40
0.0
  9
$THICKNESS
 40
0.0
  9
$LIMCHECK
 70
     0
  9
$CHAMFERA
 40
0.0
  9
$CHAMFERB
 40
0.0
  9
$CHAMFERC
 40
0.0
  9
$CHAMFERD
 40
0.0
  9
$SKPOLY
 70
     0
  9
$TDCREATE
 40
2460695.901004306
  9
$TDUCREATE
 40
2460695.859337639
  9
$TDUPDATE
 40
2460695.901005405
  9
$TDUUPDATE
 40
2460695.859338738
  9
$TDINDWG
 40
0.0000000116
  9
$TDUSRTIMER
 40
0.0000000116
  9
$USRTIMER
 70
     1
  9
$ANGBASE
 50
0.0
  9
$ANGDIR
 70
     0
  9
$PDMODE
 70
     0
  9
$PDSIZE
 40
-1.0
  9
$PLINEWID
 40
0.0
  9
$SPLFRAME
 70
     0
  9
$SPLINETYPE
 70
     6
  9
$SPLINESEGS
 70
     8
  9
$HANDSEED
  5
530
  9
$SURFTAB1
 70
     6
  9
$SURFTAB2
 70
     6
  9
$SURFTYPE
 70
     6
  9
$SURFU
 70
     6
  9
$SURFV
 70
     6
  9
$UCSBASE
  2

  9
$UCSNAME
  2

  9
$UCSORG
 10
0.0
 20
0.0
 30
0.0
  9
$UCSXDIR
 10
1.0
 20
0.0
 30
0.0
  9
$UCSYDIR
 10
0.0
 20
1.0
 30
0.0
  9
$UCSORTHOREF
  2

  9
$UCSORTHOVIEW
 70
     0
  9
$UCSORGTOP
 10
0.0
 20
0.0
 30
0.0
  9
$UCSORGBOTTOM
 10
0.0
 20
0.0
 30
0.0
  9
$UCSORGLEFT
 10
0.0
 20
0.0
 30
0.0
  9
$UCSORGRIGHT
 10
0.0
 20
0.0
 30
0.0
  9
$UCSORGFRONT
 10
0.0
 20
0.0
 30
0.0
  9
$UCSORGBACK
 10
0.0
 20
0.0
 30
0.0
  9
$PUCSBASE
  2

  9
$PUCSNAME
  2

  9
$PUCSORG
 10
0.0
 20
0.0
 30
0.0
  9
$PUCSXDIR
 10
1.0
 20
0.0
 30
0.0
  9
$PUCSYDIR
 10
0.0
 20
1.0
 30
0.0
  9
$PUCSORTHOREF
  2

  9
$PUCSORTHOVIEW
 70
     0
  9
$PUCSORGTOP
 10
0.0
 20
0.0
 30
0.0
  9
$PUCSORGBOTTOM
 10
0.0
 20
0.0
 30
0.0
  9
$PUCSORGLEFT
 10
0.0
 20
0.0
 30
0.0
  9
$PUCSORGRIGHT
 10
0.0
 20
0.0
 30
0.0
  9
$PUCSORGFRONT
 10
0.0
 20
0.0
 30
0.0
  9
$PUCSORGBACK
 10
0.0
 20
0.0
 30
0.0
  9
$USERI1
 70
     0
  9
$USERI2
 70
     0
  9
$USERI3
 70
     0
  9
$USERI4
 70
     0
  9
$USERI5
 70
     0
  9
$USERR1
 40
0.0
  9
$USERR2
 40
0.0
  9
$USERR3
 40
0.0
  9
$USERR4
 40
0.0
  9
$USERR5
 40
0.0
  9
$WORLDVIEW
 70
     1
  9
$SHADEDGE
 70
     3
  9
$SHADEDIF
 70
    70
  9
$TILEMODE
 70
     1
  9
$MAXACTVP
 70
    64
  9
$PINSBASE
 10
0.0
 20
0.0
 30
0.0
  9
$PLIMCHECK
 70
     0
  9
$PEXTMIN
 10
1.0000000000E+20
 20
1.0000000000E+20
 30
1.0000000000E+20
  9
$PEXTMAX
 10
-1.0000000000E+20
 20
-1.0000000000E+20
 30
-1.0000000000E+20
  9
$PLIMMIN
 10
0.0
 20
0.0
  9
$PLIMMAX
 10
420.0
 20
297.0
  9
$UNITMODE
 70
     0
  9
$VISRETAIN
 70
     1
  9
$PLINEGEN
 70
     0
  9
$PSLTSCALE
 70
     1
  9
$TREEDEPTH
 70
  3020
  9
$CMLSTYLE
  2
Standard
  9
$CMLJUST
 70
     0
  9
$CMLSCALE
 40
20.0
  9
$PROXYGRAPHICS
 70
     1
  9
$MEASUREMENT
 70
     1
  9
$CELWEIGHT
370
    -1
  9
$ENDCAPS
280
     0
  9
$JOINSTYLE
280
     0
  9
$LWDISPLAY
290
     1
  9
$INSUNITS
 70
     4
  9
$HYPERLINKBASE
  1

  9
$STYLESHEET
  1

  9
$XEDIT
290
     1
  9
$CEPSNTYPE
380
     0
  9
$PSTYLEMODE
290
     1
  9
$FINGERPRINTGUID
  2
{3e9ff612-ceea-4ed8-bc3f-c1a10b902b2f}
  9
$VERSIONGUID
  2
{FAEB1C32-E019-11D5-929B-00C0DF256EC4}
  9
$EXTNAMES
290
     1
  9
$PSVPSCALE
 40
0.0
  9
$OLESTARTUP
290
     0
  0
ENDSEC
  0
SECTION
  2
CLASSES
  0
CLASS
  1
ACDBDICTIONARYWDFLT
  2
AcDbDictionaryWithDefault
  3
ObjectDBX Classes
 90
        0
280
     0
281
     0
  0
CLASS
  1
VISUALSTYLE
  2
AcDbVisualStyle
  3
ObjectDBX Classes
 90
     4095
280
     0
281
     0
  0
CLASS
  1
MATERIAL
  2
AcDbMaterial
  3
ObjectDBX Classes
 90
     1153
280
     0
281
     0
  0
CLASS
  1
SCALE
  2
AcDbScale
  3
ObjectDBX Classes
 90
     1153
280
     0
281
     0
  0
CLASS
  1
TABLESTYLE
  2
AcDbTableStyle
  3
ObjectDBX Classes
 90
     4095
280
     0
281
     0
  0
CLASS
  1
MLEADERSTYLE
  2
AcDbMLeaderStyle
  3
ACDB_MLEADERSTYLE_CLASS
 90
     4095
280
     0
281
     0
  0
CLASS
  1
SUN
  2
AcDbSun
  3
SCENEOE
 90
     1153
280
     0
281
     0
  0
CLASS
  1
ACDBPLACEHOLDER
  2
AcDbPlaceHolder
  3
ObjectDBX Classes
 90
        0
280
     0
281
     0
  0
CLASS
  1
LAYOUT
  2
AcDbLayout
  3
ObjectDBX Classes
 90
        0
280
     0
281
     0
  0
ENDSEC
  0
SECTION
  2
TABLES
  0
TABLE
  2
VPORT
  5
8
330
0
100
AcDbSymbolTable
 70
     1
  0
VPORT
  5
29
330
8
100
AcDbSymbolTableRecord
100
AcDbViewportTableRecord
  2
*Active
 70
     0
 10
0.0
 20
0.0
 11
1.0
 21
1.0
 12
7425.0
 22
5250.0
 13
0.0
 23
0.0
 14
10.0
 24
10.0
 15
10.0
 25
10.0
 16
0.0
 26
0.0
 36
1.0
 17
0.0
 27
0.0
 37
0.0
 40
10500.0
 41
1.4142857143
 42
50.0
 43
0.0
 44
0.0
 50
0.0
 51
0.0
 71
     0
 72
  2000
 73
     1
 74
     3
 75
     0
 76
     0
 77
     0
 78
     0
281
     0
 65
     1
110
0.0
120
0.0
130
0.0
111
1.0
121
0.0
131
0.0
112
0.0
122
1.0
132
0.0
 79
     0
146
0.0
  0
ENDTAB
  0
TABLE
  2
LTYPE
  5
5
330
0
100
AcDbSymbolTable
 70
     6
  0
LTYPE
  5
14
330
5
100
AcDbSymbolTableRecord
100
AcDbLinetypeTableRecord
  2
ByBlock
 70
     0
  3

 72
    65
 73
     0
 40
0.0
  0
LTYPE
  5
15
330
5
100
AcDbSymbolTableRecord
100
AcDbLinetypeTableRecord
  2
ByLayer
 70
     0
  3

 72
    65
 73
     0
 40
0.0
  0
LTYPE
  5
16
330
5
100
AcDbSymbolTableRecord
100
AcDbLinetypeTableRecord
  2
Continuous
 70
     0
  3
Solid line
 72
    65
 73
     0
 40
0.0
  0
LTYPE
  5
6E
330
5
100
AcDbSymbolTableRecord
100
AcDbLinetypeTableRecord
  2
HIDDEN
 70
     0
  3
Hidden __ __ __ __ __ __ __ __ __ __ __ __ __ __
 72
    65
 73
     2
 40
1.905
 49
1.27
 74
     0
 49
-0.635
 74
     0
  0
LTYPE
  5
6F
330
5
100
AcDbSymbolTableRecord
100
AcDbLinetypeTableRecord
  2
PHANTOM
 70
     0
  3
Phantom ______  __  __  ______  __  __  ______
 72
    65
 73
     6
 40
12.7
 49
6.35
 74
     0
 49
-1.27
 74
     0
 49
1.27
 74
     0
 49
-1.27
 74
     0
 49
1.27
 74
     0
 49
-1.27
 74
     0
  0
LTYPE
  5
70
330
5
100
AcDbSymbolTableRecord
100
AcDbLinetypeTableRecord
  2
CENTER
 70
     0
  3
Center ____ _ ____ _ ____ _ ____ _ ____ _ ____
 72
    65
 73
     4
 40
10.16
 49
6.35
 74
     0
 49
-1.27
 74
     0
 49
1.27
 74
     0
 49
-1.27
 74
     0
  0
LTYPE
  5
71
330
5
100
AcDbSymbolTableRecord
100
AcDbLinetypeTableRecord
  2
CENTERX2
 70
     0
  3
Center (2x) ________  __  ________  __  _____
 72
    65
 73
     4
 40
20.32
 49
12.7
 74
     0
 49
-2.54
 74
     0
 49
2.54
 74
     0
 49
-2.54
 74
     0
  0
LTYPE
  5
72
330
5
100
AcDbSymbolTableRecord
100
AcDbLinetypeTableRecord
  2
DOT2
 70
     0
  3
Dot (.5x) ........................................
 72
    65
 73
     2
 40
0.635
 49
0.0
 74
     0
 49
-0.635
 74
     0
  0
ENDTAB
  0
TABLE
  2
LAYER
  5
2
330
0
100
AcDbSymbolTable
 70
     2
  0
LAYER
  5
10
330
2
100
AcDbSymbolTableRecord
100
AcDbLayerTableRecord
  2
0
 70
     0
 62
     7
  6
Continuous
370
    -3
390
F
  0
LAYER
  5
73
330
2
100
AcDbSymbolTableRecord
100
AcDbLayerTableRecord
  2
FORMAT
 70
     0
 62
     7
  6
Continuous
370
    -3
390
F
  0
ENDTAB
  0
TABLE
  2
STYLE
  5
3
330
0
100
AcDbSymbolTable
 70
     2
  0
STYLE
  5
11
330
3
100
AcDbSymbolTableRecord
100
AcDbTextStyleTableRecord
  2
Standard
 70
     0
 40
0.0
 41
1.0
 50
0.0
 71
     0
 42
112.5
  3
txt
  4

  0
STYLE
  5
147
330
3
100
AcDbSymbolTableRecord
100
AcDbTextStyleTableRecord
  2
SLDTEXTSTYLE0
 70
     0
 40
0.0
 41
0.75
 50
0.0
 71
     0
 42
112.5
  3
TXT
  4

  0
ENDTAB
  0
TABLE
  2
VIEW
  5
6
330
0
100
AcDbSymbolTable
 70
     0
  0
ENDTAB
  0
TABLE
  2
UCS
  5
7
330
0
100
AcDbSymbolTable
 70
     0
  0
ENDTAB
  0
TABLE
  2
APPID
  5
9
330
0
100
AcDbSymbolTable
 70
     1
  0
APPID
  5
12
330
9
100
AcDbSymbolTableRecord
100
AcDbRegAppTableRecord
  2
ACAD
 70
     0
  0
ENDTAB
  0
TABLE
  2
DIMSTYLE
  5
A
330
0
100
AcDbSymbolTable
 70
     4
100
AcDbDimStyleTable
  0
DIMSTYLE
105
27
330
A
100
AcDbSymbolTableRecord
100
AcDbDimStyleTableRecord
  2
ISO-25
 70
     0
 41
2.5
 42
0.625
 43
3.75
 44
1.25
 73
     0
 74
     0
 77
     1
 78
     8
140
2.5
141
2.5
143
0.0393700787
147
0.625
171
     3
172
     1
178
     0
271
     2
272
     2
274
     3
278
    44
283
     0
284
     8
340
11
  0
DIMSTYLE
105
148
102
{ACAD_REACTORS
330
146
330
151
330
15A
330
17A
330
184
330
18E
330
380
330
38A
330
394
330
526
102
}
330
A
100
AcDbSymbolTableRecord
100
AcDbDimStyleTableRecord
  2
SLDDIMSTYLE0
 70
     0
 41
82.55
 44
0.0
 45
0.000000001
 73
     0
 74
     0
 77
     1
 78
    12
 79
     3
140
112.5
147
28.125
173
     1
178
     0
271
     0
272
     0
276
     2
284
    12
340
147
  0
DIMSTYLE
105
165
102
{ACAD_REACTORS
330
164
102
}
330
A
100
AcDbSymbolTableRecord
100
AcDbDimStyleTableRecord
  2
SLDDIMSTYLE1
 70
     0
 41
82.55
 44
0.0
 45
0.000000001
 73
     0
 74
     0
 77
     1
 78
    12
 79
     3
140
112.5
147
28.125
172
     1
173
     1
178
     0
271
     0
272
     0
276
     2
284
    12
289
     0
340
147
  0
DIMSTYLE
105
172
102
{ACAD_REACTORS
330
171
102
}
330
A
100
AcDbSymbolTableRecord
100
AcDbDimStyleTableRecord
  2
SLDDIMSTYLE2
 70
     0
 41
82.55
 44
0.0
 73
     0
 74
     0
 77
     1
 78
    12
 79
     3
140
112.5
144
25.0
147
28.125
173
     1
178
     0
179
     2
272
     2
276
     2
284
    12
340
147
  0
ENDTAB
  0
TABLE
  2
BLOCK_RECORD
  5
1
330
0
100
AcDbSymbolTable
 70
    13
  0
BLOCK_RECORD
  5
1F
330
1
100
AcDbSymbolTableRecord
100
AcDbBlockTableRecord
  2
*Model_Space
340
22
  0
BLOCK_RECORD
  5
1B
330
1
100
AcDbSymbolTableRecord
100
AcDbBlockTableRecord
  2
*Paper_Space
340
1E
  0
BLOCK_RECORD
  5
23
330
1
100
AcDbSymbolTableRecord
100
AcDbBlockTableRecord
  2
*Paper_Space0
340
26
  0
BLOCK_RECORD
  5
149
330
1
100
AcDbSymbolTableRecord
100
AcDbBlockTableRecord
  2
_D
340
0
  0
BLOCK_RECORD
  5
152
330
1
100
AcDbSymbolTableRecord
100
AcDbBlockTableRecord
  2
_D_1
340
0
  0
BLOCK_RECORD
  5
15B
330
1
100
AcDbSymbolTableRecord
100
AcDbBlockTableRecord
  2
_D_2
340
0
  0
BLOCK_RECORD
  5
166
330
1
100
AcDbSymbolTableRecord
100
AcDbBlockTableRecord
  2
_D_3
340
0
  0
BLOCK_RECORD
  5
173
330
1
100
AcDbSymbolTableRecord
100
AcDbBlockTableRecord
  2
_D_4
340
0
  0
BLOCK_RECORD
  5
17B
330
1
100
AcDbSymbolTableRecord
100
AcDbBlockTableRecord
  2
_D_5
340
0
  0
BLOCK_RECORD
  5
185
330
1
100
AcDbSymbolTableRecord
100
AcDbBlockTableRecord
  2
_D_6
340
0
  0
BLOCK_RECORD
  5
18F
330
1
100
AcDbSymbolTableRecord
100
AcDbBlockTableRecord
  2
_D_7
340
0
  0
BLOCK_RECORD
  5
381
330
1
100
AcDbSymbolTableRecord
100
AcDbBlockTableRecord
  2
_D_8
340
0
  0
BLOCK_RECORD
  5
38B
330
1
100
AcDbSymbolTableRecord
100
AcDbBlockTableRecord
  2
_D_9
340
0
  0
BLOCK_RECORD
  5
395
330
1
100
AcDbSymbolTableRecord
100
AcDbBlockTableRecord
  2
_D_10
340
0
  0
BLOCK_RECORD
  5
527
330
1
100
AcDbSymbolTableRecord
100
AcDbBlockTableRecord
  2
_D_11
340
0
  0
ENDTAB
  0
ENDSEC
  0
SECTION
  2
BLOCKS
  0
BLOCK
  5
20
330
1F
100
AcDbEntity
  8
0
100
AcDbBlockBegin
  2
*Model_Space
 70
     0
 10
0.0
 20
0.0
 30
0.0
  3
*Model_Space
  1

  0
ENDBLK
  5
21
330
1F
100
AcDbEntity
  8
0
100
AcDbBlockEnd
  0
BLOCK
  5
1C
330
1B
100
AcDbEntity
 67
     1
  8
0
100
AcDbBlockBegin
  2
*Paper_Space
 70
     0
 10
0.0
 20
0.0
 30
0.0
  3
*Paper_Space
  1

  0
ENDBLK
  5
1D
330
1B
100
AcDbEntity
 67
     1
  8
0
100
AcDbBlockEnd
  0
BLOCK
  5
24
330
23
100
AcDbEntity
  8
0
100
AcDbBlockBegin
  2
*Paper_Space0
 70
     0
 10
0.0
 20
0.0
 30
0.0
  3
*Paper_Space0
  1

  0
ENDBLK
  5
25
330
23
100
AcDbEntity
  8
0
100
AcDbBlockEnd
  0
BLOCK
  5
14A
330
149
100
AcDbEntity
  8
0
100
AcDbBlockBegin
  2
_D
 70
     0
 10
0.0
 20
0.0
 30
0.0
  3
_D
  1

  0
SOLID
  5
14C
330
149
100
AcDbEntity
  8
0
  6
Continuous
 62
     7
370
    18
100
AcDbTrace
 10
7143.9605747284
 20
8710.5384175766
 30
0.0
 11
7131.2605747284
 21
8627.9884175766
 31
0.0
 12
7156.6605747284
 22
8627.9884175766
 32
0.0
 13
7156.6605747284
 23
8627.9884175766
 33
0.0
  0
SOLID
  5
14D
330
149
100
AcDbEntity
  8
0
  6
Continuous
 62
     7
370
    18
100
AcDbTrace
 10
7143.9605747284
 20
6945.2149646262
 30
0.0
 11
7156.6605747284
 21
7027.7649646262
 31
0.0
 12
7131.2605747284
 22
7027.7649646262
 32
0.0
 13
7131.2605747284
 23
7027.7649646262
 33
0.0
  0
LINE
  5
14E
330
149
100
AcDbEntity
  8
0
  6
Continuous
 62
     7
370
     0
100
AcDbLine
 10
7597.3054915482
 20
8710.5384175766
 30
0.0
 11
7118.9605747284
 21
8710.5384175766
 31
0.0
  0
LINE
  5
14F
330
149
100
AcDbEntity
  8
0
  6
Continuous
 62
     7
370
     0
100
AcDbLine
 10
7143.9605747284
 20
8710.5384175766
 30
0.0
 11
7143.9605747284
 21
6945.2149646262
 31
0.0
  0
MTEXT
  5
150
330
149
100
AcDbEntity
  8
0
  6
Continuous
 62
     7
370
    18
100
AcDbMText
 10
6998.9404598248
 20
7534.5995662062
 30
0.0
 40
112.5
 41
0.0
 71
     1
 72
     1
  1
1765
  7
SLDTEXTSTYLE0
 11
-3.491481338843133E-15
 21
1.0
 31
0.0
 73
     1
 44
1.0
  0
ENDBLK
  5
14B
330
149
100
AcDbEntity
  8
0
100
AcDbBlockEnd
  0
BLOCK
  5
153
330
152
100
AcDbEntity
  8
0
100
AcDbBlockBegin
  2
_D_1
 70
     0
 10
0.0
 20
0.0
 30
0.0
  3
_D_1
  1

  0
SOLID
  5
155
330
152
100
AcDbEntity
  8
0
  6
Continuous
 62
     7
370
    18
100
AcDbTrace
 10
7430.9638837255
 20
8434.289138574
 30
0.0
 11
7418.2638837255
 21
8351.739138574
 31
0.0
 12
7443.6638837255
 22
8351.739138574
 32
0.0
 13
7443.6638837255
 23
8351.739138574
 33
0.0
  0
SOLID
  5
156
330
152
100
AcDbEntity
  8
0
  6
Continuous
 62
     7
370
    18
100
AcDbTrace
 10
7430.9638837255
 20
6945.2149646262
 30
0.0
 11
7443.6638837255
 21
7027.7649646262
 31
0.0
 12
7418.2638837255
 22
7027.7649646262
 32
0.0
 13
7418.2638837255
 23
7027.7649646262
 33
0.0
  0
LINE
  5
157
330
152
100
AcDbEntity
  8
0
  6
Continuous
 62
     7
370
     0
100
AcDbLine
 10
7922.0924768949
 20
8434.289138574
 30
0.0
 11
7405.9638837255
 21
8434.289138574
 31
0.0
  0
LINE
  5
158
330
152
100
AcDbEntity
  8
0
  6
Continuous
 62
     7
370
     0
100
AcDbLine
 10
7430.9638837255
 20
8434.289138574
 30
0.0
 11
7430.9638837255
 21
6945.2149646262
 31
0.0
  0
MTEXT
  5
159
330
152
100
AcDbEntity
  8
0
  6
Continuous
 62
     7
370
    18
100
AcDbMText
 10
7285.9437688219
 20
7534.5995662062
 30
0.0
 40
112.5
 41
0.0
 71
     1
 72
     1
  1
1489
  7
SLDTEXTSTYLE0
 11
-3.491481338843133E-15
 21
1.0
 31
0.0
 73
     1
 44
1.0
  0
ENDBLK
  5
154
330
152
100
AcDbEntity
  8
0
100
AcDbBlockEnd
  0
BLOCK
  5
15C
330
15B
100
AcDbEntity
  8
0
100
AcDbBlockBegin
  2
_D_2
 70
     0
 10
0.0
 20
0.0
 30
0.0
  3
_D_2
  1

  0
SOLID
  5
15E
330
15B
100
AcDbEntity
  8
0
  6
Continuous
 62
     7
370
    18
100
AcDbTrace
 10
10109.9297357649
 20
7564.1736846294
 30
0.0
 11
10097.2297357649
 21
7481.6236846294
 31
0.0
 12
10122.6297357649
 22
7481.6236846294
 32
0.0
 13
10122.6297357649
 23
7481.6236846294
 33
0.0
  0
SOLID
  5
15F
330
15B
100
AcDbEntity
  8
0
  6
Continuous
 62
     7
370
    18
100
AcDbTrace
 10
10109.9297357649
 20
6945.2149646262
 30
0.0
 11
10122.6297357649
 21
7027.7649646262
 31
0.0
 12
10097.2297357649
 22
7027.7649646262
 32
0.0
 13
10097.2297357649
 23
7027.7649646262
 33
0.0
  0
LINE
  5
160
330
15B
100
AcDbEntity
  8
0
  6
Continuous
 62
     7
370
     0
100
AcDbLine
 10
9214.7461280813
 20
7564.1736846294
 30
0.0
 11
10134.9297357649
 21
7564.1736846294
 31
0.0
  0
LINE
  5
161
330
15B
100
AcDbEntity
  8
0
  6
Continuous
 62
     7
370
     0
100
AcDbLine
 10
9658.444791382
 20
6945.2149646262
 30
0.0
 11
10134.9297357649
 21
6945.2149646262
 31
0.0
  0
LINE
  5
162
330
15B
100
AcDbEntity
  8
0
  6
Continuous
 62
     7
370
     0
100
AcDbLine
 10
10109.9297357649
 20
7564.1736846294
 30
0.0
 11
10109.9297357649
 21
6945.2149646262
 31
0.0
  0
MTEXT
  5
163
330
15B
100
AcDbEntity
  8
0
  6
Continuous
 62
     7
370
    18
100
AcDbMText
 10
9964.9096208613
 20
7124.3134511231
 30
0.0
 40
112.5
 41
0.0
 71
     1
 72
     1
  1
619
  7
SLDTEXTSTYLE0
 11
-3.491481338843133E-15
 21
1.0
 31
0.0
 73
     1
 44
1.0
  0
ENDBLK
  5
15D
330
15B
100
AcDbEntity
  8
0
100
AcDbBlockEnd
  0
BLOCK
  5
167
330
166
100
AcDbEntity
  8
0
100
AcDbBlockBegin
  2
_D_3
 70
     0
 10
0.0
 20
0.0
 30
0.0
  3
_D_3
  1

  0
SOLID
  5
169
330
166
100
AcDbEntity
  8
0
  6
Continuous
 62
     7
370
    18
100
AcDbTrace
 10
9769.6760380134
 20
7402.7841426962
 30
0.0
 11
9782.3760380134
 21
7485.3341426962
 31
0.0
 12
9756.9760380134
 22
7485.3341426962
 32
0.0
 13
9756.9760380134
 23
7485.3341426962
 33
0.0
  0
SOLID
  5
16A
330
166
100
AcDbEntity
  8
0
  6
Continuous
 62
     7
370
    18
100
AcDbTrace
 10
9769.6760380134
 20
6945.2149646262
 30
0.0
 11
9756.9760380134
 21
6862.6649646262
 31
0.0
 12
9782.3760380134
 22
6862.6649646262
 32
0.0
 13
9782.3760380134
 23
6862.6649646262
 33
0.0
  0
LINE
  5
16B
330
166
100
AcDbEntity
  8
0
  6
Continuous
 62
     7
370
     0
100
AcDbLine
 10
9514.9721525271
 20
7402.7841426962
 30
0.0
 11
9794.6760380134
 21
7402.7841426962
 31
0.0
  0
LINE
  5
16C
330
166
100
AcDbEntity
  8
0
  6
Continuous
 62
     7
370
     0
100
AcDbLine
 10
9658.444791382
 20
6945.2149646262
 30
0.0
 11
9794.6760380134
 21
6945.2149646262
 31
0.0
  0
LINE
  5
16D
330
166
100
AcDbEntity
  8
0
  6
Continuous
 62
     7
370
     0
100
AcDbLine
 10
9769.6760380134
 20
7402.7841426962
 30
0.0
 11
9769.6760380134
 21
7561.5341426962
 31
0.0
  0
LINE
  5
16E
330
166
100
AcDbEntity
  8
0
  6
Continuous
 62
     7
370
     0
100
AcDbLine
 10
9769.6760380134
 20
7402.7841426962
 30
0.0
 11
9769.6760380134
 21
6945.2149646262
 31
0.0
  0
LINE
  5
16F
330
166
100
AcDbEntity
  8
0
  6
Continuous
 62
     7
370
     0
100
AcDbLine
 10
9769.6760380134
 20
6945.2149646262
 30
0.0
 11
9769.6760380134
 21
6786.4649646262
 31
0.0
  0
MTEXT
  5
170
330
166
100
AcDbEntity
  8
0
  6
Continuous
 62
     7
370
    18
100
AcDbMText
 10
9624.6559231098
 20
7028.2609718535
 30
0.0
 40
112.5
 41
0.0
 71
     1
 72
     1
  1
458
  7
SLDTEXTSTYLE0
 11
-3.491481338843133E-15
 21
1.0
 31
0.0
 73
     1
 44
1.0
  0
ENDBLK
  5
168
330
166
100
AcDbEntity
  8
0
100
AcDbBlockEnd
  0
BLOCK
  5
174
330
173
100
AcDbEntity
  8
0
100
AcDbBlockBegin
  2
_D_4
 70
     0
 10
0.0
 20
0.0
 30
0.0
  3
_D_4
  1

  0
ARC
  5
176
330
173
100
AcDbEntity
  8
0
  6
Continuous
 62
     7
370
    18
100
AcDbCircle
 10
9698.869729251
 20
6945.2149646262
 30
0.0
 40
1845.339113165179
100
AcDbArc
 50
145.0
 51
180.0
  0
SOLID
  5
177
330
173
100
AcDbEntity
  8
0
  6
Continuous
 62
     7
370
    18
100
AcDbTrace
 10
8187.2564222953
 20
8003.6579970147
 30
0.0
 11
8130.8674296909
 21
7942.0457091732
 31
0.0
 12
8151.9943135556
 22
7927.9455397356
 32
0.0
 13
8151.9943135556
 23
7927.9455397356
 33
0.0
  0
SOLID
  5
178
330
173
100
AcDbEntity
  8
0
  6
Continuous
 62
     7
370
    18
100
AcDbTrace
 10
7853.5306160858
 20
6945.2149646262
 30
0.0
 11
7868.0724690593
 21
7027.4604934536
 31
0.0
 12
7842.6788140141
 22
7028.0281935923
 32
0.0
 13
7842.6788140141
 23
7028.0281935923
 33
0.0
  0
MTEXT
  5
179
330
173
100
AcDbEntity
  8
0
  6
Continuous
 62
     7
370
    18
100
AcDbMText
 10
7743.5388808426
 20
7333.8129534832
 30
0.0
 40
112.5
 41
0.0
 71
     1
 72
     1
  1
35°
  7
SLDTEXTSTYLE0
 11
0.2502678756984174
 21
0.9681766318153943
 31
0.0
 73
     1
 44
1.0
  0
ENDBLK
  5
175
330
173
100
AcDbEntity
  8
0
100
AcDbBlockEnd
  0
BLOCK
  5
17C
330
17B
100
AcDbEntity
  8
0
100
AcDbBlockBegin
  2
_D_5
 70
     0
 10
0.0
 20
0.0
 30
0.0
  3
_D_5
  1

  0
SOLID
  5
17E
330
17B
100
AcDbEntity
  8
0
  6
Continuous
 62
     7
370
    18
100
AcDbTrace
 10
7766.0818174927
 20
8915.8722908906
 30
0.0
 11
7826.4183980071
 21
8858.1203251074
 31
0.0
 12
7840.9872394904
 22
8878.9267870323
 32
0.0
 13
7840.9872394904
 23
8878.9267870323
 33
0.0
  0
SOLID
  5
17F
330
17B
100
AcDbEntity
  8
0
  6
Continuous
 62
     7
370
    18
100
AcDbTrace
 10
9633.7484784715
 20
7608.11801601
 30
0.0
 11
9573.4118979571
 21
7665.8699817933
 31
0.0
 12
9558.8430564738
 22
7645.0635198684
 32
0.0
 13
9558.8430564738
 23
7645.0635198684
 33
0.0
  0
LINE
  5
180
330
17B
100
AcDbEntity
  8
0
  6
Continuous
 62
     7
370
     0
100
AcDbLine
 10
7636.644902457
 20
8731.0172186836
 30
0.0
 11
7780.4212284015
 21
8936.3510919978
 31
0.0
  0
LINE
  5
181
330
17B
100
AcDbEntity
  8
0
  6
Continuous
 62
     7
370
     0
100
AcDbLine
 10
9504.3115634359
 20
7423.2629438032
 30
0.0
 11
9648.0878893803
 21
7628.5968171173
 31
0.0
  0
LINE
  5
182
330
17B
100
AcDbEntity
  8
0
  6
Continuous
 62
     7
370
     0
100
AcDbLine
 10
7766.0818174927
 20
8915.8722908906
 30
0.0
 11
9633.7484784715
 21
7608.11801601
 31
0.0
  0
MTEXT
  5
183
330
17B
100
AcDbEntity
  8
0
  6
Continuous
 62
     7
370
    18
100
AcDbMText
 10
8842.0199348876
 20
8339.5291815769
 30
0.0
 40
112.5
 41
0.0
 71
     1
 72
     1
  1
2280
  7
SLDTEXTSTYLE0
 11
0.8191520442889457
 21
-0.5735764363511119
 31
0.0
 73
     1
 44
1.0
  0
ENDBLK
  5
17D
330
17B
100
AcDbEntity
  8
0
100
AcDbBlockEnd
  0
BLOCK
  5
186
330
185
100
AcDbEntity
  8
0
100
AcDbBlockBegin
  2
_D_6
 70
     0
 10
0.0
 20
0.0
 30
0.0
  3
_D_6
  1

  0
SOLID
  5
188
330
185
100
AcDbEntity
  8
0
  6
Continuous
 62
     7
370
    18
100
AcDbTrace
 10
7622.3054915482
 20
9410.5384175764
 30
0.0
 11
7704.8554915482
 21
9397.8384175764
 31
0.0
 12
7704.8554915482
 22
9423.2384175764
 32
0.0
 13
7704.8554915482
 23
9423.2384175764
 33
0.0
  0
SOLID
  5
189
330
185
100
AcDbEntity
  8
0
  6
Continuous
 62
     7
370
    18
100
AcDbTrace
 10
9489.9721525271
 20
9410.5384175764
 30
0.0
 11
9407.4221525271
 21
9423.2384175764
 31
0.0
 12
9407.4221525271
 22
9397.8384175764
 32
0.0
 13
9407.4221525271
 23
9397.8384175764
 33
0.0
  0
LINE
  5
18A
330
185
100
AcDbEntity
  8
0
  6
Continuous
 62
     7
370
     0
100
AcDbLine
 10
7622.3054915482
 20
8735.5384175764
 30
0.0
 11
7622.3054915482
 21
9435.5384175764
 31
0.0
  0
LINE
  5
18B
330
185
100
AcDbEntity
  8
0
  6
Continuous
 62
     7
370
     0
100
AcDbLine
 10
9489.9721525271
 20
7427.784142696
 30
0.0
 11
9489.9721525271
 21
9435.5384175764
 31
0.0
  0
LINE
  5
18C
330
185
100
AcDbEntity
  8
0
  6
Continuous
 62
     7
370
     0
100
AcDbLine
 10
7622.3054915482
 20
9410.5384175764
 30
0.0
 11
9489.9721525271
 21
9410.5384175764
 31
0.0
  0
MTEXT
  5
18D
330
185
100
AcDbEntity
  8
0
  6
Continuous
 62
     7
370
    18
100
AcDbMText
 10
8303.005766912
 20
9555.55853248
 30
0.0
 40
112.5
 41
0.0
 71
     1
 72
     1
  1
1868
  7
SLDTEXTSTYLE0
 73
     1
 44
1.0
  0
ENDBLK
  5
187
330
185
100
AcDbEntity
  8
0
100
AcDbBlockEnd
  0
BLOCK
  5
190
330
18F
100
AcDbEntity
  8
0
100
AcDbBlockBegin
  2
_D_7
 70
     0
 10
0.0
 20
0.0
 30
0.0
  3
_D_7
  1

  0
SOLID
  5
192
330
18F
100
AcDbEntity
  8
0
  6
Continuous
 62
     7
370
    18
100
AcDbTrace
 10
7782.0163394358
 20
9110.5384175764
 30
0.0
 11
7864.5663394358
 21
9097.8384175764
 31
0.0
 12
7864.5663394358
 22
9123.2384175764
 32
0.0
 13
7864.5663394358
 23
9123.2384175764
 33
0.0
  0
SOLID
  5
193
330
18F
100
AcDbEntity
  8
0
  6
Continuous
 62
     7
370
    18
100
AcDbTrace
 10
9240.1069782702
 20
9110.5384175764
 30
0.0
 11
9157.5569782702
 21
9123.2384175764
 31
0.0
 12
9157.5569782702
 22
9097.8384175764
 32
0.0
 13
9157.5569782702
 23
9097.8384175764
 33
0.0
  0
LINE
  5
194
330
18F
100
AcDbEntity
  8
0
  6
Continuous
 62
     7
370
     0
100
AcDbLine
 10
7782.0163394358
 20
8452.799235525
 30
0.0
 11
7782.0163394358
 21
9135.5384175764
 31
0.0
  0
LINE
  5
195
330
18F
100
AcDbEntity
  8
0
  6
Continuous
 62
     7
370
     0
100
AcDbLine
 10
9240.1069782702
 20
7431.8331788202
 30
0.0
 11
9240.1069782702
 21
9135.5384175764
 31
0.0
  0
LINE
  5
196
330
18F
100
AcDbEntity
  8
0
  6
Continuous
 62
     7
370
     0
100
AcDbLine
 10
7782.0163394358
 20
9110.5384175764
 30
0.0
 11
9240.1069782702
 21
9110.5384175764
 31
0.0
  0
MTEXT
  5
197
330
18F
100
AcDbEntity
  8
0
  6
Continuous
 62
     7
370
    18
100
AcDbMText
 10
8201.0401320105
 20
9255.55853248
 30
0.0
 40
112.5
 41
0.0
 71
     1
 72
     1
  1
1458
  7
SLDTEXTSTYLE0
 73
     1
 44
1.0
  0
ENDBLK
  5
191
330
18F
100
AcDbEntity
  8
0
100
AcDbBlockEnd
  0
BLOCK
  5
382
330
381
100
AcDbEntity
  8
0
100
AcDbBlockBegin
  2
_D_8
 70
     0
 10
0.0
 20
0.0
 30
0.0
  3
_D_8
  1

  0
SOLID
  5
384
330
381
100
AcDbEntity
  8
0
  6
Continuous
 62
     7
370
    18
100
AcDbTrace
 10
1458.2171294935
 20
5295.2149644591
 30
0.0
 11
1540.7671294935
 21
5282.5149644591
 31
0.0
 12
1540.7671294935
 22
5307.9149644591
 32
0.0
 13
1540.7671294935
 23
5307.9149644591
 33
0.0
  0
SOLID
  5
385
330
381
100
AcDbEntity
  8
0
  6
Continuous
 62
     7
370
    18
100
AcDbTrace
 10
3328.2171294935
 20
5295.2149644591
 30
0.0
 11
3245.6671294935
 21
5307.9149644591
 31
0.0
 12
3245.6671294935
 22
5282.5149644591
 32
0.0
 13
3245.6671294935
 23
5282.5149644591
 33
0.0
  0
LINE
  5
386
330
381
100
AcDbEntity
  8
0
  6
Continuous
 62
     7
370
     0
100
AcDbLine
 10
1458.2171294935
 20
5520.2149644592
 30
0.0
 11
1458.2171294935
 21
5270.2149644591
 31
0.0
  0
LINE
  5
387
330
381
100
AcDbEntity
  8
0
  6
Continuous
 62
     7
370
     0
100
AcDbLine
 10
3328.2171294935
 20
5520.2149644592
 30
0.0
 11
3328.2171294935
 21
5270.2149644591
 31
0.0
  0
LINE
  5
388
330
381
100
AcDbEntity
  8
0
  6
Continuous
 62
     7
370
     0
100
AcDbLine
 10
1458.2171294935
 20
5295.2149644591
 30
0.0
 11
3328.2171294935
 21
5295.2149644591
 31
0.0
  0
MTEXT
  5
389
330
381
100
AcDbEntity
  8
0
  6
Continuous
 62
     7
370
    18
100
AcDbMText
 10
2191.0195053967
 20
5440.2350793627
 30
0.0
 40
112.5
 41
0.0
 71
     1
 72
     1
  1
1870
  7
SLDTEXTSTYLE0
 73
     1
 44
1.0
  0
ENDBLK
  5
383
330
381
100
AcDbEntity
  8
0
100
AcDbBlockEnd
  0
BLOCK
  5
38C
330
38B
100
AcDbEntity
  8
0
100
AcDbBlockBegin
  2
_D_9
 70
     0
 10
0.0
 20
0.0
 30
0.0
  3
_D_9
  1

  0
SOLID
  5
38E
330
38B
100
AcDbEntity
  8
0
  6
Continuous
 62
     7
370
    18
100
AcDbTrace
 10
3328.2171294935
 20
5295.2149644591
 30
0.0
 11
3410.7671294935
 21
5282.5149644591
 31
0.0
 12
3410.7671294935
 22
5307.9149644591
 32
0.0
 13
3410.7671294935
 23
5307.9149644591
 33
0.0
  0
SOLID
  5
38F
330
38B
100
AcDbEntity
  8
0
  6
Continuous
 62
     7
370
    18
100
AcDbTrace
 10
5698.2171294935
 20
5295.2149644591
 30
0.0
 11
5615.6671294935
 21
5307.9149644591
 31
0.0
 12
5615.6671294935
 22
5282.5149644591
 32
0.0
 13
5615.6671294935
 23
5282.5149644591
 33
0.0
  0
LINE
  5
390
330
38B
100
AcDbEntity
  8
0
  6
Continuous
 62
     7
370
     0
100
AcDbLine
 10
3328.2171294935
 20
5520.2149644592
 30
0.0
 11
3328.2171294935
 21
5270.2149644591
 31
0.0
  0
LINE
  5
391
330
38B
100
AcDbEntity
  8
0
  6
Continuous
 62
     7
370
     0
100
AcDbLine
 10
5698.2171294935
 20
5520.2149644592
 30
0.0
 11
5698.2171294935
 21
5270.2149644591
 31
0.0
  0
LINE
  5
392
330
38B
100
AcDbEntity
  8
0
  6
Continuous
 62
     7
370
     0
100
AcDbLine
 10
3328.2171294935
 20
5295.2149644591
 30
0.0
 11
5698.2171294935
 21
5295.2149644591
 31
0.0
  0
MTEXT
  5
393
330
38B
100
AcDbEntity
  8
0
  6
Continuous
 62
     7
370
    18
100
AcDbMText
 10
4356.1714399499
 20
5440.2350793626
 30
0.0
 40
112.5
 41
0.0
 71
     1
 72
     1
  1
2370
  7
SLDTEXTSTYLE0
 73
     1
 44
1.0
  0
ENDBLK
  5
38D
330
38B
100
AcDbEntity
  8
0
100
AcDbBlockEnd
  0
BLOCK
  5
396
330
395
100
AcDbEntity
  8
0
100
AcDbBlockBegin
  2
_D_10
 70
     0
 10
0.0
 20
0.0
 30
0.0
  3
_D_10
  1

  0
SOLID
  5
398
330
395
100
AcDbEntity
  8
0
  6
Continuous
 62
     7
370
    18
100
AcDbTrace
 10
1303.2171294934
 20
8960.5384174095
 30
0.0
 11
1385.7671294934
 21
8947.8384174095
 31
0.0
 12
1385.7671294934
 22
8973.2384174095
 32
0.0
 13
1385.7671294934
 23
8973.2384174095
 33
0.0
  0
SOLID
  5
399
330
395
100
AcDbEntity
  8
0
  6
Continuous
 62
     7
370
    18
100
AcDbTrace
 10
2443.2171294934
 20
8960.5384174095
 30
0.0
 11
2360.6671294934
 21
8973.2384174095
 31
0.0
 12
2360.6671294934
 22
8947.8384174095
 32
0.0
 13
2360.6671294934
 23
8947.8384174095
 33
0.0
  0
LINE
  5
39A
330
395
100
AcDbEntity
  8
0
  6
Continuous
 62
     7
370
     0
100
AcDbLine
 10
1303.2171294934
 20
8574.1681560381
 30
0.0
 11
1303.2171294934
 21
8985.5384174095
 31
0.0
  0
LINE
  5
39B
330
395
100
AcDbEntity
  8
0
  6
Continuous
 62
     7
370
     0
100
AcDbLine
 10
2443.2171294934
 20
8574.1681560381
 30
0.0
 11
2443.2171294934
 21
8985.5384174095
 31
0.0
  0
LINE
  5
39C
330
395
100
AcDbEntity
  8
0
  6
Continuous
 62
     7
370
     0
100
AcDbLine
 10
1303.2171294934
 20
8960.5384174095
 30
0.0
 11
2443.2171294934
 21
8960.5384174095
 31
0.0
  0
MTEXT
  5
39D
330
395
100
AcDbEntity
  8
0
  6
Continuous
 62
     7
370
    18
100
AcDbMText
 10
1813.3420044433
 20
9105.5585323131
 30
0.0
 40
112.5
 41
0.0
 71
     1
 72
     1
  1
1140
  7
SLDTEXTSTYLE0
 73
     1
 44
1.0
  0
ENDBLK
  5
397
330
395
100
AcDbEntity
  8
0
100
AcDbBlockEnd
  0
BLOCK
  5
528
330
527
100
AcDbEntity
  8
0
100
AcDbBlockBegin
  2
_D_11
 70
     0
 10
0.0
 20
0.0
 30
0.0
  3
_D_11
  1

  0
SOLID
  5
52A
330
527
100
AcDbEntity
  8
0
  6
Continuous
 62
     7
370
    18
100
AcDbTrace
 10
1268.2171294933
 20
4243.9897115021
 30
0.0
 11
1350.7671294933
 21
4231.2897115022
 31
0.0
 12
1350.7671294933
 22
4256.6897115022
 32
0.0
 13
1350.7671294933
 23
4256.6897115022
 33
0.0
  0
SOLID
  5
52B
330
527
100
AcDbEntity
  8
0
  6
Continuous
 62
     7
370
    18
100
AcDbTrace
 10
6008.2171294933
 20
4243.9897115031
 30
0.0
 11
5925.6671294933
 21
4256.6897115031
 31
0.0
 12
5925.6671294933
 22
4231.2897115031
 32
0.0
 13
5925.6671294933
 23
4231.2897115031
 33
0.0
  0
LINE
  5
52C
330
527
100
AcDbEntity
  8
0
  6
Continuous
 62
     7
370
     0
100
AcDbLine
 10
1268.2171294934
 20
3671.2596687023
 30
0.0
 11
1268.2171294933
 21
4268.9897115021
 31
0.0
  0
LINE
  5
52D
330
527
100
AcDbEntity
  8
0
  6
Continuous
 62
     7
370
     0
100
AcDbLine
 10
6008.2171294934
 20
3671.2596687024
 30
0.0
 11
6008.2171294933
 21
4268.9897115031
 31
0.0
  0
LINE
  5
52E
330
527
100
AcDbEntity
  8
0
  6
Continuous
 62
     7
370
     0
100
AcDbLine
 10
1268.2171294933
 20
4243.9897115021
 30
0.0
 11
6008.2171294933
 21
4243.9897115031
 31
0.0
  0
MTEXT
  5
52F
330
527
100
AcDbEntity
  8
0
  6
Continuous
 62
     7
370
    18
100
AcDbMText
 10
3520.73212984
 20
4389.0098264062
 30
0.0
 40
112.5
 41
0.0
 71
     1
 72
     1
  1
4740
  7
SLDTEXTSTYLE0
 73
     1
 44
1.0
  0
ENDBLK
  5
529
330
527
100
AcDbEntity
  8
0
100
AcDbBlockEnd
  0
ENDSEC
  0
SECTION
  2
ENTITIES
  0
LINE
  5
74
330
1F
100
AcDbEntity
  8
0
  6
Continuous
 62
     7
370
    25
100
AcDbLine
 10
8197.8488355074
 20
7737.9634845428
 30
0.0
 11
8420.5810137627
 21
7346.8184873454
 31
0.0
  0
CIRCLE
  5
75
330
1F
100
AcDbEntity
  8
0
  6
Continuous
 62
     7
370
    25
100
AcDbCircle
 10
8178.2120309548
 20
7711.8216424698
 30
0.0
 40
6.500000000000734
  0
CIRCLE
  5
76
330
1F
100
AcDbEntity
  8
0
  6
Continuous
 62
     7
370
    25
100
AcDbCircle
 10
8478.0810137628
 20
7185.214964626
 30
0.0
 40
6.499999999998703
  0
LINE
  5
77
330
1F
100
AcDbEntity
  8
0
  6
Continuous
 62
     7
370
    25
100
AcDbLine
 10
8145.7095604733
 20
7708.273486245
 30
0.0
 11
8420.5810137627
 21
7225.5655332734
 31
0.0
  0
LINE
  5
78
330
1F
100
AcDbEntity
  8
0
  6
Continuous
 62
     7
370
    25
100
AcDbLine
 10
7793.3882473394
 20
8326.9928833157
 30
0.0
 11
7794.6917292152
 21
8327.7351332731
 31
0.0
  0
LINE
  5
79
330
1F
100
AcDbEntity
  8
0
  6
Continuous
 62
     7
370
    25
100
AcDbLine
 10
7794.6917292152
 20
8327.7351332731
 30
0.0
 11
8147.0130423493
 21
7709.0157362025
 31
0.0
  0
LINE
  5
7A
330
1F
100
AcDbEntity
  8
0
  6
Continuous
 62
     7
370
    25
100
AcDbLine
 10
8145.7095604734
 20
7708.273486245
 30
0.0
 11
8147.0130423493
 21
7709.0157362025
 31
0.0
  0
LINE
  5
7B
330
1F
100
AcDbEntity
  8
0
  6
Continuous
 62
     7
370
    25
100
AcDbLine
 10
7793.3882473394
 20
8326.9928833157
 30
0.0
 11
8145.7095604734
 21
7708.273486245
 31
0.0
  0
LINE
  5
7C
330
1F
100
AcDbEntity
  8
0
  6
Continuous
 62
     7
370
    25
100
AcDbLine
 10
7844.2240404976
 20
8355.9406316561
 30
0.0
 11
7845.5275223734
 21
8356.6828816135
 31
0.0
  0
LINE
  5
7D
330
1F
100
AcDbEntity
  8
0
  6
Continuous
 62
     7
370
    25
100
AcDbLine
 10
7845.5275223734
 20
8356.6828816135
 30
0.0
 11
8197.8488355075
 21
7737.9634845428
 31
0.0
  0
LINE
  5
7E
330
1F
100
AcDbEntity
  8
0
  6
Continuous
 62
     7
370
    25
100
AcDbLine
 10
8196.5453536316
 20
7737.2212345854
 30
0.0
 11
8197.8488355075
 21
7737.9634845428
 31
0.0
  0
LINE
  5
7F
330
1F
100
AcDbEntity
  8
0
  6
Continuous
 62
     7
370
    25
100
AcDbLine
 10
7844.2240404976
 20
8355.9406316561
 30
0.0
 11
8196.5453536316
 21
7737.2212345854
 31
0.0
  0
LINE
  5
80
330
1F
100
AcDbEntity
  8
0
  6
Continuous
 62
     7
370
    25
100
AcDbLine
 10
7794.6917292152
 20
8327.7351332731
 30
0.0
 11
7796.4297050497
 21
8328.7247998831
 31
0.0
  0
LINE
  5
81
330
1F
100
AcDbEntity
  8
0
  6
Continuous
 62
     7
370
    25
100
AcDbLine
 10
7796.4297050497
 20
8328.7247998831
 30
0.0
 11
8148.7510181838
 21
7710.0054028124
 31
0.0
  0
LINE
  5
82
330
1F
100
AcDbEntity
  8
0
  6
Continuous
 62
     7
370
    25
100
AcDbLine
 10
8147.0130423493
 20
7709.0157362025
 30
0.0
 11
8148.7510181838
 21
7710.0054028124
 31
0.0
  0
LINE
  5
83
330
1F
100
AcDbEntity
  8
0
  6
Continuous
 62
     7
370
    25
100
AcDbLine
 10
7842.4860646631
 20
8354.9509650461
 30
0.0
 11
8194.8073777972
 21
7736.2315679755
 31
0.0
  0
LINE
  5
84
330
1F
100
AcDbEntity
  8
0
  6
Continuous
 62
     7
370
    25
100
AcDbLine
 10
7842.4860646631
 20
8354.9509650461
 30
0.0
 11
7844.2240404976
 21
8355.9406316561
 31
0.0
  0
LINE
  5
85
330
1F
100
AcDbEntity
  8
0
  6
Continuous
 62
     7
370
    25
100
AcDbLine
 10
8194.8073777972
 20
7736.2315679755
 30
0.0
 11
8196.5453536316
 21
7737.2212345854
 31
0.0
  0
LINE
  5
86
330
1F
100
AcDbEntity
  8
0
  6
Continuous
 62
     7
370
    25
100
AcDbLine
 10
7796.4297050497
 20
8328.7247998831
 30
0.0
 11
7842.4860646631
 21
8354.9509650461
 31
0.0
  0
LINE
  5
87
330
1F
100
AcDbEntity
  8
0
  6
Continuous
 62
     7
370
    25
100
AcDbLine
 10
8148.7510181838
 20
7710.0054028124
 30
0.0
 11
8194.8073777972
 21
7736.2315679755
 31
0.0
  0
CIRCLE
  5
88
330
1F
100
AcDbEntity
  8
0
  6
Continuous
 62
     7
370
    25
100
AcDbCircle
 10
7862.0135490833
 20
8267.1049215825
 30
0.0
 40
6.499999999999494
  0
CIRCLE
  5
89
330
1F
100
AcDbEntity
  8
0
  6
Continuous
 62
     7
370
    25
100
AcDbCircle
 10
7845.6840500195
 20
8295.7815228512
 30
0.0
 40
6.500000000001524
  0
CIRCLE
  5
8A
330
1F
100
AcDbEntity
  8
0
  6
Continuous
 62
     7
370
    25
100
AcDbCircle
 10
7829.3545509557
 20
8324.4581241199
 30
0.0
 40
6.499999999999494
  0
CIRCLE
  5
8B
330
1F
100
AcDbEntity
  8
0
  6
Continuous
 62
     7
370
    25
100
AcDbCircle
 10
8145.5530328274
 20
7769.1748450073
 30
0.0
 40
6.500000000000734
  0
CIRCLE
  5
8C
330
1F
100
AcDbEntity
  8
0
  6
Continuous
 62
     7
370
    25
100
AcDbCircle
 10
8129.2235337636
 20
7797.8514462761
 30
0.0
 40
6.500000000000284
  0
CIRCLE
  5
8D
330
1F
100
AcDbEntity
  8
0
  6
Continuous
 62
     7
370
    25
100
AcDbCircle
 10
8161.8825318912
 20
7740.4982437386
 30
0.0
 40
6.500000000001184
  0
LINE
  5
8E
330
1F
100
AcDbEntity
  8
0
  6
Continuous
 62
     7
370
    25
100
AcDbLine
 10
8690.4676649328
 20
7248.3689334904
 30
0.0
 11
8535.5810137627
 21
7176.2427743261
 31
0.0
  0
LINE
  5
8F
330
1F
100
AcDbEntity
  8
0
  6
Continuous
 62
     7
370
    25
100
AcDbLine
 10
8715.7962951183
 20
7193.977201647
 30
0.0
 11
8535.5810137627
 21
7110.0562441681
 31
0.0
  0
CIRCLE
  5
90
330
1F
100
AcDbEntity
  8
0
  6
Continuous
 62
     7
370
    25
100
AcDbCircle
 10
8580.7505833778
 20
7164.1836496513
 30
0.0
 40
6.500000000000949
  0
CIRCLE
  5
91
330
1F
100
AcDbEntity
  8
0
  6
Continuous
 62
     7
370
    25
100
AcDbCircle
 10
8475.5932351472
 20
7115.214964626
 30
0.0
 40
6.500000000000949
  0
LINE
  5
92
330
1F
100
AcDbEntity
  8
0
  6
Continuous
 62
     7
370
    25
100
AcDbLine
 10
9154.8295784312
 20
7400.0767556093
 30
0.0
 11
9155.4627941859
 21
7398.7169623132
 31
0.0
  0
LINE
  5
93
330
1F
100
AcDbEntity
  8
0
  6
Continuous
 62
     7
370
    25
100
AcDbLine
 10
9155.4627941859
 20
7398.7169623132
 30
0.0
 11
8715.7962951183
 21
7193.977201647
 31
0.0
  0
LINE
  5
94
330
1F
100
AcDbEntity
  8
0
  6
Continuous
 62
     7
370
    25
100
AcDbLine
 10
8715.1630793637
 20
7195.3369949431
 30
0.0
 11
8715.7962951183
 21
7193.977201647
 31
0.0
  0
LINE
  5
95
330
1F
100
AcDbEntity
  8
0
  6
Continuous
 62
     7
370
    25
100
AcDbLine
 10
9154.8295784312
 20
7400.0767556093
 30
0.0
 11
8715.1630793637
 21
7195.3369949431
 31
0.0
  0
LINE
  5
96
330
1F
100
AcDbEntity
  8
0
  6
Continuous
 62
     7
370
    25
100
AcDbLine
 10
9130.1341640003
 20
7453.1086941566
 30
0.0
 11
8690.4676649328
 21
7248.3689334904
 31
0.0
  0
LINE
  5
97
330
1F
100
AcDbEntity
  8
0
  6
Continuous
 62
     7
370
    25
100
AcDbLine
 10
9130.1341640003
 20
7453.1086941566
 30
0.0
 11
9130.767379755
 21
7451.7489008605
 31
0.0
  0
LINE
  5
98
330
1F
100
AcDbEntity
  8
0
  6
Continuous
 62
     7
370
    25
100
AcDbLine
 10
9130.767379755
 20
7451.7489008605
 30
0.0
 11
8691.1008806874
 21
7247.0091401943
 31
0.0
  0
LINE
  5
99
330
1F
100
AcDbEntity
  8
0
  6
Continuous
 62
     7
370
    25
100
AcDbLine
 10
8690.4676649328
 20
7248.3689334904
 30
0.0
 11
8691.1008806874
 21
7247.0091401943
 31
0.0
  0
LINE
  5
9A
330
1F
100
AcDbEntity
  8
0
  6
Continuous
 62
     7
370
    25
100
AcDbLine
 10
9130.767379755
 20
7451.7489008605
 30
0.0
 11
9131.6116674278
 21
7449.9358431324
 31
0.0
  0
LINE
  5
9B
330
1F
100
AcDbEntity
  8
0
  6
Continuous
 62
     7
370
    25
100
AcDbLine
 10
9131.6116674278
 20
7449.9358431324
 30
0.0
 11
8691.9451683603
 21
7245.1960824662
 31
0.0
  0
LINE
  5
9C
330
1F
100
AcDbEntity
  8
0
  6
Continuous
 62
     7
370
    25
100
AcDbLine
 10
8691.1008806874
 20
7247.0091401943
 30
0.0
 11
8691.9451683603
 21
7245.1960824662
 31
0.0
  0
LINE
  5
9D
330
1F
100
AcDbEntity
  8
0
  6
Continuous
 62
     7
370
    25
100
AcDbLine
 10
9153.9852907584
 20
7401.8898133374
 30
0.0
 11
8714.3187916908
 21
7197.1500526712
 31
0.0
  0
LINE
  5
9E
330
1F
100
AcDbEntity
  8
0
  6
Continuous
 62
     7
370
    25
100
AcDbLine
 10
9153.9852907584
 20
7401.8898133374
 30
0.0
 11
9154.8295784312
 21
7400.0767556093
 31
0.0
  0
LINE
  5
9F
330
1F
100
AcDbEntity
  8
0
  6
Continuous
 62
     7
370
    25
100
AcDbLine
 10
8714.3187916908
 20
7197.1500526712
 30
0.0
 11
8715.1630793636
 21
7195.3369949431
 31
0.0
  0
LINE
  5
A0
330
1F
100
AcDbEntity
  8
0
  6
Continuous
 62
     7
370
    25
100
AcDbLine
 10
9131.6116674278
 20
7449.9358431324
 30
0.0
 11
9153.9852907584
 21
7401.8898133374
 31
0.0
  0
LINE
  5
A1
330
1F
100
AcDbEntity
  8
0
  6
Continuous
 62
     7
370
    25
100
AcDbLine
 10
8691.9451683603
 20
7245.1960824662
 30
0.0
 11
8714.3187916908
 21
7197.1500526712
 31
0.0
  0
CIRCLE
  5
A2
330
1F
100
AcDbEntity
  8
0
  6
Continuous
 62
     7
370
    25
100
AcDbCircle
 10
9019.5105535814
 20
7368.5012664811
 30
0.0
 40
6.499999999999685
  0
CIRCLE
  5
A3
330
1F
100
AcDbEntity
  8
0
  6
Continuous
 62
     7
370
    25
100
AcDbCircle
 10
9072.0892276967
 20
7392.9856089938
 30
0.0
 40
6.500000000001333
  0
CIRCLE
  5
A4
330
1F
100
AcDbEntity
  8
0
  6
Continuous
 62
     7
370
    25
100
AcDbCircle
 10
9124.667901812
 20
7417.4699515064
 30
0.0
 40
6.500000000000949
  0
CIRCLE
  5
A5
330
1F
100
AcDbEntity
  8
0
  6
Continuous
 62
     7
370
    25
100
AcDbCircle
 10
8773.841231422
 20
7254.1002868099
 30
0.0
 40
6.499999999999301
  0
CIRCLE
  5
A6
330
1F
100
AcDbEntity
  8
0
  6
Continuous
 62
     7
370
    25
100
AcDbCircle
 10
8826.4199055373
 20
7278.5846293225
 30
0.0
 40
6.499999999999301
  0
CIRCLE
  5
A7
330
1F
100
AcDbEntity
  8
0
  6
Continuous
 62
     7
370
    25
100
AcDbCircle
 10
8721.2625573067
 20
7229.6159442972
 30
0.0
 40
6.500000000000949
  0
LINE
  5
A8
330
1F
100
AcDbEntity
  8
0
  6
Continuous
 62
     7
370
    25
100
AcDbLine
 10
8066.2790993389
 20
8350.8337670847
 30
0.0
 11
9000.1124298284
 21
7696.9566296445
 31
0.0
  0
LINE
  5
A9
330
1F
100
AcDbEntity
  8
0
  6
Continuous
 62
     7
370
    25
100
AcDbLine
 10
8066.2790993389
 20
8350.8337670847
 30
0.0
 11
8089.2221567929
 21
8383.5998488563
 31
0.0
  0
LINE
  5
AA
330
1F
100
AcDbEntity
  8
0
  6
Continuous
 62
     7
370
    25
100
AcDbLine
 10
8089.2221567929
 20
8383.5998488563
 30
0.0
 11
9023.0554872824
 21
7729.7227114161
 31
0.0
  0
LINE
  5
AB
330
1F
100
AcDbEntity
  8
0
  6
Continuous
 62
     7
370
    25
100
AcDbLine
 10
9023.0554872824
 20
7729.7227114161
 30
0.0
 11
9000.1124298284
 21
7696.9566296445
 31
0.0
  0
LINE
  5
AC
330
1F
100
AcDbEntity
  8
0
  6
Continuous
 62
     7
370
    25
100
AcDbLine
 10
9233.5707624507
 20
7533.4873452845
 30
0.0
 11
9467.0290950731
 21
7370.0180609244
 31
0.0
  0
LINE
  5
AD
330
1F
100
AcDbEntity
  8
0
  6
Continuous
 62
     7
370
    25
100
AcDbLine
 10
9233.5707624507
 20
7533.4873452845
 30
0.0
 11
9256.5138199048
 21
7566.253427056
 31
0.0
  0
LINE
  5
AE
330
1F
100
AcDbEntity
  8
0
  6
Continuous
 62
     7
370
    25
100
AcDbLine
 10
9467.0290950731
 20
7370.0180609244
 30
0.0
 11
9489.9721525271
 21
7402.784142696
 31
0.0
  0
LINE
  5
AF
330
1F
100
AcDbEntity
  8
0
  6
Continuous
 62
     7
370
    25
100
AcDbLine
 10
9256.5138199048
 20
7566.253427056
 30
0.0
 11
9489.9721525271
 21
7402.784142696
 31
0.0
  0
LINE
  5
B0
330
1F
100
AcDbEntity
  8
0
  6
Continuous
 62
     7
370
    25
100
AcDbLine
 10
7599.3624340942
 20
8677.7723358048
 30
0.0
 11
7622.3054915482
 21
8710.5384175764
 31
0.0
  0
LINE
  5
B1
330
1F
100
AcDbEntity
  8
0
  6
Continuous
 62
     7
370
    25
100
AcDbLine
 10
7855.7638241706
 20
8547.0691332163
 30
0.0
 11
7832.8207667165
 21
8514.3030514448
 31
0.0
  0
LINE
  5
B2
330
1F
100
AcDbEntity
  8
0
  6
Continuous
 62
     7
370
    25
100
AcDbLine
 10
7599.3624340942
 20
8677.7723358048
 30
0.0
 11
7832.8207667165
 21
8514.3030514448
 31
0.0
  0
LINE
  5
B3
330
1F
100
AcDbEntity
  8
0
  6
Continuous
 62
     7
370
    25
100
AcDbLine
 10
7622.3054915482
 20
8710.5384175764
 30
0.0
 11
7855.7638241706
 21
8547.0691332163
 31
0.0
  0
LINE
  5
B4
330
1F
100
AcDbEntity
  8
0
  6
Continuous
 62
     7
370
    25
100
AcDbLine
 10
9000.1124298284
 20
7696.9566296445
 30
0.0
 11
9154.5225901768
 21
7588.8374713923
 31
0.0
  0
LINE
  5
B5
330
1F
100
AcDbEntity
  8
0
  6
Continuous
 62
     7
370
    25
100
AcDbLine
 10
9189.7461280812
 20
7564.1736846293
 30
0.0
 11
9233.5707624507
 21
7533.4873452845
 31
0.0
  0
LINE
  5
B6
330
1F
100
AcDbEntity
  8
0
  6
Continuous
 62
     7
370
    25
100
AcDbLine
 10
9256.5138199048
 20
7566.253427056
 30
0.0
 11
9023.0554872824
 21
7729.7227114161
 31
0.0
  0
LINE
  5
B7
330
1F
100
AcDbEntity
  8
0
  6
Continuous
 62
     7
370
    25
100
AcDbLine
 10
7832.8207667165
 20
8514.3030514448
 30
0.0
 11
7947.0924768949
 21
8434.2891385738
 31
0.0
  0
LINE
  5
B8
330
1F
100
AcDbEntity
  8
0
  6
Continuous
 62
     7
370
    25
100
AcDbLine
 10
7982.3160147993
 20
8409.6253518107
 30
0.0
 11
8066.2790993389
 21
8350.8337670847
 31
0.0
  0
LINE
  5
B9
330
1F
100
AcDbEntity
  8
0
  6
Continuous
 62
     7
370
    25
100
AcDbLine
 10
8089.2221567929
 20
8383.5998488563
 30
0.0
 11
7855.7638241706
 21
8547.0691332163
 31
0.0
  0
ARC
  5
BA
330
1F
100
AcDbEntity
  8
0
  6
Continuous
 62
     7
370
    25
100
AcDbCircle
 10
9099.172464069
 20
7509.7892991185
 30
0.0
 40
2.000000000000767
100
AcDbArc
 50
145.0000000001
 51
234.9999999999
  0
LINE
  5
BB
330
1F
100
AcDbEntity
  8
0
  6
Continuous
 62
     7
370
    25
100
AcDbLine
 10
9098.0253111963
 20
7508.1509950299
 30
0.0
 11
9097.1649465417
 21
7506.9222669634
 31
0.0
  0
ARC
  5
BC
330
1F
100
AcDbEntity
  8
0
  6
Continuous
 62
     7
370
    25
100
AcDbCircle
 10
9099.172464069
 20
7509.7892991185
 30
0.0
 40
3.500000000001177
100
AcDbArc
 50
145.0
 51
235.0
  0
LINE
  5
BD
330
1F
100
AcDbEntity
  8
0
  6
Continuous
 62
     7
370
    25
100
AcDbLine
 10
9096.305431914
 20
7511.7968166457
 30
0.0
 11
9097.5341599804
 21
7510.9364519912
 31
0.0
  0
LINE
  5
BE
330
1F
100
AcDbEntity
  8
0
  6
Continuous
 62
     7
370
    25
100
AcDbLine
 10
9105.7694431137
 20
7525.3128253765
 30
0.0
 11
9106.9981711802
 21
7524.4524607219
 31
0.0
  0
LINE
  5
BF
330
1F
100
AcDbEntity
  8
0
  6
Continuous
 62
     7
370
    25
100
AcDbLine
 10
9106.9981711802
 20
7524.4524607219
 30
0.0
 11
9097.5341599804
 21
7510.9364519912
 31
0.0
  0
LINE
  5
C0
330
1F
100
AcDbEntity
  8
0
  6
Continuous
 62
     7
370
    25
100
AcDbLine
 10
9105.7694431137
 20
7525.3128253765
 30
0.0
 11
9096.305431914
 21
7511.7968166457
 31
0.0
  0
LINE
  5
C1
330
1F
100
AcDbEntity
  8
0
  6
Continuous
 62
     7
370
    25
100
AcDbLine
 10
9132.3884844462
 20
7482.2584802003
 30
0.0
 11
9133.2488491007
 21
7483.4872082668
 31
0.0
  0
LINE
  5
C2
330
1F
100
AcDbEntity
  8
0
  6
Continuous
 62
     7
370
    25
100
AcDbLine
 10
9098.0253111963
 20
7508.1509950299
 30
0.0
 11
9133.2488491007
 21
7483.4872082668
 31
0.0
  0
LINE
  5
C3
330
1F
100
AcDbEntity
  8
0
  6
Continuous
 62
     7
370
    25
100
AcDbLine
 10
9097.1649465417
 20
7506.9222669634
 30
0.0
 11
9132.3884844462
 21
7482.2584802003
 31
0.0
  0
LINE
  5
C4
330
1F
100
AcDbEntity
  8
0
  6
Continuous
 62
     7
370
    25
100
AcDbLine
 10
9136.034306062
 20
7483.9783594827
 30
0.0
 11
9137.2630341284
 21
7483.1179948281
 31
0.0
  0
ARC
  5
C5
330
1F
100
AcDbEntity
  8
0
  6
Continuous
 62
     7
370
    25
100
AcDbCircle
 10
9134.3960019734
 20
7485.1255123554
 30
0.0
 40
1.999999999999204
100
AcDbArc
 50
234.9999999999
 51
325.0000000001
  0
ARC
  5
C6
330
1F
100
AcDbEntity
  8
0
  6
Continuous
 62
     7
370
    25
100
AcDbCircle
 10
9134.3960019734
 20
7485.1255123554
 30
0.0
 40
3.500000000000357
100
AcDbArc
 50
235.0
 51
325.0
  0
LINE
  5
C7
330
1F
100
AcDbEntity
  8
0
  6
Continuous
 62
     7
370
    25
100
AcDbLine
 10
9150.876768561
 20
7587.11759211
 30
0.0
 11
9149.6480404946
 21
7587.9779567646
 31
0.0
  0
LINE
  5
C8
330
1F
100
AcDbEntity
  8
0
  6
Continuous
 62
     7
370
    25
100
AcDbLine
 10
9150.876768561
 20
7587.11759211
 30
0.0
 11
9141.4127573612
 21
7573.6015833793
 31
0.0
  0
LINE
  5
C9
330
1F
100
AcDbEntity
  8
0
  6
Continuous
 62
     7
370
    25
100
AcDbLine
 10
9141.4127573612
 20
7573.6015833793
 30
0.0
 11
9140.1840292948
 21
7574.4619480338
 31
0.0
  0
LINE
  5
CA
330
1F
100
AcDbEntity
  8
0
  6
Continuous
 62
     7
370
    25
100
AcDbLine
 10
9149.6480404946
 20
7587.9779567646
 30
0.0
 11
9140.1840292948
 21
7574.4619480338
 31
0.0
  0
ARC
  5
CB
330
1F
100
AcDbEntity
  8
0
  6
Continuous
 62
     7
370
    25
100
AcDbCircle
 10
9152.5150726496
 20
7585.9704392373
 30
0.0
 40
2.000000000003376
100
AcDbArc
 50
55.0000000001
 51
145.0
  0
ARC
  5
CC
330
1F
100
AcDbEntity
  8
0
  6
Continuous
 62
     7
370
    25
100
AcDbCircle
 10
9152.5150726496
 20
7585.9704392373
 30
0.0
 40
3.499999999997823
100
AcDbArc
 50
55.0000000001
 51
145.0
  0
LINE
  5
CD
330
1F
100
AcDbEntity
  8
0
  6
Continuous
 62
     7
370
    25
100
AcDbLine
 10
9154.5225901768
 20
7588.8374713923
 30
0.0
 11
9153.6622255223
 21
7587.6087433259
 31
0.0
  0
LINE
  5
CE
330
1F
100
AcDbEntity
  8
0
  6
Continuous
 62
     7
370
    25
100
AcDbLine
 10
9188.8857634267
 20
7562.9449565628
 30
0.0
 11
9189.7461280813
 21
7564.1736846292
 31
0.0
  0
LINE
  5
CF
330
1F
100
AcDbEntity
  8
0
  6
Continuous
 62
     7
370
    25
100
AcDbLine
 10
9188.8857634267
 20
7562.9449565628
 30
0.0
 11
9153.6622255223
 21
7587.6087433259
 31
0.0
  0
LINE
  5
D0
330
1F
100
AcDbEntity
  8
0
  6
Continuous
 62
     7
370
    25
100
AcDbLine
 10
9189.7461280813
 20
7564.1736846292
 30
0.0
 11
9154.5225901768
 21
7588.8374713923
 31
0.0
  0
LINE
  5
D1
330
1F
100
AcDbEntity
  8
0
  6
Continuous
 62
     7
370
    25
100
AcDbLine
 10
9190.6056427091
 20
7559.299134947
 30
0.0
 11
9189.3769146426
 21
7560.1594996015
 31
0.0
  0
LINE
  5
D2
330
1F
100
AcDbEntity
  8
0
  6
Continuous
 62
     7
370
    25
100
AcDbLine
 10
9136.034306062
 20
7483.9783594827
 30
0.0
 11
9189.3769146426
 21
7560.1594996015
 31
0.0
  0
LINE
  5
D3
330
1F
100
AcDbEntity
  8
0
  6
Continuous
 62
     7
370
    25
100
AcDbLine
 10
9137.2630341284
 20
7483.1179948281
 30
0.0
 11
9190.6056427091
 21
7559.299134947
 31
0.0
  0
ARC
  5
D4
330
1F
100
AcDbEntity
  8
0
  6
Continuous
 62
     7
370
    25
100
AcDbCircle
 10
9187.738610554
 20
7561.3066524742
 30
0.0
 40
1.999999999999202
100
AcDbArc
 50
325.0
 51
55.0000000002
  0
ARC
  5
D5
330
1F
100
AcDbEntity
  8
0
  6
Continuous
 62
     7
370
    25
100
AcDbCircle
 10
9187.738610554
 20
7561.3066524742
 30
0.0
 40
3.499999999998493
100
AcDbArc
 50
325.0
 51
55.0000000001
  0
ARC
  5
D6
330
1F
100
AcDbEntity
  8
0
  6
Continuous
 62
     7
370
    25
100
AcDbCircle
 10
7891.742350787
 20
8355.2409662999
 30
0.0
 40
2.000000000000544
100
AcDbArc
 50
145.0000000001
 51
235.0
  0
LINE
  5
D7
330
1F
100
AcDbEntity
  8
0
  6
Continuous
 62
     7
370
    25
100
AcDbLine
 10
7890.5951979143
 20
8353.6026622113
 30
0.0
 11
7889.7348332598
 21
8352.3739341449
 31
0.0
  0
ARC
  5
D8
330
1F
100
AcDbEntity
  8
0
  6
Continuous
 62
     7
370
    25
100
AcDbCircle
 10
7891.742350787
 20
8355.2409662999
 30
0.0
 40
3.500000000001922
100
AcDbArc
 50
145.0
 51
235.0
  0
LINE
  5
D9
330
1F
100
AcDbEntity
  8
0
  6
Continuous
 62
     7
370
    25
100
AcDbLine
 10
7888.875318632
 20
8357.2484838271
 30
0.0
 11
7890.1040466984
 21
8356.3881191726
 31
0.0
  0
LINE
  5
DA
330
1F
100
AcDbEntity
  8
0
  6
Continuous
 62
     7
370
    25
100
AcDbLine
 10
7898.3393298318
 20
8370.7644925579
 30
0.0
 11
7899.5680578982
 21
8369.9041279034
 31
0.0
  0
LINE
  5
DB
330
1F
100
AcDbEntity
  8
0
  6
Continuous
 62
     7
370
    25
100
AcDbLine
 10
7899.5680578982
 20
8369.9041279034
 30
0.0
 11
7890.1040466984
 21
8356.3881191726
 31
0.0
  0
LINE
  5
DC
330
1F
100
AcDbEntity
  8
0
  6
Continuous
 62
     7
370
    25
100
AcDbLine
 10
7898.3393298318
 20
8370.7644925579
 30
0.0
 11
7888.875318632
 21
8357.2484838271
 31
0.0
  0
LINE
  5
DD
330
1F
100
AcDbEntity
  8
0
  6
Continuous
 62
     7
370
    25
100
AcDbLine
 10
7924.9583711642
 20
8327.7101473818
 30
0.0
 11
7925.8187358187
 21
8328.9388754482
 31
0.0
  0
LINE
  5
DE
330
1F
100
AcDbEntity
  8
0
  6
Continuous
 62
     7
370
    25
100
AcDbLine
 10
7890.5951979143
 20
8353.6026622113
 30
0.0
 11
7925.8187358187
 21
8328.9388754482
 31
0.0
  0
LINE
  5
DF
330
1F
100
AcDbEntity
  8
0
  6
Continuous
 62
     7
370
    25
100
AcDbLine
 10
7889.7348332598
 20
8352.3739341449
 30
0.0
 11
7924.9583711642
 21
8327.7101473818
 31
0.0
  0
LINE
  5
E0
330
1F
100
AcDbEntity
  8
0
  6
Continuous
 62
     7
370
    25
100
AcDbLine
 10
7928.60419278
 20
8329.4300266641
 30
0.0
 11
7929.8329208464
 21
8328.5696620096
 31
0.0
  0
ARC
  5
E1
330
1F
100
AcDbEntity
  8
0
  6
Continuous
 62
     7
370
    25
100
AcDbCircle
 10
7926.9658886914
 20
8330.5771795368
 30
0.0
 40
1.999999999998459
100
AcDbArc
 50
234.9999999999
 51
325.0
  0
ARC
  5
E2
330
1F
100
AcDbEntity
  8
0
  6
Continuous
 62
     7
370
    25
100
AcDbCircle
 10
7926.9658886914
 20
8330.5771795368
 30
0.0
 40
3.500000000000134
100
AcDbArc
 50
235.0
 51
325.0
  0
LINE
  5
E3
330
1F
100
AcDbEntity
  8
0
  6
Continuous
 62
     7
370
    25
100
AcDbLine
 10
7943.4466552791
 20
8432.5692592915
 30
0.0
 11
7942.2179272126
 21
8433.429623946
 31
0.0
  0
LINE
  5
E4
330
1F
100
AcDbEntity
  8
0
  6
Continuous
 62
     7
370
    25
100
AcDbLine
 10
7943.4466552791
 20
8432.5692592915
 30
0.0
 11
7933.9826440793
 21
8419.0532505607
 31
0.0
  0
LINE
  5
E5
330
1F
100
AcDbEntity
  8
0
  6
Continuous
 62
     7
370
    25
100
AcDbLine
 10
7933.9826440793
 20
8419.0532505607
 30
0.0
 11
7932.7539160128
 21
8419.9136152152
 31
0.0
  0
LINE
  5
E6
330
1F
100
AcDbEntity
  8
0
  6
Continuous
 62
     7
370
    25
100
AcDbLine
 10
7942.2179272126
 20
8433.429623946
 30
0.0
 11
7932.7539160128
 21
8419.9136152152
 31
0.0
  0
ARC
  5
E7
330
1F
100
AcDbEntity
  8
0
  6
Continuous
 62
     7
370
    25
100
AcDbCircle
 10
7945.0849593676
 20
8431.4221064188
 30
0.0
 40
2.000000000003376
100
AcDbArc
 50
55.0000000001
 51
145.0
  0
LINE
  5
E8
330
1F
100
AcDbEntity
  8
0
  6
Continuous
 62
     7
370
    25
100
AcDbLine
 10
7947.0924768949
 20
8434.2891385738
 30
0.0
 11
7946.2321122403
 21
8433.0604105073
 31
0.0
  0
ARC
  5
E9
330
1F
100
AcDbEntity
  8
0
  6
Continuous
 62
     7
370
    25
100
AcDbCircle
 10
7945.0849593676
 20
8431.4221064188
 30
0.0
 40
3.499999999998643
100
AcDbArc
 50
55.0000000001
 51
145.0
  0
LINE
  5
EA
330
1F
100
AcDbEntity
  8
0
  6
Continuous
 62
     7
370
    25
100
AcDbLine
 10
7981.4556501448
 20
8408.3966237443
 30
0.0
 11
7982.3160147993
 21
8409.6253518107
 31
0.0
  0
LINE
  5
EB
330
1F
100
AcDbEntity
  8
0
  6
Continuous
 62
     7
370
    25
100
AcDbLine
 10
7981.4556501448
 20
8408.3966237443
 30
0.0
 11
7946.2321122403
 21
8433.0604105073
 31
0.0
  0
LINE
  5
EC
330
1F
100
AcDbEntity
  8
0
  6
Continuous
 62
     7
370
    25
100
AcDbLine
 10
7982.3160147993
 20
8409.6253518107
 30
0.0
 11
7947.0924768949
 21
8434.2891385738
 31
0.0
  0
LINE
  5
ED
330
1F
100
AcDbEntity
  8
0
  6
Continuous
 62
     7
370
    25
100
AcDbLine
 10
7983.1755294271
 20
8404.7508021284
 30
0.0
 11
7981.9468013606
 21
8405.611166783
 31
0.0
  0
LINE
  5
EE
330
1F
100
AcDbEntity
  8
0
  6
Continuous
 62
     7
370
    25
100
AcDbLine
 10
7928.60419278
 20
8329.4300266641
 30
0.0
 11
7981.9468013606
 21
8405.611166783
 31
0.0
  0
LINE
  5
EF
330
1F
100
AcDbEntity
  8
0
  6
Continuous
 62
     7
370
    25
100
AcDbLine
 10
7929.8329208464
 20
8328.5696620096
 30
0.0
 11
7983.1755294271
 21
8404.7508021284
 31
0.0
  0
ARC
  5
F0
330
1F
100
AcDbEntity
  8
0
  6
Continuous
 62
     7
370
    25
100
AcDbCircle
 10
7980.3084972721
 20
8406.7583196557
 30
0.0
 40
3.49999999999827
100
AcDbArc
 50
325.0
 51
55.0000000001
  0
ARC
  5
F1
330
1F
100
AcDbEntity
  8
0
  6
Continuous
 62
     7
370
    25
100
AcDbCircle
 10
7980.3084972721
 20
8406.7583196557
 30
0.0
 40
2.000000000000246
100
AcDbArc
 50
325.0
 51
55.0000000002
  0
LINE
  5
F2
330
1F
100
AcDbEntity
  8
0
  6
Continuous
 62
     7
370
    25
100
AcDbLine
 10
9176.7267820534
 20
7316.3168779263
 30
0.0
 11
9237.5258843066
 21
7403.1469946209
 31
0.0
  0
LINE
  5
F3
330
1F
100
AcDbEntity
  8
0
  6
Continuous
 62
     7
370
    25
100
AcDbLine
 10
7718.636143219
 20
8337.2829346311
 30
0.0
 11
7779.4352454722
 21
8424.1130513257
 31
0.0
  0
LINE
  5
F4
330
1F
100
AcDbEntity
  8
0
  6
Continuous
 62
     7
370
    25
100
AcDbLine
 10
8877.8692740128
 20
7598.2152459382
 30
0.0
 11
8806.6030461596
 21
7648.1163959007
 31
0.0
  0
ARC
  5
F5
330
1F
100
AcDbEntity
  8
0
  6
Continuous
 62
     7
370
    25
100
AcDbCircle
 10
8802.8747993234
 20
7642.7919076128
 30
0.0
 40
6.500000000001696
100
AcDbArc
 50
55.0
 51
235.0
  0
LINE
  5
F6
330
1F
100
AcDbEntity
  8
0
  6
Continuous
 62
     7
370
    25
100
AcDbLine
 10
8799.1465524871
 20
7637.4674193249
 30
0.0
 11
8870.4127803402
 21
7587.5662693624
 31
0.0
  0
ARC
  5
F7
330
1F
100
AcDbEntity
  8
0
  6
Continuous
 62
     7
370
    25
100
AcDbCircle
 10
8874.1410271765
 20
7592.8907576503
 30
0.0
 40
6.50000000000244
100
AcDbArc
 50
235.0
 51
55.0
  0
CIRCLE
  5
F8
330
1F
100
AcDbEntity
  8
0
  6
Continuous
 62
     7
370
    25
100
AcDbCircle
 10
7783.8539063616
 20
8386.8373831769
 30
0.0
 40
6.500000000001696
  0
CIRCLE
  5
F9
330
1F
100
AcDbEntity
  8
0
  6
Continuous
 62
     7
370
    25
100
AcDbCircle
 10
7755.175084544
 20
8345.8797809624
 30
0.0
 40
6.50000000000095
  0
CIRCLE
  5
FA
330
1F
100
AcDbEntity
  8
0
  6
Continuous
 62
     7
370
    25
100
AcDbCircle
 10
7906.7267130049
 20
8300.8009177242
 30
0.0
 40
6.49999999999946
  0
LINE
  5
FB
330
1F
100
AcDbEntity
  8
0
  6
Continuous
 62
     7
370
    25
100
AcDbLine
 10
8484.5810137627
 20
7873.5986504546
 30
0.0
 11
8471.5810137627
 21
7882.7013484513
 31
0.0
  0
LINE
  5
FC
330
1F
100
AcDbEntity
  8
0
  6
Continuous
 62
     7
370
    25
100
AcDbLine
 10
8471.5810137627
 20
7866.8312787974
 30
0.0
 11
8484.5810137627
 21
7857.7285808007
 31
0.0
  0
LINE
  5
FD
330
1F
100
AcDbEntity
  8
0
  6
Continuous
 62
     7
370
    25
100
AcDbLine
 10
8078.2927535128
 20
8142.2146833139
 30
0.0
 11
8149.5589813659
 21
8092.3135333513
 31
0.0
  0
ARC
  5
FE
330
1F
100
AcDbEntity
  8
0
  6
Continuous
 62
     7
370
    25
100
AcDbCircle
 10
8153.2872282022
 20
8097.6380216392
 30
0.0
 40
6.500000000000727
100
AcDbArc
 50
235.0
 51
55.0
  0
LINE
  5
FF
330
1F
100
AcDbEntity
  8
0
  6
Continuous
 62
     7
370
    25
100
AcDbLine
 10
8157.0154750385
 20
8102.9625099271
 30
0.0
 11
8085.7492471853
 21
8152.8636598896
 31
0.0
  0
ARC
  5
100
330
1F
100
AcDbEntity
  8
0
  6
Continuous
 62
     7
370
    25
100
AcDbCircle
 10
8082.021000349
 20
8147.5391716017
 30
0.0
 40
6.50000000000095
100
AcDbArc
 50
55.0
 51
235.0
  0
ARC
  5
101
330
1F
100
AcDbEntity
  8
0
  6
Continuous
 62
     7
370
    25
100
AcDbCircle
 10
7815.7965859551
 20
8333.9515134158
 30
0.0
 40
6.499999999998308
100
AcDbArc
 50
80.5185951808
 51
158.7989225789
  0
CIRCLE
  5
102
330
1F
100
AcDbEntity
  8
0
  6
Continuous
 62
     7
370
    25
100
AcDbCircle
 10
9172.308121164
 20
7353.5925460751
 30
0.0
 40
6.499999999998939
  0
CIRCLE
  5
103
330
1F
100
AcDbEntity
  8
0
  6
Continuous
 62
     7
370
    25
100
AcDbCircle
 10
9200.9869429815
 20
7394.5501482896
 30
0.0
 40
6.500000000000428
  0
CIRCLE
  5
104
330
1F
100
AcDbEntity
  8
0
  6
Continuous
 62
     7
370
    25
100
AcDbCircle
 10
9078.1141363382
 20
7480.5866137422
 30
0.0
 40
6.50000000000095
  0
CIRCLE
  5
105
330
1F
100
AcDbEntity
  8
0
  6
Continuous
 62
     7
370
    25
100
AcDbCircle
 10
9049.4353145206
 20
7439.6290115278
 30
0.0
 40
6.500000000000428
  0
LINE
  5
106
330
1F
100
AcDbEntity
  8
0
  6
Continuous
 62
     7
370
    25
100
AcDbLine
 10
9174.1456880898
 20
7312.630693727
 30
0.0
 11
9176.7267820534
 21
7316.3168779263
 31
0.0
  0
LINE
  5
107
330
1F
100
AcDbEntity
  8
0
  6
Continuous
 62
     7
370
    25
100
AcDbLine
 10
9174.1456880898
 20
7312.630693727
 30
0.0
 11
9092.8453015883
 21
7369.5578372147
 31
0.0
  0
LINE
  5
108
330
1F
100
AcDbEntity
  8
0
  6
Continuous
 62
     7
370
    25
100
AcDbLine
 10
9036.0756202508
 20
7409.308396029
 30
0.0
 11
8535.5810137627
 21
7759.7584923252
 31
0.0
  0
LINE
  5
109
330
1F
100
AcDbEntity
  8
0
  6
Continuous
 62
     7
370
    25
100
AcDbLine
 10
8420.5810137627
 20
7840.2823592193
 30
0.0
 11
7953.2480617574
 21
8167.5124150673
 31
0.0
  0
LINE
  5
10A
330
1F
100
AcDbEntity
  8
0
  6
Continuous
 62
     7
370
    25
100
AcDbLine
 10
7838.4159449691
 20
8247.918728871
 30
0.0
 11
7716.0550492554
 21
8333.5967504318
 31
0.0
  0
LINE
  5
10B
330
1F
100
AcDbEntity
  8
0
  6
Continuous
 62
     7
370
    25
100
AcDbLine
 10
7716.0550492554
 20
8333.5967504318
 30
0.0
 11
7718.636143219
 21
8337.2829346311
 31
0.0
  0
LINE
  5
10C
330
1F
100
AcDbEntity
  8
0
  6
Continuous
 62
     7
370
    25
100
AcDbLine
 10
9240.1069782702
 20
7406.8331788202
 30
0.0
 11
9132.3884844461
 21
7482.2584802004
 31
0.0
  0
LINE
  5
10D
330
1F
100
AcDbEntity
  8
0
  6
Continuous
 62
     7
370
    25
100
AcDbLine
 10
9097.1649465417
 20
7506.9222669634
 30
0.0
 11
8535.5810137627
 21
7900.1475700327
 31
0.0
  0
LINE
  5
10E
330
1F
100
AcDbEntity
  8
0
  6
Continuous
 62
     7
370
    25
100
AcDbLine
 10
8514.0625442076
 20
7915.214964626
 30
0.0
 11
7924.9583711641
 21
8327.7101473818
 31
0.0
  0
LINE
  5
10F
330
1F
100
AcDbEntity
  8
0
  6
Continuous
 62
     7
370
    25
100
AcDbLine
 10
7889.7348332597
 20
8352.3739341449
 30
0.0
 11
7782.0163394358
 21
8427.799235525
 31
0.0
  0
LINE
  5
110
330
1F
100
AcDbEntity
  8
0
  6
Continuous
 62
     7
370
    25
100
AcDbLine
 10
9237.5258843066
 20
7403.1469946209
 30
0.0
 11
9240.1069782702
 21
7406.8331788202
 31
0.0
  0
LINE
  5
111
330
1F
100
AcDbEntity
  8
0
  6
Continuous
 62
     7
370
    25
100
AcDbLine
 10
7779.4352454722
 20
8424.1130513257
 30
0.0
 11
7782.0163394358
 21
8427.799235525
 31
0.0
  0
LINE
  5
112
330
1F
100
AcDbEntity
  8
0
  6
Continuous
 62
     7
370
    25
100
AcDbLine
 10
8425.0810137627
 20
7915.214964626
 30
0.0
 11
8425.0810137627
 21
5545.214964626
 31
0.0
  0
LINE
  5
113
330
1F
100
AcDbEntity
  8
0
  6
Continuous
 62
     7
370
    25
100
AcDbLine
 10
8440.5810137627
 20
7915.214964626
 30
0.0
 11
8425.0810137627
 21
7915.214964626
 31
0.0
  0
LINE
  5
114
330
1F
100
AcDbEntity
  8
0
  6
Continuous
 62
     7
370
    25
100
AcDbLine
 10
8440.5810137627
 20
7915.214964626
 30
0.0
 11
8440.5810137627
 21
5545.214964626
 31
0.0
  0
LINE
  5
115
330
1F
100
AcDbEntity
  8
0
  6
Continuous
 62
     7
370
    25
100
AcDbLine
 10
8440.5810137627
 20
5545.214964626
 30
0.0
 11
8425.0810137627
 21
5545.214964626
 31
0.0
  0
LINE
  5
116
330
1F
100
AcDbEntity
  8
0
  6
Continuous
 62
     7
370
    25
100
AcDbLine
 10
8420.5810137627
 20
7915.214964626
 30
0.0
 11
8420.5810137627
 21
5545.214964626
 31
0.0
  0
LINE
  5
117
330
1F
100
AcDbEntity
  8
0
  6
Continuous
 62
     7
370
    25
100
AcDbLine
 10
8425.0810137627
 20
5545.214964626
 30
0.0
 11
8420.5810137627
 21
5545.214964626
 31
0.0
  0
LINE
  5
118
330
1F
100
AcDbEntity
  8
0
  6
Continuous
 62
     7
370
    25
100
AcDbLine
 10
8425.0810137627
 20
7915.214964626
 30
0.0
 11
8420.5810137627
 21
7915.214964626
 31
0.0
  0
LINE
  5
119
330
1F
100
AcDbEntity
  8
0
  6
Continuous
 62
     7
370
    25
100
AcDbLine
 10
8531.0810137627
 20
7915.214964626
 30
0.0
 11
8531.0810137627
 21
5545.214964626
 31
0.0
  0
LINE
  5
11A
330
1F
100
AcDbEntity
  8
0
  6
Continuous
 62
     7
370
    25
100
AcDbLine
 10
8535.5810137627
 20
7915.214964626
 30
0.0
 11
8531.0810137627
 21
7915.214964626
 31
0.0
  0
LINE
  5
11B
330
1F
100
AcDbEntity
  8
0
  6
Continuous
 62
     7
370
    25
100
AcDbLine
 10
8535.5810137627
 20
7915.214964626
 30
0.0
 11
8535.5810137627
 21
5545.214964626
 31
0.0
  0
LINE
  5
11C
330
1F
100
AcDbEntity
  8
0
  6
Continuous
 62
     7
370
    25
100
AcDbLine
 10
8535.5810137627
 20
5545.214964626
 30
0.0
 11
8531.0810137627
 21
5545.214964626
 31
0.0
  0
LINE
  5
11D
330
1F
100
AcDbEntity
  8
0
  6
Continuous
 62
     7
370
    25
100
AcDbLine
 10
8531.0810137627
 20
7915.214964626
 30
0.0
 11
8515.5810137627
 21
7915.214964626
 31
0.0
  0
LINE
  5
11E
330
1F
100
AcDbEntity
  8
0
  6
Continuous
 62
     7
370
    25
100
AcDbLine
 10
8515.5810137627
 20
7915.214964626
 30
0.0
 11
8515.5810137627
 21
5545.214964626
 31
0.0
  0
LINE
  5
11F
330
1F
100
AcDbEntity
  8
0
  6
Continuous
 62
     7
370
    25
100
AcDbLine
 10
8531.0810137627
 20
5545.214964626
 30
0.0
 11
8515.5810137627
 21
5545.214964626
 31
0.0
  0
LINE
  5
120
330
1F
100
AcDbEntity
  8
0
  6
Continuous
 62
     7
370
    25
100
AcDbLine
 10
8440.5810137627
 20
7915.214964626
 30
0.0
 11
8515.5810137627
 21
7915.214964626
 31
0.0
  0
LINE
  5
121
330
1F
100
AcDbEntity
  8
0
  6
Continuous
 62
     7
370
    25
100
AcDbLine
 10
8440.5810137627
 20
5545.214964626
 30
0.0
 11
8515.5810137627
 21
5545.214964626
 31
0.0
  0
ARC
  5
122
330
1F
100
AcDbEntity
  8
0
  6
Continuous
 62
     7
370
    25
100
AcDbCircle
 10
8475.5810137627
 20
7785.214964626
 30
0.0
 40
6.5
100
AcDbArc
 50
90.0
 51
270.0
  0
LINE
  5
123
330
1F
100
AcDbEntity
  8
0
  6
Continuous
 62
     7
370
    25
100
AcDbLine
 10
8480.5810137627
 20
7778.714964626
 30
0.0
 11
8475.5810137627
 21
7778.714964626
 31
0.0
  0
ARC
  5
124
330
1F
100
AcDbEntity
  8
0
  6
Continuous
 62
     7
370
    25
100
AcDbCircle
 10
8480.5810137627
 20
7785.214964626
 30
0.0
 40
6.5
100
AcDbArc
 50
270.0
 51
90.0
  0
LINE
  5
125
330
1F
100
AcDbEntity
  8
0
  6
Continuous
 62
     7
370
    25
100
AcDbLine
 10
8475.5810137627
 20
7791.714964626
 30
0.0
 11
8480.5810137627
 21
7791.714964626
 31
0.0
  0
ARC
  5
126
330
1F
100
AcDbEntity
  8
0
  6
Continuous
 62
     7
370
    25
100
AcDbCircle
 10
8480.5810137627
 20
7045.214964626
 30
0.0
 40
6.5
100
AcDbArc
 50
270.0
 51
90.0
  0
LINE
  5
127
330
1F
100
AcDbEntity
  8
0
  6
Continuous
 62
     7
370
    25
100
AcDbLine
 10
8475.5810137627
 20
7051.714964626
 30
0.0
 11
8480.5810137627
 21
7051.714964626
 31
0.0
  0
ARC
  5
128
330
1F
100
AcDbEntity
  8
0
  6
Continuous
 62
     7
370
    25
100
AcDbCircle
 10
8475.5810137627
 20
7045.214964626
 30
0.0
 40
6.5
100
AcDbArc
 50
90.0
 51
270.0
  0
LINE
  5
129
330
1F
100
AcDbEntity
  8
0
  6
Continuous
 62
     7
370
    25
100
AcDbLine
 10
8480.5810137627
 20
7038.714964626
 30
0.0
 11
8475.5810137627
 21
7038.714964626
 31
0.0
  0
ARC
  5
12A
330
1F
100
AcDbEntity
  8
0
  6
Continuous
 62
     7
370
    25
100
AcDbCircle
 10
8480.5810137627
 20
7185.214964626
 30
0.0
 40
6.500000000000909
100
AcDbArc
 50
270.0
 51
90.0
  0
LINE
  5
12B
330
1F
100
AcDbEntity
  8
0
  6
Continuous
 62
     7
370
    25
100
AcDbLine
 10
8475.5810137627
 20
7191.714964626
 30
0.0
 11
8480.5810137627
 21
7191.714964626
 31
0.0
  0
ARC
  5
12C
330
1F
100
AcDbEntity
  8
0
  6
Continuous
 62
     7
370
    25
100
AcDbCircle
 10
8475.5810137627
 20
7185.214964626
 30
0.0
 40
6.500000000000909
100
AcDbArc
 50
90.0
 51
270.0
  0
LINE
  5
12D
330
1F
100
AcDbEntity
  8
0
  6
Continuous
 62
     7
370
    25
100
AcDbLine
 10
8480.5810137627
 20
7178.714964626
 30
0.0
 11
8475.5810137627
 21
7178.714964626
 31
0.0
  0
ARC
  5
12E
330
1F
100
AcDbEntity
  8
0
  6
Continuous
 62
     7
370
    25
100
AcDbCircle
 10
8475.5810137627
 20
7115.214964626
 30
0.0
 40
6.500000000000909
100
AcDbArc
 50
90.0
 51
270.0
  0
LINE
  5
12F
330
1F
100
AcDbEntity
  8
0
  6
Continuous
 62
     7
370
    25
100
AcDbLine
 10
8480.5810137627
 20
7108.714964626
 30
0.0
 11
8475.5810137627
 21
7108.714964626
 31
0.0
  0
ARC
  5
130
330
1F
100
AcDbEntity
  8
0
  6
Continuous
 62
     7
370
    25
100
AcDbCircle
 10
8480.5810137627
 20
7115.214964626
 30
0.0
 40
6.500000000000909
100
AcDbArc
 50
270.0
 51
90.0
  0
LINE
  5
131
330
1F
100
AcDbEntity
  8
0
  6
Continuous
 62
     7
370
    25
100
AcDbLine
 10
8475.5810137627
 20
7121.714964626
 30
0.0
 11
8480.5810137627
 21
7121.714964626
 31
0.0
  0
ARC
  5
132
330
1F
100
AcDbEntity
  8
0
  6
Continuous
 62
     7
370
    25
100
AcDbCircle
 10
8475.5810137627
 20
7735.214964626
 30
0.0
 40
6.5
100
AcDbArc
 50
90.0
 51
270.0
  0
LINE
  5
133
330
1F
100
AcDbEntity
  8
0
  6
Continuous
 62
     7
370
    25
100
AcDbLine
 10
8480.5810137627
 20
7728.714964626
 30
0.0
 11
8475.5810137627
 21
7728.714964626
 31
0.0
  0
ARC
  5
134
330
1F
100
AcDbEntity
  8
0
  6
Continuous
 62
     7
370
    25
100
AcDbCircle
 10
8480.5810137627
 20
7735.214964626
 30
0.0
 40
6.5
100
AcDbArc
 50
270.0
 51
90.0
  0
LINE
  5
135
330
1F
100
AcDbEntity
  8
0
  6
Continuous
 62
     7
370
    25
100
AcDbLine
 10
8475.5810137627
 20
7741.714964626
 30
0.0
 11
8480.5810137627
 21
7741.714964626
 31
0.0
  0
ARC
  5
136
330
1F
100
AcDbEntity
  8
0
  6
Continuous
 62
     7
370
    25
100
AcDbCircle
 10
8478.0810137627
 20
7846.714964626
 30
0.0
 40
6.500000000001819
100
AcDbArc
 50
180.0
 51
0.0
  0
LINE
  5
137
330
1F
100
AcDbEntity
  8
0
  6
Continuous
 62
     7
370
    25
100
AcDbLine
 10
8484.5810137627
 20
7893.714964626
 30
0.0
 11
8484.5810137627
 21
7846.714964626
 31
0.0
  0
ARC
  5
138
330
1F
100
AcDbEntity
  8
0
  6
Continuous
 62
     7
370
    25
100
AcDbCircle
 10
8478.0810137627
 20
7893.714964626
 30
0.0
 40
6.500000000001819
100
AcDbArc
 50
0.0
 51
180.0
  0
LINE
  5
139
330
1F
100
AcDbEntity
  8
0
  6
Continuous
 62
     7
370
    25
100
AcDbLine
 10
8471.5810137627
 20
7846.714964626
 30
0.0
 11
8471.5810137627
 21
7893.714964626
 31
0.0
  0
LINE
  5
13A
330
1F
100
AcDbEntity
  8
0
  6
Continuous
 62
     8
370
    25
100
AcDbLine
 10
8194.807377797
 20
7736.2315679754
 30
0.0
 11
8420.5810137627
 21
7339.7453983578
 31
0.0
  0
LINE
  5
13B
330
1F
100
AcDbEntity
  8
0
  6
Continuous
 62
     8
370
    25
100
AcDbLine
 10
8148.7510181836
 20
7710.0054028123
 30
0.0
 11
8420.5810137627
 21
7232.638622261
 31
0.0
  0
LINE
  5
13C
330
1F
100
AcDbEntity
  8
0
  6
Continuous
 62
     8
370
    25
100
AcDbLine
 10
8691.9451683603
 20
7245.1960824662
 30
0.0
 11
8535.5810137627
 21
7172.3818934003
 31
0.0
  0
LINE
  5
13D
330
1F
100
AcDbEntity
  8
0
  6
Continuous
 62
     8
370
    25
100
AcDbLine
 10
8714.3187916908
 20
7197.1500526712
 30
0.0
 11
8535.5810137627
 21
7113.917125094
 31
0.0
  0
LINE
  5
13E
330
1F
100
AcDbEntity
  8
0
  6
Continuous
 62
     8
370
    25
100
AcDbLine
 10
9237.5258843066
 20
7403.1469946209
 30
0.0
 11
8535.5810137627
 21
7894.6540843833
 31
0.0
  0
LINE
  5
13F
330
1F
100
AcDbEntity
  8
0
  6
Continuous
 62
     8
370
    25
100
AcDbLine
 10
8506.2170336273
 20
7915.214964626
 30
0.0
 11
7779.4352454722
 21
8424.1130513257
 31
0.0
  0
LINE
  5
140
330
1F
100
AcDbEntity
  8
0
  6
Continuous
 62
     8
370
    25
100
AcDbLine
 10
9176.7267820534
 20
7316.3168779263
 30
0.0
 11
9097.5571882668
 21
7371.7520242926
 31
0.0
  0
LINE
  5
141
330
1F
100
AcDbEntity
  8
0
  6
Continuous
 62
     8
370
    25
100
AcDbLine
 10
9075.3021268291
 20
7387.3351860746
 30
0.0
 11
9065.6806907535
 21
7394.0721881432
 31
0.0
  0
LINE
  5
142
330
1F
100
AcDbEntity
  8
0
  6
Continuous
 62
     8
370
    25
100
AcDbLine
 10
9040.7875069293
 20
7411.5025831069
 30
0.0
 11
8535.5810137627
 21
7765.2519779746
 31
0.0
  0
LINE
  5
143
330
1F
100
AcDbEntity
  8
0
  6
Continuous
 62
     8
370
    25
100
AcDbLine
 10
8420.5810137627
 20
7845.7758448687
 30
0.0
 11
7948.0454785255
 21
8176.6487887138
 31
0.0
  0
LINE
  5
144
330
1F
100
AcDbEntity
  8
0
  6
Continuous
 62
     8
370
    25
100
AcDbLine
 10
7833.2133617372
 20
8257.0551025175
 30
0.0
 11
7718.636143219
 21
8337.2829346311
 31
0.0
  0
LINE
  5
145
330
1F
100
AcDbEntity
  8
0
  6
Continuous
 62
     7
370
    18
100
AcDbLine
 10
638.38874743
 20
6945.214964626
 30
0.0
 11
9633.444791382
 21
6945.214964626
 31
0.0
  0
DIMENSION
  5
146
330
1F
100
AcDbEntity
  8
0
  6
Continuous
 62
     7
370
    18
100
AcDbDimension
  2
_D
 10
7143.9605747284
 20
6945.2149646262
 30
0.0
 11
7143.9605747284
 21
7700.8495631887
 31
0.0
 70
   160
  1
<>
 71
     2
 42
-1.0
  3
SLDDIMSTYLE0
100
AcDbAlignedDimension
 13
7622.3054915482
 23
8710.5384175766
 33
0.0
 14
9633.444791382
 24
6945.2149646262
 34
0.0
 50
90.0
100
AcDbRotatedDimension
  0
DIMENSION
  5
151
330
1F
100
AcDbEntity
  8
0
  6
Continuous
 62
     7
370
    18
100
AcDbDimension
  2
_D_1
 10
7430.9638837255
 20
6945.2149646262
 30
0.0
 11
7430.9638837255
 21
7700.8495631887
 31
0.0
 70
   160
  1
<>
 71
     2
 42
-1.0
  3
SLDDIMSTYLE0
100
AcDbAlignedDimension
 13
7947.0924768949
 23
8434.289138574
 33
0.0
 14
9633.444791382
 24
6945.2149646262
 34
0.0
 50
90.0
100
AcDbRotatedDimension
  0
DIMENSION
  5
15A
330
1F
100
AcDbEntity
  8
0
  6
Continuous
 62
     7
370
    18
100
AcDbDimension
  2
_D_2
 10
10109.9297357649
 20
6945.2149646262
 30
0.0
 11
10109.9297357649
 21
7249.0009430392
 31
0.0
 70
   160
  1
<>
 71
     2
 42
-1.0
  3
SLDDIMSTYLE0
100
AcDbAlignedDimension
 13
9189.7461280813
 23
7564.1736846294
 33
0.0
 14
9633.444791382
 24
6945.2149646262
 34
0.0
 50
90.0
100
AcDbRotatedDimension
  0
DIMENSION
  5
164
330
1F
100
AcDbEntity
  8
0
  6
Continuous
 62
     7
370
    18
100
AcDbDimension
  2
_D_3
 10
9769.6760380134
 20
6945.2149646262
 30
0.0
 11
9769.6760380134
 21
7152.9484637697
 31
0.0
 70
   160
  1
<>
 71
     2
 42
-1.0
  3
SLDDIMSTYLE1
100
AcDbAlignedDimension
 13
9489.9721525271
 23
7402.7841426962
 33
0.0
 14
9633.444791382
 24
6945.2149646262
 34
0.0
 50
90.0
100
AcDbRotatedDimension
  0
DIMENSION
  5
171
330
1F
100
AcDbEntity
  8
0
  6
Continuous
 62
     7
370
    18
100
AcDbDimension
  2
_D_4
 10
638.38874743
 20
6945.2149646262
 30
0.0
 11
7912.2555221096
 21
7407.0440644213
 31
0.0
 70
   162
  1
<>
 71
     1
 42
-1.0
  3
SLDDIMSTYLE2
100
AcDb2LineAngularDimension
 13
9174.1456880898
 23
7312.6306937272
 33
0.0
 14
7716.0550492554
 24
8333.596750432
 34
0.0
 15
9633.444791382
 25
6945.2149646262
 35
0.0
 16
7938.9385371467
 26
7500.119138007
 36
0.0
  0
DIMENSION
  5
17A
330
1F
100
AcDbEntity
  8
0
  6
Continuous
 62
     7
370
    18
100
AcDbDimension
  2
_D_5
 10
9633.7484784715
 20
7608.11801601
 30
0.0
 11
8895.0238390732
 21
8125.378577178
 31
0.0
 70
   160
  1
<>
 71
     2
 42
-1.0
  3
SLDDIMSTYLE0
100
AcDbAlignedDimension
 13
7622.3054915482
 23
8710.5384175764
 33
0.0
 14
9489.9721525271
 24
7402.784142696
 34
0.0
 50
-35.0
100
AcDbRotatedDimension
  0
DIMENSION
  5
184
330
1F
100
AcDbEntity
  8
0
  6
Continuous
 62
     7
370
    18
100
AcDbDimension
  2
_D_6
 10
9489.9721525271
 20
9410.5384175764
 30
0.0
 11
8469.2557638945
 21
9410.5384175764
 31
0.0
 70
   160
  1
<>
 71
     2
 42
-1.0
  3
SLDDIMSTYLE0
100
AcDbAlignedDimension
 13
7622.3054915482
 23
8710.5384175764
 33
0.0
 14
9489.9721525271
 24
7402.784142696
 34
0.0
100
AcDbRotatedDimension
  0
DIMENSION
  5
18E
330
1F
100
AcDbEntity
  8
0
  6
Continuous
 62
     7
370
    18
100
AcDbDimension
  2
_D_7
 10
9240.1069782702
 20
9110.5384175764
 30
0.0
 11
8367.290128993
 21
9110.5384175764
 31
0.0
 70
   160
  1
<>
 71
     2
 42
-1.0
  3
SLDDIMSTYLE0
100
AcDbAlignedDimension
 13
7782.0163394358
 23
8427.799235525
 33
0.0
 14
9240.1069782702
 24
7406.8331788202
 34
0.0
100
AcDbRotatedDimension
  0
LINE
  5
198
330
1F
100
AcDbEntity
  8
0
  6
Continuous
 62
     7
370
    25
100
AcDbLine
 10
3638.2172248609
 20
7589.4704237678
 30
0.0
 11
3603.1172416455
 21
7589.4704237678
 31
0.0
  0
LINE
  5
199
330
1F
100
AcDbEntity
  8
0
  6
Continuous
 62
     7
370
    25
100
AcDbLine
 10
2463.3171103246
 20
7589.4704237678
 30
0.0
 11
2443.1171558148
 21
7589.4704237678
 31
0.0
  0
LINE
  5
19A
330
1F
100
AcDbEntity
  8
0
  6
Continuous
 62
     7
370
    25
100
AcDbLine
 10
1303.317128802
 20
7589.4704237678
 30
0.0
 11
1268.2171306855
 21
7589.4704237678
 31
0.0
  0
LINE
  5
19B
330
1F
100
AcDbEntity
  8
0
  6
Continuous
 62
     7
370
    25
100
AcDbLine
 10
1268.2171306855
 20
7481.6255346038
 30
0.0
 11
1303.2171271092
 21
7481.6255346038
 31
0.0
  0
LINE
  5
19C
330
1F
100
AcDbEntity
  8
0
  6
Continuous
 62
     7
370
    25
100
AcDbLine
 10
2443.2171128041
 20
7481.6255346038
 30
0.0
 11
2463.2171533353
 21
7481.6255346038
 31
0.0
  0
LINE
  5
19D
330
1F
100
AcDbEntity
  8
0
  6
Continuous
 62
     7
370
    25
100
AcDbLine
 10
3603.2171390302
 20
7481.6255346038
 30
0.0
 11
3638.2172248609
 21
7481.6255346038
 31
0.0
  0
LINE
  5
19E
330
1F
100
AcDbEntity
  8
0
  6
Continuous
 62
     7
370
    25
100
AcDbLine
 10
6008.2171104199
 20
8434.9220767715
 30
0.0
 11
5973.1171272046
 21
8434.9220767715
 31
0.0
  0
LINE
  5
19F
330
1F
100
AcDbEntity
  8
0
  6
Continuous
 62
     7
370
    25
100
AcDbLine
 10
4833.3170554883
 20
8434.9220767715
 30
0.0
 11
4813.1170413739
 21
8434.9220767715
 31
0.0
  0
LINE
  5
1A0
330
1F
100
AcDbEntity
  8
0
  6
Continuous
 62
     7
370
    25
100
AcDbLine
 10
3673.3172080762
 20
8434.9220767715
 30
0.0
 11
3638.2172248609
 21
8434.9220767715
 31
0.0
  0
LINE
  5
1A1
330
1F
100
AcDbEntity
  8
0
  6
Continuous
 62
     7
370
    25
100
AcDbLine
 10
3638.2172248609
 20
8327.0771280029
 30
0.0
 11
3673.217072273
 21
8327.0771280029
 31
0.0
  0
LINE
  5
1A2
330
1F
100
AcDbEntity
  8
0
  6
Continuous
 62
     7
370
    25
100
AcDbLine
 10
4813.2171771771
 20
8327.0771280029
 30
0.0
 11
4833.2171581037
 21
8327.0771280029
 31
0.0
  0
LINE
  5
1A3
330
1F
100
AcDbEntity
  8
0
  6
Continuous
 62
     7
370
    25
100
AcDbLine
 10
5973.2172630078
 20
8327.0771280029
 30
0.0
 11
6008.2171104199
 21
8327.0771280029
 31
0.0
  0
LINE
  5
1A4
330
1F
100
AcDbEntity
  8
0
  6
Continuous
 62
     7
370
    25
100
AcDbLine
 10
6008.2171104199
 20
7589.4704237678
 30
0.0
 11
5973.1171272046
 21
7589.4704237678
 31
0.0
  0
LINE
  5
1A5
330
1F
100
AcDbEntity
  8
0
  6
Continuous
 62
     7
370
    25
100
AcDbLine
 10
4833.3170554883
 20
7589.4704237678
 30
0.0
 11
4813.1170413739
 21
7589.4704237678
 31
0.0
  0
LINE
  5
1A6
330
1F
100
AcDbEntity
  8
0
  6
Continuous
 62
     7
370
    25
100
AcDbLine
 10
3673.3172080762
 20
7589.4704237678
 30
0.0
 11
3638.2172248609
 21
7589.4704237678
 31
0.0
  0
LINE
  5
1A7
330
1F
100
AcDbEntity
  8
0
  6
Continuous
 62
     7
370
    25
100
AcDbLine
 10
3638.2172248609
 20
7481.6255346038
 30
0.0
 11
3673.217072273
 21
7481.6255346038
 31
0.0
  0
LINE
  5
1A8
330
1F
100
AcDbEntity
  8
0
  6
Continuous
 62
     7
370
    25
100
AcDbLine
 10
4813.2171771771
 20
7481.6255346038
 30
0.0
 11
4833.2171581037
 21
7481.6255346038
 31
0.0
  0
LINE
  5
1A9
330
1F
100
AcDbEntity
  8
0
  6
Continuous
 62
     7
370
    25
100
AcDbLine
 10
5973.2172630078
 20
7481.6255346038
 30
0.0
 11
6008.2171104199
 21
7481.6255346038
 31
0.0
  0
LINE
  5
1AA
330
1F
100
AcDbEntity
  8
0
  6
Continuous
 62
     7
370
    25
100
AcDbLine
 10
3638.2172248609
 20
8434.9220767715
 30
0.0
 11
3603.1172416455
 21
8434.9220767715
 31
0.0
  0
LINE
  5
1AB
330
1F
100
AcDbEntity
  8
0
  6
Continuous
 62
     7
370
    25
100
AcDbLine
 10
2463.3171103246
 20
8434.9220767715
 30
0.0
 11
2443.1171558148
 21
8434.9220767715
 31
0.0
  0
LINE
  5
1AC
330
1F
100
AcDbEntity
  8
0
  6
Continuous
 62
     7
370
    25
100
AcDbLine
 10
1303.317128802
 20
8434.9220767715
 30
0.0
 11
1268.2171306855
 21
8434.9220767715
 31
0.0
  0
LINE
  5
1AD
330
1F
100
AcDbEntity
  8
0
  6
Continuous
 62
     7
370
    25
100
AcDbLine
 10
1268.2171306855
 20
8327.0771280029
 30
0.0
 11
1303.2171271092
 21
8327.0771280029
 31
0.0
  0
LINE
  5
1AE
330
1F
100
AcDbEntity
  8
0
  6
Continuous
 62
     7
370
    25
100
AcDbLine
 10
2443.2171128041
 20
8327.0771280029
 30
0.0
 11
2463.2171533353
 21
8327.0771280029
 31
0.0
  0
LINE
  5
1AF
330
1F
100
AcDbEntity
  8
0
  6
Continuous
 62
     7
370
    25
100
AcDbLine
 10
3603.2171390302
 20
8327.0771280029
 30
0.0
 11
3638.2172248609
 21
8327.0771280029
 31
0.0
  0
LINE
  5
1B0
330
1F
100
AcDbEntity
  8
0
  6
Continuous
 62
     7
370
    25
100
AcDbLine
 10
5728.2169006116
 20
7316.3168802955
 30
0.0
 11
5728.2169006116
 21
7197.1500590541
 31
0.0
  0
ARC
  5
1B1
330
1F
100
AcDbEntity
  8
0
  6
Continuous
 62
     7
370
    25
100
AcDbCircle
 10
5724.8733905319
 20
7197.3214403578
 30
0.0
 40
3.347899521212935
100
AcDbArc
 50
267.3211248049
 51
357.0657067197
  0
LINE
  5
1B2
330
1F
100
AcDbEntity
  8
0
  6
Continuous
 62
     7
370
    25
100
AcDbLine
 10
5688.2169387586
 20
7370.0180724361
 30
0.0
 11
5688.2169387586
 21
7193.9771995046
 31
0.0
  0
LINE
  5
1B3
330
1F
100
AcDbEntity
  8
0
  6
Continuous
 62
     7
370
    25
100
AcDbLine
 10
5724.7169158704
 20
7193.9771995046
 30
0.0
 11
5688.2169387586
 21
7193.9771995046
 31
0.0
  0
LINE
  5
1B4
330
1F
100
AcDbEntity
  8
0
  6
Continuous
 62
     7
370
    25
100
AcDbLine
 10
1491.7171296015
 20
7284.3159809806
 30
0.0
 11
1491.7171296015
 21
7079.5762166478
 31
0.0
  0
LINE
  5
1B5
330
1F
100
AcDbEntity
  8
0
  6
Continuous
 62
     7
370
    25
100
AcDbLine
 10
1528.2171285994
 20
7284.3159809806
 30
0.0
 11
1491.7171296015
 21
7284.3159809806
 31
0.0
  0
LINE
  5
1B6
330
1F
100
AcDbEntity
  8
0
  6
Continuous
 62
     7
370
    25
100
AcDbLine
 10
1528.2171285994
 20
7284.3159809806
 30
0.0
 11
1528.2171285994
 21
7079.5762166478
 31
0.0
  0
LINE
  5
1B7
330
1F
100
AcDbEntity
  8
0
  6
Continuous
 62
     7
370
    25
100
AcDbLine
 10
1528.2171285994
 20
7079.5762166478
 30
0.0
 11
1491.7171296015
 21
7079.5762166478
 31
0.0
  0
LINE
  5
1B8
330
1F
100
AcDbEntity
  8
0
  6
Continuous
 62
     7
370
    25
100
AcDbLine
 10
1528.2171285994
 20
7284.3159809806
 30
0.0
 11
1528.2171285994
 21
7285.6757715442
 31
0.0
  0
LINE
  5
1B9
330
1F
100
AcDbEntity
  8
0
  6
Continuous
 62
     7
370
    25
100
AcDbLine
 10
1491.7171296015
 20
7285.6757715442
 30
0.0
 11
1491.7171296015
 21
7284.3159809806
 31
0.0
  0
LINE
  5
1BA
330
1F
100
AcDbEntity
  8
0
  6
Continuous
 62
     7
370
    25
100
AcDbLine
 10
1528.2171285994
 20
7285.6757715442
 30
0.0
 11
1491.7171296015
 21
7285.6757715442
 31
0.0
  0
LINE
  5
1BB
330
1F
100
AcDbEntity
  8
0
  6
Continuous
 62
     7
370
    25
100
AcDbLine
 10
1488.2171294934
 20
7287.488825629
 30
0.0
 11
1488.2171294934
 21
7111.8216142156
 31
0.0
  0
ARC
  5
1BC
330
1F
100
AcDbEntity
  8
0
  6
Continuous
 62
     7
370
    25
100
AcDbCircle
 10
1491.5611992281
 20
7287.6608392425
 30
0.0
 40
3.348490865062639
100
AcDbArc
 50
182.9446082883
 51
272.6690783364
  0
ARC
  5
1BD
330
1F
100
AcDbEntity
  8
0
  6
Continuous
 62
     7
370
    25
100
AcDbCircle
 10
1491.5612010263
 20
7082.9210760855
 30
0.0
 40
3.348491955879483
100
AcDbArc
 50
182.9443721647
 51
272.6690466634
  0
ARC
  5
1BE
330
1F
100
AcDbEntity
  8
0
  6
Continuous
 62
     7
370
    25
100
AcDbCircle
 10
1491.6280374732
 20
7287.587131228
 30
0.0
 40
1.913434934424033
100
AcDbArc
 50
182.9449534164
 51
272.6687341566
  0
LINE
  5
1BF
330
1F
100
AcDbEntity
  8
0
  6
Continuous
 62
     7
370
    25
100
AcDbLine
 10
1488.2171294934
 20
7287.488825629
 30
0.0
 11
1489.7171295065
 21
7287.488825629
 31
0.0
  0
LINE
  5
1C0
330
1F
100
AcDbEntity
  8
0
  6
Continuous
 62
     7
370
    25
100
AcDbLine
 10
1489.7171295065
 20
7287.488825629
 30
0.0
 11
1489.7171295065
 21
7313.5693445899
 31
0.0
  0
LINE
  5
1C1
330
1F
100
AcDbEntity
  8
0
  6
Continuous
 62
     7
370
    25
100
AcDbLine
 10
1511.7171286888
 20
7337.3479321696
 30
0.0
 11
1524.717128957
 21
7337.3479321696
 31
0.0
  0
LINE
  5
1C2
330
1F
100
AcDbEntity
  8
0
  6
Continuous
 62
     7
370
    25
100
AcDbLine
 10
1528.2171285994
 20
7312.630690644
 30
0.0
 11
1528.2171285994
 21
7285.6757715442
 31
0.0
  0
LINE
  5
1C3
330
1F
100
AcDbEntity
  8
0
  6
Continuous
 62
     7
370
    25
100
AcDbLine
 10
1511.7171286888
 20
7338.7077227332
 30
0.0
 11
1524.717128957
 21
7338.7077227332
 31
0.0
  0
LINE
  5
1C4
330
1F
100
AcDbEntity
  8
0
  6
Continuous
 62
     7
370
    25
100
AcDbLine
 10
5731.71736219
 20
7284.3159809806
 30
0.0
 11
5731.71736219
 21
7079.5762166478
 31
0.0
  0
LINE
  5
1C5
330
1F
100
AcDbEntity
  8
0
  6
Continuous
 62
     7
370
    25
100
AcDbLine
 10
5768.2173393018
 20
7284.3159809806
 30
0.0
 11
5731.71736219
 21
7284.3159809806
 31
0.0
  0
LINE
  5
1C6
330
1F
100
AcDbEntity
  8
0
  6
Continuous
 62
     7
370
    25
100
AcDbLine
 10
5768.2173393018
 20
7284.3159809806
 30
0.0
 11
5768.2173393018
 21
7079.5762166478
 31
0.0
  0
LINE
  5
1C7
330
1F
100
AcDbEntity
  8
0
  6
Continuous
 62
     7
370
    25
100
AcDbLine
 10
5768.2173393018
 20
7079.5762166478
 30
0.0
 11
5731.71736219
 21
7079.5762166478
 31
0.0
  0
LINE
  5
1C8
330
1F
100
AcDbEntity
  8
0
  6
Continuous
 62
     7
370
    25
100
AcDbLine
 10
5768.2173393018
 20
7284.3159809806
 30
0.0
 11
5768.2173393018
 21
7285.6757715442
 31
0.0
  0
LINE
  5
1C9
330
1F
100
AcDbEntity
  8
0
  6
Continuous
 62
     7
370
    25
100
AcDbLine
 10
5731.71736219
 20
7285.6757715442
 30
0.0
 11
5731.71736219
 21
7284.3159809806
 31
0.0
  0
LINE
  5
1CA
330
1F
100
AcDbEntity
  8
0
  6
Continuous
 62
     7
370
    25
100
AcDbLine
 10
5768.2173393018
 20
7285.6757715442
 30
0.0
 11
5731.71736219
 21
7285.6757715442
 31
0.0
  0
LINE
  5
1CB
330
1F
100
AcDbEntity
  8
0
  6
Continuous
 62
     7
370
    25
100
AcDbLine
 10
5728.2169006116
 20
7287.488825629
 30
0.0
 11
5728.2169006116
 21
7111.8216142156
 31
0.0
  0
ARC
  5
1CC
330
1F
100
AcDbEntity
  8
0
  6
Continuous
 62
     7
370
    25
100
AcDbCircle
 10
5731.5613297544
 20
7287.6612130492
 30
0.0
 40
3.348869020095027
100
AcDbArc
 50
182.9506794182
 51
272.6705248041
  0
ARC
  5
1CD
330
1F
100
AcDbEntity
  8
0
  6
Continuous
 62
     7
370
    25
100
AcDbCircle
 10
5731.5613315486
 20
7082.9214498863
 30
0.0
 40
3.348870105087999
100
AcDbArc
 50
182.9504432208
 51
272.6704932083
  0
ARC
  5
1CE
330
1F
100
AcDbEntity
  8
0
  6
Continuous
 62
     7
370
    25
100
AcDbCircle
 10
5731.6279335425
 20
7287.5871096693
 30
0.0
 40
1.913429097623919
100
AcDbArc
 50
182.9443160005
 51
272.6788300278
  0
LINE
  5
1CF
330
1F
100
AcDbEntity
  8
0
  6
Continuous
 62
     7
370
    25
100
AcDbLine
 10
5728.2169006116
 20
7287.488825629
 30
0.0
 11
5729.7170303113
 21
7287.488825629
 31
0.0
  0
LINE
  5
1D0
330
1F
100
AcDbEntity
  8
0
  6
Continuous
 62
     7
370
    25
100
AcDbLine
 10
5729.7170303113
 20
7287.488825629
 30
0.0
 11
5729.7170303113
 21
7313.5693445899
 31
0.0
  0
LINE
  5
1D1
330
1F
100
AcDbEntity
  8
0
  6
Continuous
 62
     7
370
    25
100
AcDbLine
 10
5751.7173431165
 20
7337.3479321696
 30
0.0
 11
5764.7173545606
 21
7337.3479321696
 31
0.0
  0
LINE
  5
1D2
330
1F
100
AcDbEntity
  8
0
  6
Continuous
 62
     7
370
    25
100
AcDbLine
 10
5751.7173431165
 20
7338.7077227332
 30
0.0
 11
5764.7173545606
 21
7338.7077227332
 31
0.0
  0
LINE
  5
1D3
330
1F
100
AcDbEntity
  8
0
  6
Continuous
 62
     7
370
    25
100
AcDbLine
 10
5768.2173393018
 20
7312.630690644
 30
0.0
 11
5768.2173393018
 21
7285.6757715442
 31
0.0
  0
LINE
  5
1D4
330
1F
100
AcDbEntity
  8
0
  6
Continuous
 62
     7
370
    25
100
AcDbLine
 10
3358.2171342618
 20
7316.3168802955
 30
0.0
 11
3358.2171342618
 21
7197.1500590541
 31
0.0
  0
ARC
  5
1D5
330
1F
100
AcDbEntity
  8
0
  6
Continuous
 62
     7
370
    25
100
AcDbCircle
 10
3354.8730541132
 20
7197.3220692015
 30
0.0
 40
3.348501087233724
100
AcDbArc
 50
267.3313714285
 51
357.055460096
  0
LINE
  5
1D6
330
1F
100
AcDbEntity
  8
0
  6
Continuous
 62
     7
370
    25
100
AcDbLine
 10
3318.2171724088
 20
7370.0180724361
 30
0.0
 11
3318.2171724088
 21
7193.9771995046
 31
0.0
  0
LINE
  5
1D7
330
1F
100
AcDbEntity
  8
0
  6
Continuous
 62
     7
370
    25
100
AcDbLine
 10
3354.7171495206
 20
7193.9771995046
 30
0.0
 11
3318.2171724088
 21
7193.9771995046
 31
0.0
  0
LINE
  5
1D8
330
1F
100
AcDbEntity
  8
0
  6
Continuous
 62
     7
370
    25
100
AcDbLine
 10
1488.2171294934
 20
7316.3168802955
 30
0.0
 11
1488.2171294934
 21
7197.1500590541
 31
0.0
  0
ARC
  5
1D9
330
1F
100
AcDbEntity
  8
0
  6
Continuous
 62
     7
370
    25
100
AcDbCircle
 10
1484.8730579605
 20
7197.3220589423
 30
0.0
 40
3.348491955878585
100
AcDbArc
 50
267.3309533366
 51
357.0556278353
  0
LINE
  5
1DA
330
1F
100
AcDbEntity
  8
0
  6
Continuous
 62
     7
370
    25
100
AcDbLine
 10
1448.2171303875
 20
7370.0180724361
 30
0.0
 11
1448.2171303875
 21
7193.9771995046
 31
0.0
  0
LINE
  5
1DB
330
1F
100
AcDbEntity
  8
0
  6
Continuous
 62
     7
370
    25
100
AcDbLine
 10
1484.7171293854
 20
7193.9771995046
 30
0.0
 11
1448.2171303875
 21
7193.9771995046
 31
0.0
  0
LINE
  5
1DC
330
1F
100
AcDbEntity
  8
0
  6
Continuous
 62
     7
370
    25
100
AcDbLine
 10
3361.717119003
 20
7284.3159809806
 30
0.0
 11
3361.717119003
 21
7079.5762166478
 31
0.0
  0
LINE
  5
1DD
330
1F
100
AcDbEntity
  8
0
  6
Continuous
 62
     7
370
    25
100
AcDbLine
 10
3398.2170961148
 20
7284.3159809806
 30
0.0
 11
3361.717119003
 21
7284.3159809806
 31
0.0
  0
LINE
  5
1DE
330
1F
100
AcDbEntity
  8
0
  6
Continuous
 62
     7
370
    25
100
AcDbLine
 10
3398.2170961148
 20
7284.3159809806
 30
0.0
 11
3398.2170961148
 21
7079.5762166478
 31
0.0
  0
LINE
  5
1DF
330
1F
100
AcDbEntity
  8
0
  6
Continuous
 62
     7
370
    25
100
AcDbLine
 10
3398.2170961148
 20
7079.5762166478
 30
0.0
 11
3361.717119003
 21
7079.5762166478
 31
0.0
  0
LINE
  5
1E0
330
1F
100
AcDbEntity
  8
0
  6
Continuous
 62
     7
370
    25
100
AcDbLine
 10
3398.2170961148
 20
7284.3159809806
 30
0.0
 11
3398.2170961148
 21
7285.6757715442
 31
0.0
  0
LINE
  5
1E1
330
1F
100
AcDbEntity
  8
0
  6
Continuous
 62
     7
370
    25
100
AcDbLine
 10
3361.717119003
 20
7285.6757715442
 30
0.0
 11
3361.717119003
 21
7284.3159809806
 31
0.0
  0
LINE
  5
1E2
330
1F
100
AcDbEntity
  8
0
  6
Continuous
 62
     7
370
    25
100
AcDbLine
 10
3398.2170961148
 20
7285.6757715442
 30
0.0
 11
3361.717119003
 21
7285.6757715442
 31
0.0
  0
LINE
  5
1E3
330
1F
100
AcDbEntity
  8
0
  6
Continuous
 62
     7
370
    25
100
AcDbLine
 10
3358.2171342618
 20
7287.488825629
 30
0.0
 11
3358.2171342618
 21
7111.8216142156
 31
0.0
  0
ARC
  5
1E4
330
1F
100
AcDbEntity
  8
0
  6
Continuous
 62
     7
370
    25
100
AcDbCircle
 10
3361.5611656588
 20
7287.6607977072
 30
0.0
 40
3.348450444589407
100
AcDbArc
 50
182.9439322095
 51
272.6695040628
  0
ARC
  5
1E5
330
1F
100
AcDbEntity
  8
0
  6
Continuous
 62
     7
370
    25
100
AcDbCircle
 10
3361.5611674563
 20
7082.9210345496
 30
0.0
 40
3.348451534825172
100
AcDbArc
 50
182.9436960736
 51
272.6694724019
  0
ARC
  5
1E6
330
1F
100
AcDbEntity
  8
0
  6
Continuous
 62
     7
370
    25
100
AcDbCircle
 10
3361.6280519356
 20
7287.5871316336
 30
0.0
 40
1.913434172895147
100
AcDbArc
 50
182.9449667512
 51
272.6679839857
  0
LINE
  5
1E7
330
1F
100
AcDbEntity
  8
0
  6
Continuous
 62
     7
370
    25
100
AcDbLine
 10
3358.2171342618
 20
7287.488825629
 30
0.0
 11
3359.7171447522
 21
7287.488825629
 31
0.0
  0
LINE
  5
1E8
330
1F
100
AcDbEntity
  8
0
  6
Continuous
 62
     7
370
    25
100
AcDbLine
 10
3359.7171447522
 20
7287.488825629
 30
0.0
 11
3359.7171447522
 21
7313.5693445899
 31
0.0
  0
LINE
  5
1E9
330
1F
100
AcDbEntity
  8
0
  6
Continuous
 62
     7
370
    25
100
AcDbLine
 10
3381.7170999295
 20
7337.3479321696
 30
0.0
 11
3394.7171113736
 21
7337.3479321696
 31
0.0
  0
LINE
  5
1EA
330
1F
100
AcDbEntity
  8
0
  6
Continuous
 62
     7
370
    25
100
AcDbLine
 10
3398.2170961148
 20
7312.630690644
 30
0.0
 11
3398.2170961148
 21
7285.6757715442
 31
0.0
  0
LINE
  5
1EB
330
1F
100
AcDbEntity
  8
0
  6
Continuous
 62
     7
370
    25
100
AcDbLine
 10
3381.7170999295
 20
7338.7077227332
 30
0.0
 11
3394.7171113736
 21
7338.7077227332
 31
0.0
  0
LINE
  5
1EC
330
1F
100
AcDbEntity
  8
0
  6
Continuous
 62
     7
370
    25
100
AcDbLine
 10
4833.2171581037
 20
7402.7841463783
 30
0.0
 11
5973.2172630078
 21
7402.7841463783
 31
0.0
  0
LINE
  5
1ED
330
1F
100
AcDbEntity
  8
0
  6
Continuous
 62
     7
370
    25
100
AcDbLine
 10
4833.2171581037
 20
7566.2534013488
 30
0.0
 11
4833.2171581037
 21
7402.7841463783
 31
0.0
  0
LINE
  5
1EE
330
1F
100
AcDbEntity
  8
0
  6
Continuous
 62
     7
370
    25
100
AcDbLine
 10
4833.3170554883
 20
7566.2534013488
 30
0.0
 11
4833.2171581037
 21
7566.2534013488
 31
0.0
  0
LINE
  5
1EF
330
1F
100
AcDbEntity
  8
0
  6
Continuous
 62
     7
370
    25
100
AcDbLine
 10
4833.3170554883
 20
7566.2534013488
 30
0.0
 11
4833.3170554883
 21
7729.722715924
 31
0.0
  0
LINE
  5
1F0
330
1F
100
AcDbEntity
  8
0
  6
Continuous
 62
     7
370
    25
100
AcDbLine
 10
4833.3170554883
 20
7729.722715924
 30
0.0
 11
4833.2171581037
 21
7729.722715924
 31
0.0
  0
LINE
  5
1F1
330
1F
100
AcDbEntity
  8
0
  6
Continuous
 62
     7
370
    25
100
AcDbLine
 10
4833.2171581037
 20
8383.5998550155
 30
0.0
 11
4833.2171581037
 21
7729.722715924
 31
0.0
  0
LINE
  5
1F2
330
1F
100
AcDbEntity
  8
0
  6
Continuous
 62
     7
370
    25
100
AcDbLine
 10
4833.3170554883
 20
8383.5998550155
 30
0.0
 11
4833.2171581037
 21
8383.5998550155
 31
0.0
  0
LINE
  5
1F3
330
1F
100
AcDbEntity
  8
0
  6
Continuous
 62
     7
370
    25
100
AcDbLine
 10
4833.3170554883
 20
8383.5998550155
 30
0.0
 11
4833.3170554883
 21
8547.0691695907
 31
0.0
  0
LINE
  5
1F4
330
1F
100
AcDbEntity
  8
0
  6
Continuous
 62
     7
370
    25
100
AcDbLine
 10
4833.3170554883
 20
8547.0691695907
 30
0.0
 11
4833.2171581037
 21
8547.0691695907
 31
0.0
  0
LINE
  5
1F5
330
1F
100
AcDbEntity
  8
0
  6
Continuous
 62
     7
370
    25
100
AcDbLine
 10
4833.2171581037
 20
8710.5383649566
 30
0.0
 11
4833.2171581037
 21
8547.0691695907
 31
0.0
  0
LINE
  5
1F6
330
1F
100
AcDbEntity
  8
0
  6
Continuous
 62
     7
370
    25
100
AcDbLine
 10
5973.2172630078
 20
8710.5383649566
 30
0.0
 11
4833.2171581037
 21
8710.5383649566
 31
0.0
  0
LINE
  5
1F7
330
1F
100
AcDbEntity
  8
0
  6
Continuous
 62
     7
370
    25
100
AcDbLine
 10
5973.2172630078
 20
8547.0691695907
 30
0.0
 11
5973.2172630078
 21
8710.5383649566
 31
0.0
  0
LINE
  5
1F8
330
1F
100
AcDbEntity
  8
0
  6
Continuous
 62
     7
370
    25
100
AcDbLine
 10
5973.1171272046
 20
8547.0691695907
 30
0.0
 11
5973.2172630078
 21
8547.0691695907
 31
0.0
  0
LINE
  5
1F9
330
1F
100
AcDbEntity
  8
0
  6
Continuous
 62
     7
370
    25
100
AcDbLine
 10
5973.1171272046
 20
8383.5998550155
 30
0.0
 11
5973.1171272046
 21
8547.0691695907
 31
0.0
  0
LINE
  5
1FA
330
1F
100
AcDbEntity
  8
0
  6
Continuous
 62
     7
370
    25
100
AcDbLine
 10
5973.1171272046
 20
8383.5998550155
 30
0.0
 11
5973.2172630078
 21
8383.5998550155
 31
0.0
  0
LINE
  5
1FB
330
1F
100
AcDbEntity
  8
0
  6
Continuous
 62
     7
370
    25
100
AcDbLine
 10
5973.2172630078
 20
7729.722715924
 30
0.0
 11
5973.2172630078
 21
8383.5998550155
 31
0.0
  0
LINE
  5
1FC
330
1F
100
AcDbEntity
  8
0
  6
Continuous
 62
     7
370
    25
100
AcDbLine
 10
5973.1171272046
 20
7729.722715924
 30
0.0
 11
5973.2172630078
 21
7729.722715924
 31
0.0
  0
LINE
  5
1FD
330
1F
100
AcDbEntity
  8
0
  6
Continuous
 62
     7
370
    25
100
AcDbLine
 10
5973.1171272046
 20
7566.2534013488
 30
0.0
 11
5973.1171272046
 21
7729.722715924
 31
0.0
  0
LINE
  5
1FE
330
1F
100
AcDbEntity
  8
0
  6
Continuous
 62
     7
370
    25
100
AcDbLine
 10
5973.1171272046
 20
7566.2534013488
 30
0.0
 11
5973.2172630078
 21
7566.2534013488
 31
0.0
  0
LINE
  5
1FF
330
1F
100
AcDbEntity
  8
0
  6
Continuous
 62
     7
370
    25
100
AcDbLine
 10
5973.2172630078
 20
7402.7841463783
 30
0.0
 11
5973.2172630078
 21
7566.2534013488
 31
0.0
  0
LINE
  5
200
330
1F
100
AcDbEntity
  8
0
  6
Continuous
 62
     7
370
    25
100
AcDbLine
 10
4842.2172210462
 20
8705.3762450912
 30
0.0
 11
5964.2169616467
 21
8705.3762450912
 31
0.0
  0
LINE
  5
201
330
1F
100
AcDbEntity
  8
0
  6
Continuous
 62
     7
370
    25
100
AcDbLine
 10
4842.2172210462
 20
7407.9463258483
 30
0.0
 11
4842.2172210462
 21
8705.3762450912
 31
0.0
  0
LINE
  5
202
330
1F
100
AcDbEntity
  8
0
  6
Continuous
 62
     7
370
    25
100
AcDbLine
 10
5964.2169616467
 20
7407.9463258483
 30
0.0
 11
4842.2172210462
 21
7407.9463258483
 31
0.0
  0
LINE
  5
203
330
1F
100
AcDbEntity
  8
0
  6
Continuous
 62
     7
370
    25
100
AcDbLine
 10
5964.2169616467
 20
8705.3762450912
 30
0.0
 11
5964.2169616467
 21
7407.9463258483
 31
0.0
  0
LINE
  5
204
330
1F
100
AcDbEntity
  8
0
  6
Continuous
 62
     7
370
    25
100
AcDbLine
 10
5973.2172630078
 20
7370.0180724361
 30
0.0
 11
5973.2172630078
 21
7402.7841463783
 31
0.0
  0
LINE
  5
205
330
1F
100
AcDbEntity
  8
0
  6
Continuous
 62
     7
370
    25
100
AcDbLine
 10
4833.2171581037
 20
7370.0180724361
 30
0.0
 11
5973.2172630078
 21
7370.0180724361
 31
0.0
  0
LINE
  5
206
330
1F
100
AcDbEntity
  8
0
  6
Continuous
 62
     7
370
    25
100
AcDbLine
 10
4833.2171581037
 20
7370.0180724361
 30
0.0
 11
4833.2171581037
 21
7402.7841463783
 31
0.0
  0
LINE
  5
207
330
1F
100
AcDbEntity
  8
0
  6
Continuous
 62
     7
370
    25
100
AcDbLine
 10
4843.2171485669
 20
7408.046968291
 30
0.0
 11
5963.217034126
 21
7408.046968291
 31
0.0
  0
LINE
  5
208
330
1F
100
AcDbEntity
  8
0
  6
Continuous
 62
     7
370
    25
100
AcDbLine
 10
5964.2169616467
 20
7407.9463258483
 30
0.0
 11
5963.217034126
 21
7408.046968291
 31
0.0
  0
LINE
  5
209
330
1F
100
AcDbEntity
  8
0
  6
Continuous
 62
     7
370
    25
100
AcDbLine
 10
4843.2171485669
 20
7408.046968291
 30
0.0
 11
4842.2172210462
 21
7407.9463258483
 31
0.0
  0
LINE
  5
20A
330
1F
100
AcDbEntity
  8
0
  6
Continuous
 62
     7
370
    25
100
AcDbLine
 10
4843.2171485669
 20
8704.3297067382
 30
0.0
 11
4843.2171485669
 21
7408.046968291
 31
0.0
  0
LINE
  5
20B
330
1F
100
AcDbEntity
  8
0
  6
Continuous
 62
     7
370
    25
100
AcDbLine
 10
4843.2171485669
 20
8704.3297067382
 30
0.0
 11
4842.2172210462
 21
8705.3762450912
 31
0.0
  0
LINE
  5
20C
330
1F
100
AcDbEntity
  8
0
  6
Continuous
 62
     7
370
    25
100
AcDbLine
 10
5963.217034126
 20
7408.046968291
 30
0.0
 11
5963.217034126
 21
8704.3297067382
 31
0.0
  0
LINE
  5
20D
330
1F
100
AcDbEntity
  8
0
  6
Continuous
 62
     7
370
    25
100
AcDbLine
 10
5964.2169616467
 20
8705.3762450912
 30
0.0
 11
5963.217034126
 21
8704.3297067382
 31
0.0
  0
LINE
  5
20E
330
1F
100
AcDbEntity
  8
0
  6
Continuous
 62
     7
370
    25
100
AcDbLine
 10
5963.217034126
 20
8703.5739198425
 30
0.0
 11
4843.2171485669
 21
8703.5739198425
 31
0.0
  0
LINE
  5
20F
330
1F
100
AcDbEntity
  8
0
  6
Continuous
 62
     7
370
    25
100
AcDbLine
 10
5973.2172630078
 20
7729.722715924
 30
0.0
 11
5973.2172630078
 21
7696.9566121795
 31
0.0
  0
LINE
  5
210
330
1F
100
AcDbEntity
  8
0
  6
Continuous
 62
     7
370
    25
100
AcDbLine
 10
5973.1171272046
 20
7696.9566121795
 30
0.0
 11
5973.2172630078
 21
7696.9566121795
 31
0.0
  0
LINE
  5
211
330
1F
100
AcDbEntity
  8
0
  6
Continuous
 62
     7
370
    25
100
AcDbLine
 10
4833.2171581037
 20
7729.722715924
 30
0.0
 11
4833.2171581037
 21
7696.9566121795
 31
0.0
  0
LINE
  5
212
330
1F
100
AcDbEntity
  8
0
  6
Continuous
 62
     7
370
    25
100
AcDbLine
 10
4833.3170554883
 20
7696.9566121795
 30
0.0
 11
4833.2171581037
 21
7696.9566121795
 31
0.0
  0
LINE
  5
213
330
1F
100
AcDbEntity
  8
0
  6
Continuous
 62
     7
370
    25
100
AcDbLine
 10
4833.2171581037
 20
8547.0691695907
 30
0.0
 11
4833.2171581037
 21
8514.3030658462
 31
0.0
  0
LINE
  5
214
330
1F
100
AcDbEntity
  8
0
  6
Continuous
 62
     7
370
    25
100
AcDbLine
 10
4833.3170554883
 20
8514.3030658462
 30
0.0
 11
4833.2171581037
 21
8514.3030658462
 31
0.0
  0
LINE
  5
215
330
1F
100
AcDbEntity
  8
0
  6
Continuous
 62
     7
370
    25
100
AcDbLine
 10
5973.2172630078
 20
8547.0691695907
 30
0.0
 11
5973.2172630078
 21
8514.3030658462
 31
0.0
  0
LINE
  5
216
330
1F
100
AcDbEntity
  8
0
  6
Continuous
 62
     7
370
    25
100
AcDbLine
 10
5973.1171272046
 20
8514.3030658462
 30
0.0
 11
5973.2172630078
 21
8514.3030658462
 31
0.0
  0
LINE
  5
217
330
1F
100
AcDbEntity
  8
0
  6
Continuous
 62
     7
370
    25
100
AcDbLine
 10
5963.217034126
 20
8704.3297067382
 30
0.0
 11
4843.2171485669
 21
8704.3297067382
 31
0.0
  0
LINE
  5
218
330
1F
100
AcDbEntity
  8
0
  6
Continuous
 62
     7
370
    25
100
AcDbLine
 10
1303.2171271092
 20
7402.7841463783
 30
0.0
 11
2443.2171128041
 21
7402.7841463783
 31
0.0
  0
LINE
  5
219
330
1F
100
AcDbEntity
  8
0
  6
Continuous
 62
     7
370
    25
100
AcDbLine
 10
1303.2171271092
 20
7566.2534013488
 30
0.0
 11
1303.2171271092
 21
7402.7841463783
 31
0.0
  0
LINE
  5
21A
330
1F
100
AcDbEntity
  8
0
  6
Continuous
 62
     7
370
    25
100
AcDbLine
 10
1303.317128802
 20
7566.2534013488
 30
0.0
 11
1303.2171271092
 21
7566.2534013488
 31
0.0
  0
LINE
  5
21B
330
1F
100
AcDbEntity
  8
0
  6
Continuous
 62
     7
370
    25
100
AcDbLine
 10
1303.317128802
 20
7566.2534013488
 30
0.0
 11
1303.317128802
 21
7729.722715924
 31
0.0
  0
LINE
  5
21C
330
1F
100
AcDbEntity
  8
0
  6
Continuous
 62
     7
370
    25
100
AcDbLine
 10
1303.317128802
 20
7729.722715924
 30
0.0
 11
1303.2171271092
 21
7729.722715924
 31
0.0
  0
LINE
  5
21D
330
1F
100
AcDbEntity
  8
0
  6
Continuous
 62
     7
370
    25
100
AcDbLine
 10
1303.2171271092
 20
8383.5998550155
 30
0.0
 11
1303.2171271092
 21
7729.722715924
 31
0.0
  0
LINE
  5
21E
330
1F
100
AcDbEntity
  8
0
  6
Continuous
 62
     7
370
    25
100
AcDbLine
 10
1303.317128802
 20
8383.5998550155
 30
0.0
 11
1303.2171271092
 21
8383.5998550155
 31
0.0
  0
LINE
  5
21F
330
1F
100
AcDbEntity
  8
0
  6
Continuous
 62
     7
370
    25
100
AcDbLine
 10
1303.317128802
 20
8383.5998550155
 30
0.0
 11
1303.317128802
 21
8547.0691695907
 31
0.0
  0
LINE
  5
220
330
1F
100
AcDbEntity
  8
0
  6
Continuous
 62
     7
370
    25
100
AcDbLine
 10
1303.317128802
 20
8547.0691695907
 30
0.0
 11
1303.2171271092
 21
8547.0691695907
 31
0.0
  0
LINE
  5
221
330
1F
100
AcDbEntity
  8
0
  6
Continuous
 62
     7
370
    25
100
AcDbLine
 10
1303.2171271092
 20
8710.5383649566
 30
0.0
 11
1303.2171271092
 21
8547.0691695907
 31
0.0
  0
LINE
  5
222
330
1F
100
AcDbEntity
  8
0
  6
Continuous
 62
     7
370
    25
100
AcDbLine
 10
2443.2171128041
 20
8710.5383649566
 30
0.0
 11
1303.2171271092
 21
8710.5383649566
 31
0.0
  0
LINE
  5
223
330
1F
100
AcDbEntity
  8
0
  6
Continuous
 62
     7
370
    25
100
AcDbLine
 10
2443.2171128041
 20
8547.0691695907
 30
0.0
 11
2443.2171128041
 21
8710.5383649566
 31
0.0
  0
LINE
  5
224
330
1F
100
AcDbEntity
  8
0
  6
Continuous
 62
     7
370
    25
100
AcDbLine
 10
2443.1171558148
 20
8547.0691695907
 30
0.0
 11
2443.2171128041
 21
8547.0691695907
 31
0.0
  0
LINE
  5
225
330
1F
100
AcDbEntity
  8
0
  6
Continuous
 62
     7
370
    25
100
AcDbLine
 10
2443.1171558148
 20
8383.5998550155
 30
0.0
 11
2443.1171558148
 21
8547.0691695907
 31
0.0
  0
LINE
  5
226
330
1F
100
AcDbEntity
  8
0
  6
Continuous
 62
     7
370
    25
100
AcDbLine
 10
2443.1171558148
 20
8383.5998550155
 30
0.0
 11
2443.2171128041
 21
8383.5998550155
 31
0.0
  0
LINE
  5
227
330
1F
100
AcDbEntity
  8
0
  6
Continuous
 62
     7
370
    25
100
AcDbLine
 10
2443.2171128041
 20
7729.722715924
 30
0.0
 11
2443.2171128041
 21
8383.5998550155
 31
0.0
  0
LINE
  5
228
330
1F
100
AcDbEntity
  8
0
  6
Continuous
 62
     7
370
    25
100
AcDbLine
 10
2443.1171558148
 20
7729.722715924
 30
0.0
 11
2443.2171128041
 21
7729.722715924
 31
0.0
  0
LINE
  5
229
330
1F
100
AcDbEntity
  8
0
  6
Continuous
 62
     7
370
    25
100
AcDbLine
 10
2443.1171558148
 20
7566.2534013488
 30
0.0
 11
2443.1171558148
 21
7729.722715924
 31
0.0
  0
LINE
  5
22A
330
1F
100
AcDbEntity
  8
0
  6
Continuous
 62
     7
370
    25
100
AcDbLine
 10
2443.1171558148
 20
7566.2534013488
 30
0.0
 11
2443.2171128041
 21
7566.2534013488
 31
0.0
  0
LINE
  5
22B
330
1F
100
AcDbEntity
  8
0
  6
Continuous
 62
     7
370
    25
100
AcDbLine
 10
2443.2171128041
 20
7402.7841463783
 30
0.0
 11
2443.2171128041
 21
7566.2534013488
 31
0.0
  0
LINE
  5
22C
330
1F
100
AcDbEntity
  8
0
  6
Continuous
 62
     7
370
    25
100
AcDbLine
 10
1312.2171304471
 20
8705.3762450912
 30
0.0
 11
2434.2171094663
 21
8705.3762450912
 31
0.0
  0
LINE
  5
22D
330
1F
100
AcDbEntity
  8
0
  6
Continuous
 62
     7
370
    25
100
AcDbLine
 10
1312.2171304471
 20
7407.9463258483
 30
0.0
 11
1312.2171304471
 21
8705.3762450912
 31
0.0
  0
LINE
  5
22E
330
1F
100
AcDbEntity
  8
0
  6
Continuous
 62
     7
370
    25
100
AcDbLine
 10
2434.2171094663
 20
7407.9463258483
 30
0.0
 11
1312.2171304471
 21
7407.9463258483
 31
0.0
  0
LINE
  5
22F
330
1F
100
AcDbEntity
  8
0
  6
Continuous
 62
     7
370
    25
100
AcDbLine
 10
2434.2171094663
 20
8705.3762450912
 30
0.0
 11
2434.2171094663
 21
7407.9463258483
 31
0.0
  0
LINE
  5
230
330
1F
100
AcDbEntity
  8
0
  6
Continuous
 62
     7
370
    25
100
AcDbLine
 10
2443.2171128041
 20
7370.0180724361
 30
0.0
 11
2443.2171128041
 21
7402.7841463783
 31
0.0
  0
LINE
  5
231
330
1F
100
AcDbEntity
  8
0
  6
Continuous
 62
     7
370
    25
100
AcDbLine
 10
1303.2171271092
 20
7370.0180724361
 30
0.0
 11
2443.2171128041
 21
7370.0180724361
 31
0.0
  0
LINE
  5
232
330
1F
100
AcDbEntity
  8
0
  6
Continuous
 62
     7
370
    25
100
AcDbLine
 10
1303.2171271092
 20
7370.0180724361
 30
0.0
 11
1303.2171271092
 21
7402.7841463783
 31
0.0
  0
LINE
  5
233
330
1F
100
AcDbEntity
  8
0
  6
Continuous
 62
     7
370
    25
100
AcDbLine
 10
1313.2171324737
 20
7408.046968291
 30
0.0
 11
2433.2171223409
 21
7408.046968291
 31
0.0
  0
LINE
  5
234
330
1F
100
AcDbEntity
  8
0
  6
Continuous
 62
     7
370
    25
100
AcDbLine
 10
2434.2171094663
 20
7407.9463258483
 30
0.0
 11
2433.2171223409
 21
7408.046968291
 31
0.0
  0
LINE
  5
235
330
1F
100
AcDbEntity
  8
0
  6
Continuous
 62
     7
370
    25
100
AcDbLine
 10
1313.2171324737
 20
7408.046968291
 30
0.0
 11
1312.2171304471
 21
7407.9463258483
 31
0.0
  0
LINE
  5
236
330
1F
100
AcDbEntity
  8
0
  6
Continuous
 62
     7
370
    25
100
AcDbLine
 10
1313.2171324737
 20
8704.3297067382
 30
0.0
 11
1313.2171324737
 21
7408.046968291
 31
0.0
  0
LINE
  5
237
330
1F
100
AcDbEntity
  8
0
  6
Continuous
 62
     7
370
    25
100
AcDbLine
 10
1313.2171324737
 20
8704.3297067382
 30
0.0
 11
1312.2171304471
 21
8705.3762450912
 31
0.0
  0
LINE
  5
238
330
1F
100
AcDbEntity
  8
0
  6
Continuous
 62
     7
370
    25
100
AcDbLine
 10
2433.2171223409
 20
7408.046968291
 30
0.0
 11
2433.2171223409
 21
8704.3297067382
 31
0.0
  0
LINE
  5
239
330
1F
100
AcDbEntity
  8
0
  6
Continuous
 62
     7
370
    25
100
AcDbLine
 10
2434.2171094663
 20
8705.3762450912
 30
0.0
 11
2433.2171223409
 21
8704.3297067382
 31
0.0
  0
LINE
  5
23A
330
1F
100
AcDbEntity
  8
0
  6
Continuous
 62
     7
370
    25
100
AcDbLine
 10
2433.2171223409
 20
8703.5739198425
 30
0.0
 11
1313.2171324737
 21
8703.5739198425
 31
0.0
  0
LINE
  5
23B
330
1F
100
AcDbEntity
  8
0
  6
Continuous
 62
     7
370
    25
100
AcDbLine
 10
2443.2171128041
 20
7729.722715924
 30
0.0
 11
2443.2171128041
 21
7696.9566121795
 31
0.0
  0
LINE
  5
23C
330
1F
100
AcDbEntity
  8
0
  6
Continuous
 62
     7
370
    25
100
AcDbLine
 10
2443.1171558148
 20
7696.9566121795
 30
0.0
 11
2443.2171128041
 21
7696.9566121795
 31
0.0
  0
LINE
  5
23D
330
1F
100
AcDbEntity
  8
0
  6
Continuous
 62
     7
370
    25
100
AcDbLine
 10
1303.2171271092
 20
7729.722715924
 30
0.0
 11
1303.2171271092
 21
7696.9566121795
 31
0.0
  0
LINE
  5
23E
330
1F
100
AcDbEntity
  8
0
  6
Continuous
 62
     7
370
    25
100
AcDbLine
 10
1303.317128802
 20
7696.9566121795
 30
0.0
 11
1303.2171271092
 21
7696.9566121795
 31
0.0
  0
LINE
  5
23F
330
1F
100
AcDbEntity
  8
0
  6
Continuous
 62
     7
370
    25
100
AcDbLine
 10
1303.2171271092
 20
8547.0691695907
 30
0.0
 11
1303.2171271092
 21
8514.3030658462
 31
0.0
  0
LINE
  5
240
330
1F
100
AcDbEntity
  8
0
  6
Continuous
 62
     7
370
    25
100
AcDbLine
 10
1303.317128802
 20
8514.3030658462
 30
0.0
 11
1303.2171271092
 21
8514.3030658462
 31
0.0
  0
LINE
  5
241
330
1F
100
AcDbEntity
  8
0
  6
Continuous
 62
     7
370
    25
100
AcDbLine
 10
2443.2171128041
 20
8547.0691695907
 30
0.0
 11
2443.2171128041
 21
8514.3030658462
 31
0.0
  0
LINE
  5
242
330
1F
100
AcDbEntity
  8
0
  6
Continuous
 62
     7
370
    25
100
AcDbLine
 10
2443.1171558148
 20
8514.3030658462
 30
0.0
 11
2443.2171128041
 21
8514.3030658462
 31
0.0
  0
LINE
  5
243
330
1F
100
AcDbEntity
  8
0
  6
Continuous
 62
     7
370
    25
100
AcDbLine
 10
2433.2171223409
 20
8704.3297067382
 30
0.0
 11
1313.2171324737
 21
8704.3297067382
 31
0.0
  0
LINE
  5
244
330
1F
100
AcDbEntity
  8
0
  6
Continuous
 62
     7
370
    25
100
AcDbLine
 10
2463.2171533353
 20
7402.7841463783
 30
0.0
 11
3603.2171390302
 21
7402.7841463783
 31
0.0
  0
LINE
  5
245
330
1F
100
AcDbEntity
  8
0
  6
Continuous
 62
     7
370
    25
100
AcDbLine
 10
2463.2171533353
 20
7566.2534013488
 30
0.0
 11
2463.2171533353
 21
7402.7841463783
 31
0.0
  0
LINE
  5
246
330
1F
100
AcDbEntity
  8
0
  6
Continuous
 62
     7
370
    25
100
AcDbLine
 10
2463.3171103246
 20
7566.2534013488
 30
0.0
 11
2463.2171533353
 21
7566.2534013488
 31
0.0
  0
LINE
  5
247
330
1F
100
AcDbEntity
  8
0
  6
Continuous
 62
     7
370
    25
100
AcDbLine
 10
2463.3171103246
 20
7566.2534013488
 30
0.0
 11
2463.3171103246
 21
7729.722715924
 31
0.0
  0
LINE
  5
248
330
1F
100
AcDbEntity
  8
0
  6
Continuous
 62
     7
370
    25
100
AcDbLine
 10
2463.3171103246
 20
7729.722715924
 30
0.0
 11
2463.2171533353
 21
7729.722715924
 31
0.0
  0
LINE
  5
249
330
1F
100
AcDbEntity
  8
0
  6
Continuous
 62
     7
370
    25
100
AcDbLine
 10
2463.2171533353
 20
8383.5998550155
 30
0.0
 11
2463.2171533353
 21
7729.722715924
 31
0.0
  0
LINE
  5
24A
330
1F
100
AcDbEntity
  8
0
  6
Continuous
 62
     7
370
    25
100
AcDbLine
 10
2463.3171103246
 20
8383.5998550155
 30
0.0
 11
2463.2171533353
 21
8383.5998550155
 31
0.0
  0
LINE
  5
24B
330
1F
100
AcDbEntity
  8
0
  6
Continuous
 62
     7
370
    25
100
AcDbLine
 10
2463.3171103246
 20
8383.5998550155
 30
0.0
 11
2463.3171103246
 21
8547.0691695907
 31
0.0
  0
LINE
  5
24C
330
1F
100
AcDbEntity
  8
0
  6
Continuous
 62
     7
370
    25
100
AcDbLine
 10
2463.3171103246
 20
8547.0691695907
 30
0.0
 11
2463.2171533353
 21
8547.0691695907
 31
0.0
  0
LINE
  5
24D
330
1F
100
AcDbEntity
  8
0
  6
Continuous
 62
     7
370
    25
100
AcDbLine
 10
2463.2171533353
 20
8710.5383649566
 30
0.0
 11
2463.2171533353
 21
8547.0691695907
 31
0.0
  0
LINE
  5
24E
330
1F
100
AcDbEntity
  8
0
  6
Continuous
 62
     7
370
    25
100
AcDbLine
 10
3603.2171390302
 20
8710.5383649566
 30
0.0
 11
2463.2171533353
 21
8710.5383649566
 31
0.0
  0
LINE
  5
24F
330
1F
100
AcDbEntity
  8
0
  6
Continuous
 62
     7
370
    25
100
AcDbLine
 10
3603.2171390302
 20
8547.0691695907
 30
0.0
 11
3603.2171390302
 21
8710.5383649566
 31
0.0
  0
LINE
  5
250
330
1F
100
AcDbEntity
  8
0
  6
Continuous
 62
     7
370
    25
100
AcDbLine
 10
3603.1172416455
 20
8547.0691695907
 30
0.0
 11
3603.2171390302
 21
8547.0691695907
 31
0.0
  0
LINE
  5
251
330
1F
100
AcDbEntity
  8
0
  6
Continuous
 62
     7
370
    25
100
AcDbLine
 10
3603.1172416455
 20
8383.5998550155
 30
0.0
 11
3603.1172416455
 21
8547.0691695907
 31
0.0
  0
LINE
  5
252
330
1F
100
AcDbEntity
  8
0
  6
Continuous
 62
     7
370
    25
100
AcDbLine
 10
3603.1172416455
 20
8383.5998550155
 30
0.0
 11
3603.2171390302
 21
8383.5998550155
 31
0.0
  0
LINE
  5
253
330
1F
100
AcDbEntity
  8
0
  6
Continuous
 62
     7
370
    25
100
AcDbLine
 10
3603.2171390302
 20
7729.722715924
 30
0.0
 11
3603.2171390302
 21
8383.5998550155
 31
0.0
  0
LINE
  5
254
330
1F
100
AcDbEntity
  8
0
  6
Continuous
 62
     7
370
    25
100
AcDbLine
 10
3603.1172416455
 20
7729.722715924
 30
0.0
 11
3603.2171390302
 21
7729.722715924
 31
0.0
  0
LINE
  5
255
330
1F
100
AcDbEntity
  8
0
  6
Continuous
 62
     7
370
    25
100
AcDbLine
 10
3603.1172416455
 20
7566.2534013488
 30
0.0
 11
3603.1172416455
 21
7729.722715924
 31
0.0
  0
LINE
  5
256
330
1F
100
AcDbEntity
  8
0
  6
Continuous
 62
     7
370
    25
100
AcDbLine
 10
3603.1172416455
 20
7566.2534013488
 30
0.0
 11
3603.2171390302
 21
7566.2534013488
 31
0.0
  0
LINE
  5
257
330
1F
100
AcDbEntity
  8
0
  6
Continuous
 62
     7
370
    25
100
AcDbLine
 10
3603.2171390302
 20
7402.7841463783
 30
0.0
 11
3603.2171390302
 21
7566.2534013488
 31
0.0
  0
LINE
  5
258
330
1F
100
AcDbEntity
  8
0
  6
Continuous
 62
     7
370
    25
100
AcDbLine
 10
2472.2171566731
 20
8705.3762450912
 30
0.0
 11
3594.2170760877
 21
8705.3762450912
 31
0.0
  0
LINE
  5
259
330
1F
100
AcDbEntity
  8
0
  6
Continuous
 62
     7
370
    25
100
AcDbLine
 10
2472.2171566731
 20
7407.9463258483
 30
0.0
 11
2472.2171566731
 21
8705.3762450912
 31
0.0
  0
LINE
  5
25A
330
1F
100
AcDbEntity
  8
0
  6
Continuous
 62
     7
370
    25
100
AcDbLine
 10
3594.2170760877
 20
7407.9463258483
 30
0.0
 11
2472.2171566731
 21
7407.9463258483
 31
0.0
  0
LINE
  5
25B
330
1F
100
AcDbEntity
  8
0
  6
Continuous
 62
     7
370
    25
100
AcDbLine
 10
3594.2170760877
 20
8705.3762450912
 30
0.0
 11
3594.2170760877
 21
7407.9463258483
 31
0.0
  0
LINE
  5
25C
330
1F
100
AcDbEntity
  8
0
  6
Continuous
 62
     7
370
    25
100
AcDbLine
 10
3603.2171390302
 20
7370.0180724361
 30
0.0
 11
3603.2171390302
 21
7402.7841463783
 31
0.0
  0
LINE
  5
25D
330
1F
100
AcDbEntity
  8
0
  6
Continuous
 62
     7
370
    25
100
AcDbLine
 10
2463.2171533353
 20
7370.0180724361
 30
0.0
 11
3603.2171390302
 21
7370.0180724361
 31
0.0
  0
LINE
  5
25E
330
1F
100
AcDbEntity
  8
0
  6
Continuous
 62
     7
370
    25
100
AcDbLine
 10
2463.2171533353
 20
7370.0180724361
 30
0.0
 11
2463.2171533353
 21
7402.7841463783
 31
0.0
  0
LINE
  5
25F
330
1F
100
AcDbEntity
  8
0
  6
Continuous
 62
     7
370
    25
100
AcDbLine
 10
2473.2171437985
 20
7408.046968291
 30
0.0
 11
3593.2171485669
 21
7408.046968291
 31
0.0
  0
LINE
  5
260
330
1F
100
AcDbEntity
  8
0
  6
Continuous
 62
     7
370
    25
100
AcDbLine
 10
3594.2170760877
 20
7407.9463258483
 30
0.0
 11
3593.2171485669
 21
7408.046968291
 31
0.0
  0
LINE
  5
261
330
1F
100
AcDbEntity
  8
0
  6
Continuous
 62
     7
370
    25
100
AcDbLine
 10
2473.2171437985
 20
7408.046968291
 30
0.0
 11
2472.2171566731
 21
7407.9463258483
 31
0.0
  0
LINE
  5
262
330
1F
100
AcDbEntity
  8
0
  6
Continuous
 62
     7
370
    25
100
AcDbLine
 10
2473.2171437985
 20
8704.3297067382
 30
0.0
 11
2473.2171437985
 21
7408.046968291
 31
0.0
  0
LINE
  5
263
330
1F
100
AcDbEntity
  8
0
  6
Continuous
 62
     7
370
    25
100
AcDbLine
 10
2473.2171437985
 20
8704.3297067382
 30
0.0
 11
2472.2171566731
 21
8705.3762450912
 31
0.0
  0
LINE
  5
264
330
1F
100
AcDbEntity
  8
0
  6
Continuous
 62
     7
370
    25
100
AcDbLine
 10
3593.2171485669
 20
7408.046968291
 30
0.0
 11
3593.2171485669
 21
8704.3297067382
 31
0.0
  0
LINE
  5
265
330
1F
100
AcDbEntity
  8
0
  6
Continuous
 62
     7
370
    25
100
AcDbLine
 10
3594.2170760877
 20
8705.3762450912
 30
0.0
 11
3593.2171485669
 21
8704.3297067382
 31
0.0
  0
LINE
  5
266
330
1F
100
AcDbEntity
  8
0
  6
Continuous
 62
     7
370
    25
100
AcDbLine
 10
3593.2171485669
 20
8703.5739198425
 30
0.0
 11
2473.2171437985
 21
8703.5739198425
 31
0.0
  0
LINE
  5
267
330
1F
100
AcDbEntity
  8
0
  6
Continuous
 62
     7
370
    25
100
AcDbLine
 10
3603.2171390302
 20
7729.722715924
 30
0.0
 11
3603.2171390302
 21
7696.9566121795
 31
0.0
  0
LINE
  5
268
330
1F
100
AcDbEntity
  8
0
  6
Continuous
 62
     7
370
    25
100
AcDbLine
 10
3603.1172416455
 20
7696.9566121795
 30
0.0
 11
3603.2171390302
 21
7696.9566121795
 31
0.0
  0
LINE
  5
269
330
1F
100
AcDbEntity
  8
0
  6
Continuous
 62
     7
370
    25
100
AcDbLine
 10
2463.2171533353
 20
7729.722715924
 30
0.0
 11
2463.2171533353
 21
7696.9566121795
 31
0.0
  0
LINE
  5
26A
330
1F
100
AcDbEntity
  8
0
  6
Continuous
 62
     7
370
    25
100
AcDbLine
 10
2463.3171103246
 20
7696.9566121795
 30
0.0
 11
2463.2171533353
 21
7696.9566121795
 31
0.0
  0
LINE
  5
26B
330
1F
100
AcDbEntity
  8
0
  6
Continuous
 62
     7
370
    25
100
AcDbLine
 10
2463.2171533353
 20
8547.0691695907
 30
0.0
 11
2463.2171533353
 21
8514.3030658462
 31
0.0
  0
LINE
  5
26C
330
1F
100
AcDbEntity
  8
0
  6
Continuous
 62
     7
370
    25
100
AcDbLine
 10
2463.3171103246
 20
8514.3030658462
 30
0.0
 11
2463.2171533353
 21
8514.3030658462
 31
0.0
  0
LINE
  5
26D
330
1F
100
AcDbEntity
  8
0
  6
Continuous
 62
     7
370
    25
100
AcDbLine
 10
3603.2171390302
 20
8547.0691695907
 30
0.0
 11
3603.2171390302
 21
8514.3030658462
 31
0.0
  0
LINE
  5
26E
330
1F
100
AcDbEntity
  8
0
  6
Continuous
 62
     7
370
    25
100
AcDbLine
 10
3603.1172416455
 20
8514.3030658462
 30
0.0
 11
3603.2171390302
 21
8514.3030658462
 31
0.0
  0
LINE
  5
26F
330
1F
100
AcDbEntity
  8
0
  6
Continuous
 62
     7
370
    25
100
AcDbLine
 10
3593.2171485669
 20
8704.3297067382
 30
0.0
 11
2473.2171437985
 21
8704.3297067382
 31
0.0
  0
LINE
  5
270
330
1F
100
AcDbEntity
  8
0
  6
Continuous
 62
     7
370
    25
100
AcDbLine
 10
4813.2171771771
 20
7370.0180724361
 30
0.0
 11
4813.2171771771
 21
7402.7841463783
 31
0.0
  0
LINE
  5
271
330
1F
100
AcDbEntity
  8
0
  6
Continuous
 62
     7
370
    25
100
AcDbLine
 10
3673.217072273
 20
7370.0180724361
 30
0.0
 11
4813.2171771771
 21
7370.0180724361
 31
0.0
  0
LINE
  5
272
330
1F
100
AcDbEntity
  8
0
  6
Continuous
 62
     7
370
    25
100
AcDbLine
 10
3673.217072273
 20
7370.0180724361
 30
0.0
 11
3673.217072273
 21
7402.7841463783
 31
0.0
  0
LINE
  5
273
330
1F
100
AcDbEntity
  8
0
  6
Continuous
 62
     7
370
    25
100
AcDbLine
 10
3673.217072273
 20
7402.7841463783
 30
0.0
 11
4813.2171771771
 21
7402.7841463783
 31
0.0
  0
LINE
  5
274
330
1F
100
AcDbEntity
  8
0
  6
Continuous
 62
     7
370
    25
100
AcDbLine
 10
3673.217072273
 20
7566.2534013488
 30
0.0
 11
3673.217072273
 21
7402.7841463783
 31
0.0
  0
LINE
  5
275
330
1F
100
AcDbEntity
  8
0
  6
Continuous
 62
     7
370
    25
100
AcDbLine
 10
3673.3172080762
 20
7566.2534013488
 30
0.0
 11
3673.217072273
 21
7566.2534013488
 31
0.0
  0
LINE
  5
276
330
1F
100
AcDbEntity
  8
0
  6
Continuous
 62
     7
370
    25
100
AcDbLine
 10
3673.3172080762
 20
7566.2534013488
 30
0.0
 11
3673.3172080762
 21
7729.722715924
 31
0.0
  0
LINE
  5
277
330
1F
100
AcDbEntity
  8
0
  6
Continuous
 62
     7
370
    25
100
AcDbLine
 10
3673.3172080762
 20
7729.722715924
 30
0.0
 11
3673.217072273
 21
7729.722715924
 31
0.0
  0
LINE
  5
278
330
1F
100
AcDbEntity
  8
0
  6
Continuous
 62
     7
370
    25
100
AcDbLine
 10
3673.217072273
 20
8383.5998550155
 30
0.0
 11
3673.217072273
 21
7729.722715924
 31
0.0
  0
LINE
  5
279
330
1F
100
AcDbEntity
  8
0
  6
Continuous
 62
     7
370
    25
100
AcDbLine
 10
3673.3172080762
 20
8383.5998550155
 30
0.0
 11
3673.217072273
 21
8383.5998550155
 31
0.0
  0
LINE
  5
27A
330
1F
100
AcDbEntity
  8
0
  6
Continuous
 62
     7
370
    25
100
AcDbLine
 10
3673.3172080762
 20
8383.5998550155
 30
0.0
 11
3673.3172080762
 21
8547.0691695907
 31
0.0
  0
LINE
  5
27B
330
1F
100
AcDbEntity
  8
0
  6
Continuous
 62
     7
370
    25
100
AcDbLine
 10
3673.3172080762
 20
8547.0691695907
 30
0.0
 11
3673.217072273
 21
8547.0691695907
 31
0.0
  0
LINE
  5
27C
330
1F
100
AcDbEntity
  8
0
  6
Continuous
 62
     7
370
    25
100
AcDbLine
 10
3673.217072273
 20
8710.5383649566
 30
0.0
 11
3673.217072273
 21
8547.0691695907
 31
0.0
  0
LINE
  5
27D
330
1F
100
AcDbEntity
  8
0
  6
Continuous
 62
     7
370
    25
100
AcDbLine
 10
4813.2171771771
 20
8710.5383649566
 30
0.0
 11
3673.217072273
 21
8710.5383649566
 31
0.0
  0
LINE
  5
27E
330
1F
100
AcDbEntity
  8
0
  6
Continuous
 62
     7
370
    25
100
AcDbLine
 10
4813.2171771771
 20
8547.0691695907
 30
0.0
 11
4813.2171771771
 21
8710.5383649566
 31
0.0
  0
LINE
  5
27F
330
1F
100
AcDbEntity
  8
0
  6
Continuous
 62
     7
370
    25
100
AcDbLine
 10
4813.1170413739
 20
8547.0691695907
 30
0.0
 11
4813.2171771771
 21
8547.0691695907
 31
0.0
  0
LINE
  5
280
330
1F
100
AcDbEntity
  8
0
  6
Continuous
 62
     7
370
    25
100
AcDbLine
 10
4813.1170413739
 20
8383.5998550155
 30
0.0
 11
4813.1170413739
 21
8547.0691695907
 31
0.0
  0
LINE
  5
281
330
1F
100
AcDbEntity
  8
0
  6
Continuous
 62
     7
370
    25
100
AcDbLine
 10
4813.1170413739
 20
8383.5998550155
 30
0.0
 11
4813.2171771771
 21
8383.5998550155
 31
0.0
  0
LINE
  5
282
330
1F
100
AcDbEntity
  8
0
  6
Continuous
 62
     7
370
    25
100
AcDbLine
 10
4813.2171771771
 20
7729.722715924
 30
0.0
 11
4813.2171771771
 21
8383.5998550155
 31
0.0
  0
LINE
  5
283
330
1F
100
AcDbEntity
  8
0
  6
Continuous
 62
     7
370
    25
100
AcDbLine
 10
4813.1170413739
 20
7729.722715924
 30
0.0
 11
4813.2171771771
 21
7729.722715924
 31
0.0
  0
LINE
  5
284
330
1F
100
AcDbEntity
  8
0
  6
Continuous
 62
     7
370
    25
100
AcDbLine
 10
4813.1170413739
 20
7566.2534013488
 30
0.0
 11
4813.1170413739
 21
7729.722715924
 31
0.0
  0
LINE
  5
285
330
1F
100
AcDbEntity
  8
0
  6
Continuous
 62
     7
370
    25
100
AcDbLine
 10
4813.1170413739
 20
7566.2534013488
 30
0.0
 11
4813.2171771771
 21
7566.2534013488
 31
0.0
  0
LINE
  5
286
330
1F
100
AcDbEntity
  8
0
  6
Continuous
 62
     7
370
    25
100
AcDbLine
 10
4813.2171771771
 20
7402.7841463783
 30
0.0
 11
4813.2171771771
 21
7566.2534013488
 31
0.0
  0
LINE
  5
287
330
1F
100
AcDbEntity
  8
0
  6
Continuous
 62
     7
370
    25
100
AcDbLine
 10
3682.2171352155
 20
8705.3762450912
 30
0.0
 11
4804.2171142346
 21
8705.3762450912
 31
0.0
  0
LINE
  5
288
330
1F
100
AcDbEntity
  8
0
  6
Continuous
 62
     7
370
    25
100
AcDbLine
 10
3682.2171352155
 20
7407.9463258483
 30
0.0
 11
3682.2171352155
 21
8705.3762450912
 31
0.0
  0
LINE
  5
289
330
1F
100
AcDbEntity
  8
0
  6
Continuous
 62
     7
370
    25
100
AcDbLine
 10
4804.2171142346
 20
7407.9463258483
 30
0.0
 11
3682.2171352155
 21
7407.9463258483
 31
0.0
  0
LINE
  5
28A
330
1F
100
AcDbEntity
  8
0
  6
Continuous
 62
     7
370
    25
100
AcDbLine
 10
4804.2171142346
 20
8705.3762450912
 30
0.0
 11
4804.2171142346
 21
7407.9463258483
 31
0.0
  0
LINE
  5
28B
330
1F
100
AcDbEntity
  8
0
  6
Continuous
 62
     7
370
    25
100
AcDbLine
 10
3683.2170627362
 20
7408.046968291
 30
0.0
 11
4803.2171867139
 21
7408.046968291
 31
0.0
  0
LINE
  5
28C
330
1F
100
AcDbEntity
  8
0
  6
Continuous
 62
     7
370
    25
100
AcDbLine
 10
4804.2171142346
 20
7407.9463258483
 30
0.0
 11
4803.2171867139
 21
7408.046968291
 31
0.0
  0
LINE
  5
28D
330
1F
100
AcDbEntity
  8
0
  6
Continuous
 62
     7
370
    25
100
AcDbLine
 10
3683.2170627362
 20
7408.046968291
 30
0.0
 11
3682.2171352155
 21
7407.9463258483
 31
0.0
  0
LINE
  5
28E
330
1F
100
AcDbEntity
  8
0
  6
Continuous
 62
     7
370
    25
100
AcDbLine
 10
3683.2170627362
 20
8704.3297067382
 30
0.0
 11
3683.2170627362
 21
7408.046968291
 31
0.0
  0
LINE
  5
28F
330
1F
100
AcDbEntity
  8
0
  6
Continuous
 62
     7
370
    25
100
AcDbLine
 10
3683.2170627362
 20
8704.3297067382
 30
0.0
 11
3682.2171352155
 21
8705.3762450912
 31
0.0
  0
LINE
  5
290
330
1F
100
AcDbEntity
  8
0
  6
Continuous
 62
     7
370
    25
100
AcDbLine
 10
4803.2171867139
 20
7408.046968291
 30
0.0
 11
4803.2171867139
 21
8704.3297067382
 31
0.0
  0
LINE
  5
291
330
1F
100
AcDbEntity
  8
0
  6
Continuous
 62
     7
370
    25
100
AcDbLine
 10
4804.2171142346
 20
8705.3762450912
 30
0.0
 11
4803.2171867139
 21
8704.3297067382
 31
0.0
  0
LINE
  5
292
330
1F
100
AcDbEntity
  8
0
  6
Continuous
 62
     7
370
    25
100
AcDbLine
 10
4803.2171867139
 20
8703.5739198425
 30
0.0
 11
3683.2170627362
 21
8703.5739198425
 31
0.0
  0
LINE
  5
293
330
1F
100
AcDbEntity
  8
0
  6
Continuous
 62
     7
370
    25
100
AcDbLine
 10
4813.2171771771
 20
7729.722715924
 30
0.0
 11
4813.2171771771
 21
7696.9566121795
 31
0.0
  0
LINE
  5
294
330
1F
100
AcDbEntity
  8
0
  6
Continuous
 62
     7
370
    25
100
AcDbLine
 10
4813.1170413739
 20
7696.9566121795
 30
0.0
 11
4813.2171771771
 21
7696.9566121795
 31
0.0
  0
LINE
  5
295
330
1F
100
AcDbEntity
  8
0
  6
Continuous
 62
     7
370
    25
100
AcDbLine
 10
3673.217072273
 20
7729.722715924
 30
0.0
 11
3673.217072273
 21
7696.9566121795
 31
0.0
  0
LINE
  5
296
330
1F
100
AcDbEntity
  8
0
  6
Continuous
 62
     7
370
    25
100
AcDbLine
 10
3673.3172080762
 20
7696.9566121795
 30
0.0
 11
3673.217072273
 21
7696.9566121795
 31
0.0
  0
LINE
  5
297
330
1F
100
AcDbEntity
  8
0
  6
Continuous
 62
     7
370
    25
100
AcDbLine
 10
3673.217072273
 20
8547.0691695907
 30
0.0
 11
3673.217072273
 21
8514.3030658462
 31
0.0
  0
LINE
  5
298
330
1F
100
AcDbEntity
  8
0
  6
Continuous
 62
     7
370
    25
100
AcDbLine
 10
3673.3172080762
 20
8514.3030658462
 30
0.0
 11
3673.217072273
 21
8514.3030658462
 31
0.0
  0
LINE
  5
299
330
1F
100
AcDbEntity
  8
0
  6
Continuous
 62
     7
370
    25
100
AcDbLine
 10
4813.2171771771
 20
8547.0691695907
 30
0.0
 11
4813.2171771771
 21
8514.3030658462
 31
0.0
  0
LINE
  5
29A
330
1F
100
AcDbEntity
  8
0
  6
Continuous
 62
     7
370
    25
100
AcDbLine
 10
4813.1170413739
 20
8514.3030658462
 30
0.0
 11
4813.2171771771
 21
8514.3030658462
 31
0.0
  0
LINE
  5
29B
330
1F
100
AcDbEntity
  8
0
  6
Continuous
 62
     7
370
    25
100
AcDbLine
 10
4803.2171867139
 20
8704.3297067382
 30
0.0
 11
3683.2170627362
 21
8704.3297067382
 31
0.0
  0
LINE
  5
29C
330
1F
100
AcDbEntity
  8
0
  6
Continuous
 62
     7
370
    25
100
AcDbLine
 10
1268.2171306855
 20
7559.2991486289
 30
0.0
 11
1268.2171306855
 21
7564.1736760833
 31
0.0
  0
LINE
  5
29D
330
1F
100
AcDbEntity
  8
0
  6
Continuous
 62
     7
370
    25
100
AcDbLine
 10
3638.2172248609
 20
7564.1736760833
 30
0.0
 11
3638.2172248609
 21
7559.2991486289
 31
0.0
  0
LWPOLYLINE
  5
29E
330
1F
100
AcDbEntity
  8
0
  6
Continuous
 62
     7
370
    25
100
AcDbPolyline
 90
       28
 70
   128
 43
0.0
 10
3606.7171237714
 20
7541.6873470046
 10
3606.892361427
 20
7540.4594317176
 10
3607.4085376508
 20
7539.2977371909
 10
3608.2377574689
 20
7538.2648483016
 10
3609.3356750257
 20
7537.4164953925
 10
3610.6426856763
 20
7536.7983356216
 10
3612.08845594
 20
7536.4437475898
 10
3613.5950229413
 20
7536.3718643882
 10
3615.0813243634
 20
7536.5865603187
 10
3616.4670131452
 20
7537.0762124755
 10
3617.6777026898
 20
7537.8144756057
 10
3618.6478278882
 20
7538.7615338065
 10
3619.3251750714
 20
7539.8663058974
 10
3619.6732661969
 20
7541.0692468383
 10
3619.6732661969
 20
7542.3055067756
 10
3619.3251750714
 20
7543.5084477164
 10
3618.6478278882
 20
7544.6132198074
 10
3617.6777026898
 20
7545.5602780082
 10
3616.4670131452
 20
7546.2984815337
 10
3615.0813243634
 20
7546.7881932952
 10
3613.5950229413
 20
7547.0028296211
 10
3612.08845594
 20
7546.9309464195
 10
3610.6426856763
 20
7546.5764179923
 10
3609.3356750257
 20
7545.9582582214
 10
3608.2377574689
 20
7545.1099053123
 10
3607.4085376508
 20
7544.077016423
 10
3606.892361427
 20
7542.9152622916
 10
3606.7171237714
 20
7541.6873470046
  0
LWPOLYLINE
  5
29F
330
1F
100
AcDbEntity
  8
0
  6
Continuous
 62
     7
370
    25
100
AcDbPolyline
 90
       28
 70
   128
 43
0.0
 10
1299.7171274669
 20
7500.7297769286
 10
1299.5419196136
 20
7501.9576922157
 10
1299.0257433898
 20
7503.1193867423
 10
1298.1964192636
 20
7504.1522756316
 10
1297.0986656196
 20
7505.0006881454
 10
1295.7916549689
 20
7505.6187883117
 10
1294.3458400018
 20
7505.9733763435
 10
1292.8391835935
 20
7506.0452595451
 10
1291.3529119737
 20
7505.8305636146
 10
1289.967133785
 20
7505.3409114578
 10
1288.7565634496
 20
7504.6026483276
 10
1287.7864531524
 20
7503.6555901267
 10
1287.1091208703
 20
7502.5508180358
 10
1286.7610744483
 20
7501.347877095
 10
1286.7610744483
 20
7500.1116171577
 10
1287.1091208703
 20
7498.9086762168
 10
1287.7864531524
 20
7497.8039041259
 10
1288.7565634496
 20
7496.8568459251
 10
1289.967133785
 20
7496.1186423995
 10
1291.3529119737
 20
7495.628930638
 10
1292.8391835935
 20
7495.4142943122
 10
1294.3458400018
 20
7495.4861775138
 10
1295.7916549689
 20
7495.8407059409
 10
1297.0986656196
 20
7496.4588657119
 10
1298.1964192636
 20
7497.3072782256
 10
1299.0257433898
 20
7498.3401671149
 10
1299.5419196136
 20
7499.5018616416
 10
1299.7171274669
 20
7500.7297769286
  0
LWPOLYLINE
  5
2A0
330
1F
100
AcDbEntity
  8
0
  6
Continuous
 62
     7
370
    25
100
AcDbPolyline
 90
       28
 70
   128
 43
0.0
 10
1299.7171274669
 20
7541.6873470046
 10
1299.5419196136
 20
7542.9152622916
 10
1299.0257433898
 20
7544.077016423
 10
1298.1964192636
 20
7545.1099053123
 10
1297.0986656196
 20
7545.9582582214
 10
1295.7916549689
 20
7546.5764179923
 10
1294.3458400018
 20
7546.9309464195
 10
1292.8391835935
 20
7547.0028296211
 10
1291.3529119737
 20
7546.7881932952
 10
1289.967133785
 20
7546.2984815337
 10
1288.7565634496
 20
7545.5602780082
 10
1287.7864531524
 20
7544.6132198074
 10
1287.1091208703
 20
7543.5084477164
 10
1286.7610744483
 20
7542.3055067756
 10
1286.7610744483
 20
7541.0692468383
 10
1287.1091208703
 20
7539.8663058974
 10
1287.7864531524
 20
7538.7615338065
 10
1288.7565634496
 20
7537.8144756057
 10
1289.967133785
 20
7537.0762124755
 10
1291.3529119737
 20
7536.5865603187
 10
1292.8391835935
 20
7536.3718643882
 10
1294.3458400018
 20
7536.4437475898
 10
1295.7916549689
 20
7536.7983356216
 10
1297.0986656196
 20
7537.4164953925
 10
1298.1964192636
 20
7538.2648483016
 10
1299.0257433898
 20
7539.2977371909
 10
1299.5419196136
 20
7540.4594317176
 10
1299.7171274669
 20
7541.6873470046
  0
LWPOLYLINE
  5
2A1
330
1F
100
AcDbEntity
  8
0
  6
Continuous
 62
     7
370
    25
100
AcDbPolyline
 90
       28
 70
   128
 43
0.0
 10
3606.7171237714
 20
7500.7297769286
 10
3606.892361427
 20
7499.5018616416
 10
3607.4085376508
 20
7498.3401671149
 10
3608.2377574689
 20
7497.3072782256
 10
3609.3356750257
 20
7496.4588657119
 10
3610.6426856763
 20
7495.8407059409
 10
3612.08845594
 20
7495.4861775138
 10
3613.5950229413
 20
7495.4142943122
 10
3615.0813243634
 20
7495.628930638
 10
3616.4670131452
 20
7496.1186423995
 10
3617.6777026898
 20
7496.8568459251
 10
3618.6478278882
 20
7497.8039041259
 10
3619.3251750714
 20
7498.9086762168
 10
3619.6732661969
 20
7500.1116171577
 10
3619.6732661969
 20
7501.347877095
 10
3619.3251750714
 20
7502.5508180358
 10
3618.6478278882
 20
7503.6555901267
 10
3617.6777026898
 20
7504.6026483276
 10
3616.4670131452
 20
7505.3409114578
 10
3615.0813243634
 20
7505.8305636146
 10
3613.5950229413
 20
7506.0452595451
 10
3612.08845594
 20
7505.9733763435
 10
3610.6426856763
 20
7505.6187883117
 10
3609.3356750257
 20
7505.0006881454
 10
3608.2377574689
 20
7504.1522756316
 10
3607.4085376508
 20
7503.1193867423
 10
3606.892361427
 20
7501.9576922157
 10
3606.7171237714
 20
7500.7297769286
  0
LINE
  5
2A2
330
1F
100
AcDbEntity
  8
0
  6
Continuous
 62
     7
370
    25
100
AcDbLine
 10
3638.2172248609
 20
7483.1179753043
 30
0.0
 11
3638.2172248609
 21
7559.2991486289
 31
0.0
  0
LINE
  5
2A3
330
1F
100
AcDbEntity
  8
0
  6
Continuous
 62
     7
370
    25
100
AcDbLine
 10
1268.2171306855
 20
7483.1179753043
 30
0.0
 11
1268.2171306855
 21
7559.2991486289
 31
0.0
  0
LINE
  5
2A4
330
1F
100
AcDbEntity
  8
0
  6
Continuous
 62
     7
370
    25
100
AcDbLine
 10
1268.2171306855
 20
7564.1736760833
 30
0.0
 11
1268.2171306855
 21
7588.8374820449
 31
0.0
  0
LINE
  5
2A5
330
1F
100
AcDbEntity
  8
0
  6
Continuous
 62
     7
370
    25
100
AcDbLine
 10
3638.2172248609
 20
7564.1736760833
 30
0.0
 11
3638.2172248609
 21
7588.8374820449
 31
0.0
  0
LINE
  5
2A6
330
1F
100
AcDbEntity
  8
0
  6
Continuous
 62
     7
370
    25
100
AcDbLine
 10
2443.1171558148
 20
7572.7773085334
 30
0.0
 11
2463.3171103246
 21
7572.7773085334
 31
0.0
  0
LINE
  5
2A7
330
1F
100
AcDbEntity
  8
0
  6
Continuous
 62
     7
370
    25
100
AcDbLine
 10
2463.3171103246
 20
7580.2338495948
 30
0.0
 11
2443.1171558148
 21
7580.2338495948
 31
0.0
  0
LWPOLYLINE
  5
2A8
330
1F
100
AcDbEntity
  8
0
  6
Continuous
 62
     7
370
    25
100
AcDbPolyline
 90
       15
 70
   128
 43
0.0
 10
1286.7383799798
 20
7542.1175733306
 10
1286.7610744483
 20
7541.929580281
 10
1287.1091208703
 20
7540.7266393401
 10
1287.7864531524
 20
7539.6218672492
 10
1288.7565634496
 20
7538.6748090484
 10
1289.967133785
 20
7537.9366055228
 10
1291.3529119737
 20
7537.446953366
 10
1292.8391835935
 20
7537.2322574355
 10
1294.3458400018
 20
7537.3041406371
 10
1295.7916549689
 20
7537.6587286689
 10
1297.0986656196
 20
7538.2768288352
 10
1298.1964192636
 20
7539.125241349
 10
1299.0257433898
 20
7540.1581302383
 10
1299.5419196136
 20
7541.3198247649
 10
1299.695878411
 20
7542.1175733306
  0
LWPOLYLINE
  5
2A9
330
1F
100
AcDbEntity
  8
0
  6
Continuous
 62
     7
370
    25
100
AcDbPolyline
 90
       15
 70
   128
 43
0.0
 10
3606.7383430249
 20
7542.1175733306
 10
3606.892361427
 20
7541.3198247649
 10
3607.4085376508
 20
7540.1581302383
 10
3608.2377574689
 20
7539.125241349
 10
3609.3356750257
 20
7538.2768288352
 10
3610.6426856763
 20
7537.6587286689
 10
3612.08845594
 20
7537.3041406371
 10
3613.5950229413
 20
7537.2322574355
 10
3615.0813243634
 20
7537.446953366
 10
3616.4670131452
 20
7537.9366055228
 10
3617.6777026898
 20
7538.6748090484
 10
3618.6478278882
 20
7539.6218672492
 10
3619.3251750714
 20
7540.7266393401
 10
3619.6732661969
 20
7541.929580281
 10
3619.6959159619
 20
7542.1175733306
  0
LINE
  5
2AA
330
1F
100
AcDbEntity
  8
0
  6
Continuous
 62
     7
370
    25
100
AcDbLine
 10
2463.3171103246
 20
7579.0050998428
 30
0.0
 11
2443.1171558148
 21
7579.0050998428
 31
0.0
  0
LINE
  5
2AB
330
1F
100
AcDbEntity
  8
0
  6
Continuous
 62
     7
370
    25
100
AcDbLine
 10
3638.2172248609
 20
7588.8374820449
 30
0.0
 11
3638.2172248609
 21
7589.4704237678
 31
0.0
  0
LINE
  5
2AC
330
1F
100
AcDbEntity
  8
0
  6
Continuous
 62
     7
370
    25
100
AcDbLine
 10
1268.2171306855
 20
7588.8374820449
 30
0.0
 11
1268.2171306855
 21
7589.4704237678
 31
0.0
  0
LWPOLYLINE
  5
2AD
330
1F
100
AcDbEntity
  8
0
  6
Continuous
 62
     7
370
    25
100
AcDbPolyline
 90
       15
 70
   128
 43
0.0
 10
1286.7383799798
 20
7501.15994365
 10
1286.7610744483
 20
7500.972010205
 10
1287.1091208703
 20
7499.7690692641
 10
1287.7864531524
 20
7498.6642971732
 10
1288.7565634496
 20
7497.7172389724
 10
1289.967133785
 20
7496.9789758422
 10
1291.3529119737
 20
7496.4893236854
 10
1292.8391835935
 20
7496.2746277549
 10
1294.3458400018
 20
7496.3465109565
 10
1295.7916549689
 20
7496.7010989883
 10
1297.0986656196
 20
7497.3192587592
 10
1298.1964192636
 20
7498.1676116683
 10
1299.0257433898
 20
7499.2005005576
 10
1299.5419196136
 20
7500.3621950843
 10
1299.695878411
 20
7501.15994365
  0
LWPOLYLINE
  5
2AE
330
1F
100
AcDbEntity
  8
0
  6
Continuous
 62
     7
370
    25
100
AcDbPolyline
 90
       15
 70
   128
 43
0.0
 10
3606.7383430249
 20
7501.15994365
 10
3606.892361427
 20
7500.3621950843
 10
3607.4085376508
 20
7499.2005005576
 10
3608.2377574689
 20
7498.1676116683
 10
3609.3356750257
 20
7497.3192587592
 10
3610.6426856763
 20
7496.7010989883
 10
3612.08845594
 20
7496.3465109565
 10
3613.5950229413
 20
7496.2746277549
 10
3615.0813243634
 20
7496.4893236854
 10
3616.4670131452
 20
7496.9789758422
 10
3617.6777026898
 20
7497.7172389724
 10
3618.6478278882
 20
7498.6642971732
 10
3619.3251750714
 20
7499.7690692641
 10
3619.6732661969
 20
7500.972010205
 10
3619.6959159619
 20
7501.15994365
  0
LINE
  5
2AF
330
1F
100
AcDbEntity
  8
0
  6
Continuous
 62
     7
370
    25
100
AcDbLine
 10
2463.3171103246
 20
7573.601581166
 30
0.0
 11
2443.1171558148
 21
7573.601581166
 31
0.0
  0
LINE
  5
2B0
330
1F
100
AcDbEntity
  8
0
  6
Continuous
 62
     7
370
    25
100
AcDbLine
 10
1268.2171306855
 20
7481.6255346038
 30
0.0
 11
1268.2171306855
 21
7483.1179753043
 31
0.0
  0
LINE
  5
2B1
330
1F
100
AcDbEntity
  8
0
  6
Continuous
 62
     7
370
    25
100
AcDbLine
 10
3638.2172248609
 20
7483.1179753043
 30
0.0
 11
3638.2172248609
 21
7481.6255346038
 31
0.0
  0
LINE
  5
2B2
330
1F
100
AcDbEntity
  8
0
  6
Continuous
 62
     7
370
    25
100
AcDbLine
 10
3638.2172248609
 20
8404.7508016326
 30
0.0
 11
3638.2172248609
 21
8409.6253886916
 31
0.0
  0
LINE
  5
2B3
330
1F
100
AcDbEntity
  8
0
  6
Continuous
 62
     7
370
    25
100
AcDbLine
 10
6008.2171104199
 20
8409.6253886916
 30
0.0
 11
6008.2171104199
 21
8404.7508016326
 31
0.0
  0
LWPOLYLINE
  5
2B4
330
1F
100
AcDbEntity
  8
0
  6
Continuous
 62
     7
370
    25
100
AcDbPolyline
 90
       28
 70
   128
 43
0.0
 10
5976.717247749
 20
8387.139059613
 10
5976.8922469861
 20
8385.9110847213
 10
5977.4086616284
 20
8384.7493901946
 10
5978.2378814466
 20
8383.71656091
 10
5979.3355605847
 20
8382.8681483962
 10
5980.6425712354
 20
8382.2500482299
 10
5982.088341499
 20
8381.8954005935
 10
5983.595146919
 20
8381.8235173919
 10
5985.0814483411
 20
8382.0382133224
 10
5986.4671371228
 20
8382.5279250838
 10
5987.6778266675
 20
8383.266188214
 10
5988.6477134473
 20
8384.2131868102
 10
5989.3252990491
 20
8385.3178992965
 10
5989.6733901746
 20
8386.5208402374
 10
5989.6733901746
 20
8387.7571597793
 10
5989.3252990491
 20
8388.9601007201
 10
5988.6477134473
 20
8390.0649324157
 10
5987.6778266675
 20
8391.0119310119
 10
5986.4671371228
 20
8391.7501941421
 10
5985.0814483411
 20
8392.2397866943
 10
5983.595146919
 20
8392.4544826247
 10
5982.088341499
 20
8392.3825994231
 10
5980.6425712354
 20
8392.028070996
 10
5979.3355605847
 20
8391.4099708297
 10
5978.2378814466
 20
8390.561558316
 10
5977.4086616284
 20
8389.528609822
 10
5976.8922469861
 20
8388.3669152953
 10
5976.717247749
 20
8387.139059613
  0
LWPOLYLINE
  5
2B5
330
1F
100
AcDbEntity
  8
0
  6
Continuous
 62
     7
370
    25
100
AcDbPolyline
 90
       28
 70
   128
 43
0.0
 10
3669.7170875318
 20
8346.181489537
 10
3669.5418498761
 20
8347.4093452193
 10
3669.0256736524
 20
8348.571039746
 10
3668.1964538342
 20
8349.60398824
 10
3667.0987746961
 20
8350.4522815444
 10
3665.7917640454
 20
8351.07050092
 10
3664.3457553632
 20
8351.4250293472
 10
3662.8391883618
 20
8351.4969125488
 10
3661.3528869397
 20
8351.2822166183
 10
3659.967198158
 20
8350.7926240661
 10
3658.7565086133
 20
8350.0543609359
 10
3657.7863834149
 20
8349.1072431304
 10
3657.1090362317
 20
8348.0025306442
 10
3656.7611835248
 20
8346.7995897033
 10
3656.7611835248
 20
8345.5632701614
 10
3657.1090362317
 20
8344.3603292205
 10
3657.7863834149
 20
8343.2556167342
 10
3658.7565086133
 20
8342.3084989288
 10
3659.967198158
 20
8341.5702357986
 10
3661.3528869397
 20
8341.0806432464
 10
3662.8391883618
 20
8340.8659473159
 10
3664.3457553632
 20
8340.9378305175
 10
3665.7917640454
 20
8341.2923589446
 10
3667.0987746961
 20
8341.9105783202
 10
3668.1964538342
 20
8342.7588716247
 10
3669.0256736524
 20
8343.7918201186
 10
3669.5418498761
 20
8344.9535146453
 10
3669.7170875318
 20
8346.181489537
  0
LWPOLYLINE
  5
2B6
330
1F
100
AcDbEntity
  8
0
  6
Continuous
 62
     7
370
    25
100
AcDbPolyline
 90
       28
 70
   128
 43
0.0
 10
3669.7170875318
 20
8387.139059613
 10
3669.5418498761
 20
8388.3669152953
 10
3669.0256736524
 20
8389.528609822
 10
3668.1964538342
 20
8390.561558316
 10
3667.0987746961
 20
8391.4099708297
 10
3665.7917640454
 20
8392.028070996
 10
3664.3457553632
 20
8392.3825994231
 10
3662.8391883618
 20
8392.4544826247
 10
3661.3528869397
 20
8392.2397866943
 10
3659.967198158
 20
8391.7501941421
 10
3658.7565086133
 20
8391.0119310119
 10
3657.7863834149
 20
8390.0649324157
 10
3657.1090362317
 20
8388.9601007201
 10
3656.7611835248
 20
8387.7571597793
 10
3656.7611835248
 20
8386.5208402374
 10
3657.1090362317
 20
8385.3178992965
 10
3657.7863834149
 20
8384.2131868102
 10
3658.7565086133
 20
8383.266188214
 10
3659.967198158
 20
8382.5279250838
 10
3661.3528869397
 20
8382.0382133224
 10
3662.8391883618
 20
8381.8235173919
 10
3664.3457553632
 20
8381.8954005935
 10
3665.7917640454
 20
8382.2500482299
 10
3667.0987746961
 20
8382.8681483962
 10
3668.1964538342
 20
8383.71656091
 10
3669.0256736524
 20
8384.7493901946
 10
3669.5418498761
 20
8385.9110847213
 10
3669.7170875318
 20
8387.139059613
  0
LWPOLYLINE
  5
2B7
330
1F
100
AcDbEntity
  8
0
  6
Continuous
 62
     7
370
    25
100
AcDbPolyline
 90
       28
 70
   128
 43
0.0
 10
5976.717247749
 20
8346.181489537
 10
5976.8922469861
 20
8344.9535146453
 10
5977.4086616284
 20
8343.7918201186
 10
5978.2378814466
 20
8342.7588716247
 10
5979.3355605847
 20
8341.9105783202
 10
5980.6425712354
 20
8341.2923589446
 10
5982.088341499
 20
8340.9378305175
 10
5983.595146919
 20
8340.8659473159
 10
5985.0814483411
 20
8341.0806432464
 10
5986.4671371228
 20
8341.5702357986
 10
5987.6778266675
 20
8342.3084989288
 10
5988.6477134473
 20
8343.2556167342
 10
5989.3252990491
 20
8344.3603292205
 10
5989.6733901746
 20
8345.5632701614
 10
5989.6733901746
 20
8346.7995897033
 10
5989.3252990491
 20
8348.0025306442
 10
5988.6477134473
 20
8349.1072431304
 10
5987.6778266675
 20
8350.0543609359
 10
5986.4671371228
 20
8350.7926240661
 10
5985.0814483411
 20
8351.2822166183
 10
5983.595146919
 20
8351.4969125488
 10
5982.088341499
 20
8351.4250293472
 10
5980.6425712354
 20
8351.07050092
 10
5979.3355605847
 20
8350.4522815444
 10
5978.2378814466
 20
8349.60398824
 10
5977.4086616284
 20
8348.571039746
 10
5976.8922469861
 20
8347.4093452193
 10
5976.717247749
 20
8346.181489537
  0
LINE
  5
2B8
330
1F
100
AcDbEntity
  8
0
  6
Continuous
 62
     7
370
    25
100
AcDbLine
 10
6008.2171104199
 20
8328.569628308
 30
0.0
 11
6008.2171104199
 21
8404.7508016326
 31
0.0
  0
LINE
  5
2B9
330
1F
100
AcDbEntity
  8
0
  6
Continuous
 62
     7
370
    25
100
AcDbLine
 10
3638.2172248609
 20
8328.569628308
 30
0.0
 11
3638.2172248609
 21
8404.7508016326
 31
0.0
  0
LINE
  5
2BA
330
1F
100
AcDbEntity
  8
0
  6
Continuous
 62
     7
370
    25
100
AcDbLine
 10
3638.2172248609
 20
8409.6253886916
 30
0.0
 11
3638.2172248609
 21
8434.2891946532
 31
0.0
  0
LINE
  5
2BB
330
1F
100
AcDbEntity
  8
0
  6
Continuous
 62
     7
370
    25
100
AcDbLine
 10
6008.2171104199
 20
8409.6253886916
 30
0.0
 11
6008.2171104199
 21
8434.2891946532
 31
0.0
  0
LINE
  5
2BC
330
1F
100
AcDbEntity
  8
0
  6
Continuous
 62
     7
370
    25
100
AcDbLine
 10
4813.1170413739
 20
8418.2289615371
 30
0.0
 11
4833.3170554883
 21
8418.2289615371
 31
0.0
  0
LINE
  5
2BD
330
1F
100
AcDbEntity
  8
0
  6
Continuous
 62
     7
370
    25
100
AcDbLine
 10
4833.3170554883
 20
8425.6855025985
 30
0.0
 11
4813.1170413739
 21
8425.6855025985
 31
0.0
  0
LWPOLYLINE
  5
2BE
330
1F
100
AcDbEntity
  8
0
  6
Continuous
 62
     7
370
    25
100
AcDbPolyline
 90
       15
 70
   128
 43
0.0
 10
3656.7382953412
 20
8387.5691667297
 10
3656.7611835248
 20
8387.3812928893
 10
3657.1090362317
 20
8386.1783519485
 10
3657.7863834149
 20
8385.0735202529
 10
3658.7565086133
 20
8384.1265216567
 10
3659.967198158
 20
8383.3882585265
 10
3661.3528869397
 20
8382.8985467651
 10
3662.8391883618
 20
8382.6839700439
 10
3664.3457553632
 20
8382.7558532455
 10
3665.7917640454
 20
8383.1103816726
 10
3667.0987746961
 20
8383.7284818389
 10
3668.1964538342
 20
8384.5768943526
 10
3669.0256736524
 20
8385.6097236373
 10
3669.5418498761
 20
8386.7715373733
 10
3669.6958682782
 20
8387.5691667297
  0
LWPOLYLINE
  5
2BF
330
1F
100
AcDbEntity
  8
0
  6
Continuous
 62
     7
370
    25
100
AcDbPolyline
 90
       15
 70
   128
 43
0.0
 10
5976.738228584
 20
8387.5691667297
 10
5976.8922469861
 20
8386.7715373733
 10
5977.4086616284
 20
8385.6097236373
 10
5978.2378814466
 20
8384.5768943526
 10
5979.3355605847
 20
8383.7284818389
 10
5980.6425712354
 20
8383.1103816726
 10
5982.088341499
 20
8382.7558532455
 10
5983.595146919
 20
8382.6839700439
 10
5985.0814483411
 20
8382.8985467651
 10
5986.4671371228
 20
8383.3882585265
 10
5987.6778266675
 20
8384.1265216567
 10
5988.6477134473
 20
8385.0735202529
 10
5989.3252990491
 20
8386.1783519485
 10
5989.6733901746
 20
8387.3812928893
 10
5989.695801521
 20
8387.5691667297
  0
LINE
  5
2C0
330
1F
100
AcDbEntity
  8
0
  6
Continuous
 62
     7
370
    25
100
AcDbLine
 10
4833.3170554883
 20
8424.4568124511
 30
0.0
 11
4813.1170413739
 21
8424.4568124511
 31
0.0
  0
LINE
  5
2C1
330
1F
100
AcDbEntity
  8
0
  6
Continuous
 62
     7
370
    25
100
AcDbLine
 10
6008.2171104199
 20
8434.2891946532
 30
0.0
 11
6008.2171104199
 21
8434.9220767715
 31
0.0
  0
LINE
  5
2C2
330
1F
100
AcDbEntity
  8
0
  6
Continuous
 62
     7
370
    25
100
AcDbLine
 10
3638.2172248609
 20
8434.2891946532
 30
0.0
 11
3638.2172248609
 21
8434.9220767715
 31
0.0
  0
LWPOLYLINE
  5
2C3
330
1F
100
AcDbEntity
  8
0
  6
Continuous
 62
     7
370
    25
100
AcDbPolyline
 90
       15
 70
   128
 43
0.0
 10
3656.7382953412
 20
8346.6115966537
 10
3656.7611835248
 20
8346.4236036041
 10
3657.1090362317
 20
8345.2206626632
 10
3657.7863834149
 20
8344.1159501769
 10
3658.7565086133
 20
8343.1689515807
 10
3659.967198158
 20
8342.4306884505
 10
3661.3528869397
 20
8341.9409766891
 10
3662.8391883618
 20
8341.7262807586
 10
3664.3457553632
 20
8341.7981639602
 10
3665.7917640454
 20
8342.1528115966
 10
3667.0987746961
 20
8342.7709117629
 10
3668.1964538342
 20
8343.6193242767
 10
3669.0256736524
 20
8344.6521535613
 10
3669.5418498761
 20
8345.813848088
 10
3669.6958682782
 20
8346.6115966537
  0
LWPOLYLINE
  5
2C4
330
1F
100
AcDbEntity
  8
0
  6
Continuous
 62
     7
370
    25
100
AcDbPolyline
 90
       15
 70
   128
 43
0.0
 10
5976.738228584
 20
8346.6115966537
 10
5976.8922469861
 20
8345.813848088
 10
5977.4086616284
 20
8344.6521535613
 10
5978.2378814466
 20
8343.6193242767
 10
5979.3355605847
 20
8342.7709117629
 10
5980.6425712354
 20
8342.1528115966
 10
5982.088341499
 20
8341.7981639602
 10
5983.595146919
 20
8341.7262807586
 10
5985.0814483411
 20
8341.9409766891
 10
5986.4671371228
 20
8342.4306884505
 10
5987.6778266675
 20
8343.1689515807
 10
5988.6477134473
 20
8344.1159501769
 10
5989.3252990491
 20
8345.2206626632
 10
5989.6733901746
 20
8346.4236036041
 10
5989.695801521
 20
8346.6115966537
  0
LINE
  5
2C5
330
1F
100
AcDbEntity
  8
0
  6
Continuous
 62
     7
370
    25
100
AcDbLine
 10
4833.3170554883
 20
8419.0532937743
 30
0.0
 11
4813.1170413739
 21
8419.0532937743
 31
0.0
  0
LINE
  5
2C6
330
1F
100
AcDbEntity
  8
0
  6
Continuous
 62
     7
370
    25
100
AcDbLine
 10
3638.2172248609
 20
8327.0771280029
 30
0.0
 11
3638.2172248609
 21
8328.569628308
 31
0.0
  0
LINE
  5
2C7
330
1F
100
AcDbEntity
  8
0
  6
Continuous
 62
     7
370
    25
100
AcDbLine
 10
6008.2171104199
 20
8328.569628308
 30
0.0
 11
6008.2171104199
 21
8327.0771280029
 31
0.0
  0
LINE
  5
2C8
330
1F
100
AcDbEntity
  8
0
  6
Continuous
 62
     7
370
    25
100
AcDbLine
 10
6008.2171104199
 20
7564.1736760833
 30
0.0
 11
6008.2171104199
 21
7559.2991486289
 31
0.0
  0
LWPOLYLINE
  5
2C9
330
1F
100
AcDbEntity
  8
0
  6
Continuous
 62
     7
370
    25
100
AcDbPolyline
 90
       28
 70
   128
 43
0.0
 10
5976.717247749
 20
7541.6873470046
 10
5976.8922469861
 20
7540.4594317176
 10
5977.4086616284
 20
7539.2977371909
 10
5978.2378814466
 20
7538.2648483016
 10
5979.3355605847
 20
7537.4164953925
 10
5980.6425712354
 20
7536.7983356216
 10
5982.088341499
 20
7536.4437475898
 10
5983.595146919
 20
7536.3718643882
 10
5985.0814483411
 20
7536.5865603187
 10
5986.4671371228
 20
7537.0762124755
 10
5987.6778266675
 20
7537.8144756057
 10
5988.6477134473
 20
7538.7615338065
 10
5989.3252990491
 20
7539.8663058974
 10
5989.6733901746
 20
7541.0692468383
 10
5989.6733901746
 20
7542.3055067756
 10
5989.3252990491
 20
7543.5084477164
 10
5988.6477134473
 20
7544.6132198074
 10
5987.6778266675
 20
7545.5602780082
 10
5986.4671371228
 20
7546.2984815337
 10
5985.0814483411
 20
7546.7881932952
 10
5983.595146919
 20
7547.0028296211
 10
5982.088341499
 20
7546.9309464195
 10
5980.6425712354
 20
7546.5764179923
 10
5979.3355605847
 20
7545.9582582214
 10
5978.2378814466
 20
7545.1099053123
 10
5977.4086616284
 20
7544.077016423
 10
5976.8922469861
 20
7542.9152622916
 10
5976.717247749
 20
7541.6873470046
  0
LWPOLYLINE
  5
2CA
330
1F
100
AcDbEntity
  8
0
  6
Continuous
 62
     7
370
    25
100
AcDbPolyline
 90
       28
 70
   128
 43
0.0
 10
3669.7170875318
 20
7500.7297769286
 10
3669.5418498761
 20
7501.9576922157
 10
3669.0256736524
 20
7503.1193867423
 10
3668.1964538342
 20
7504.1522756316
 10
3667.0987746961
 20
7505.0006881454
 10
3665.7917640454
 20
7505.6187883117
 10
3664.3457553632
 20
7505.9733763435
 10
3662.8391883618
 20
7506.0452595451
 10
3661.3528869397
 20
7505.8305636146
 10
3659.967198158
 20
7505.3409114578
 10
3658.7565086133
 20
7504.6026483276
 10
3657.7863834149
 20
7503.6555901267
 10
3657.1090362317
 20
7502.5508180358
 10
3656.7611835248
 20
7501.347877095
 10
3656.7611835248
 20
7500.1116171577
 10
3657.1090362317
 20
7498.9086762168
 10
3657.7863834149
 20
7497.8039041259
 10
3658.7565086133
 20
7496.8568459251
 10
3659.967198158
 20
7496.1186423995
 10
3661.3528869397
 20
7495.628930638
 10
3662.8391883618
 20
7495.4142943122
 10
3664.3457553632
 20
7495.4861775138
 10
3665.7917640454
 20
7495.8407059409
 10
3667.0987746961
 20
7496.4588657119
 10
3668.1964538342
 20
7497.3072782256
 10
3669.0256736524
 20
7498.3401671149
 10
3669.5418498761
 20
7499.5018616416
 10
3669.7170875318
 20
7500.7297769286
  0
LWPOLYLINE
  5
2CB
330
1F
100
AcDbEntity
  8
0
  6
Continuous
 62
     7
370
    25
100
AcDbPolyline
 90
       28
 70
   128
 43
0.0
 10
3669.7170875318
 20
7541.6873470046
 10
3669.5418498761
 20
7542.9152622916
 10
3669.0256736524
 20
7544.077016423
 10
3668.1964538342
 20
7545.1099053123
 10
3667.0987746961
 20
7545.9582582214
 10
3665.7917640454
 20
7546.5764179923
 10
3664.3457553632
 20
7546.9309464195
 10
3662.8391883618
 20
7547.0028296211
 10
3661.3528869397
 20
7546.7881932952
 10
3659.967198158
 20
7546.2984815337
 10
3658.7565086133
 20
7545.5602780082
 10
3657.7863834149
 20
7544.6132198074
 10
3657.1090362317
 20
7543.5084477164
 10
3656.7611835248
 20
7542.3055067756
 10
3656.7611835248
 20
7541.0692468383
 10
3657.1090362317
 20
7539.8663058974
 10
3657.7863834149
 20
7538.7615338065
 10
3658.7565086133
 20
7537.8144756057
 10
3659.967198158
 20
7537.0762124755
 10
3661.3528869397
 20
7536.5865603187
 10
3662.8391883618
 20
7536.3718643882
 10
3664.3457553632
 20
7536.4437475898
 10
3665.7917640454
 20
7536.7983356216
 10
3667.0987746961
 20
7537.4164953925
 10
3668.1964538342
 20
7538.2648483016
 10
3669.0256736524
 20
7539.2977371909
 10
3669.5418498761
 20
7540.4594317176
 10
3669.7170875318
 20
7541.6873470046
  0
LWPOLYLINE
  5
2CC
330
1F
100
AcDbEntity
  8
0
  6
Continuous
 62
     7
370
    25
100
AcDbPolyline
 90
       28
 70
   128
 43
0.0
 10
5976.717247749
 20
7500.7297769286
 10
5976.8922469861
 20
7499.5018616416
 10
5977.4086616284
 20
7498.3401671149
 10
5978.2378814466
 20
7497.3072782256
 10
5979.3355605847
 20
7496.4588657119
 10
5980.6425712354
 20
7495.8407059409
 10
5982.088341499
 20
7495.4861775138
 10
5983.595146919
 20
7495.4142943122
 10
5985.0814483411
 20
7495.628930638
 10
5986.4671371228
 20
7496.1186423995
 10
5987.6778266675
 20
7496.8568459251
 10
5988.6477134473
 20
7497.8039041259
 10
5989.3252990491
 20
7498.9086762168
 10
5989.6733901746
 20
7500.1116171577
 10
5989.6733901746
 20
7501.347877095
 10
5989.3252990491
 20
7502.5508180358
 10
5988.6477134473
 20
7503.6555901267
 10
5987.6778266675
 20
7504.6026483276
 10
5986.4671371228
 20
7505.3409114578
 10
5985.0814483411
 20
7505.8305636146
 10
5983.595146919
 20
7506.0452595451
 10
5982.088341499
 20
7505.9733763435
 10
5980.6425712354
 20
7505.6187883117
 10
5979.3355605847
 20
7505.0006881454
 10
5978.2378814466
 20
7504.1522756316
 10
5977.4086616284
 20
7503.1193867423
 10
5976.8922469861
 20
7501.9576922157
 10
5976.717247749
 20
7500.7297769286
  0
LINE
  5
2CD
330
1F
100
AcDbEntity
  8
0
  6
Continuous
 62
     7
370
    25
100
AcDbLine
 10
6008.2171104199
 20
7483.1179753043
 30
0.0
 11
6008.2171104199
 21
7559.2991486289
 31
0.0
  0
LINE
  5
2CE
330
1F
100
AcDbEntity
  8
0
  6
Continuous
 62
     7
370
    25
100
AcDbLine
 10
6008.2171104199
 20
7564.1736760833
 30
0.0
 11
6008.2171104199
 21
7588.8374820449
 31
0.0
  0
LINE
  5
2CF
330
1F
100
AcDbEntity
  8
0
  6
Continuous
 62
     7
370
    25
100
AcDbLine
 10
4813.1170413739
 20
7572.7773085334
 30
0.0
 11
4833.3170554883
 21
7572.7773085334
 31
0.0
  0
LINE
  5
2D0
330
1F
100
AcDbEntity
  8
0
  6
Continuous
 62
     7
370
    25
100
AcDbLine
 10
4833.3170554883
 20
7580.2338495948
 30
0.0
 11
4813.1170413739
 21
7580.2338495948
 31
0.0
  0
LWPOLYLINE
  5
2D1
330
1F
100
AcDbEntity
  8
0
  6
Continuous
 62
     7
370
    25
100
AcDbPolyline
 90
       15
 70
   128
 43
0.0
 10
3656.7382953412
 20
7542.1175733306
 10
3656.7611835248
 20
7541.929580281
 10
3657.1090362317
 20
7540.7266393401
 10
3657.7863834149
 20
7539.6218672492
 10
3658.7565086133
 20
7538.6748090484
 10
3659.967198158
 20
7537.9366055228
 10
3661.3528869397
 20
7537.446953366
 10
3662.8391883618
 20
7537.2322574355
 10
3664.3457553632
 20
7537.3041406371
 10
3665.7917640454
 20
7537.6587286689
 10
3667.0987746961
 20
7538.2768288352
 10
3668.1964538342
 20
7539.125241349
 10
3669.0256736524
 20
7540.1581302383
 10
3669.5418498761
 20
7541.3198247649
 10
3669.6958682782
 20
7542.1175733306
  0
LWPOLYLINE
  5
2D2
330
1F
100
AcDbEntity
  8
0
  6
Continuous
 62
     7
370
    25
100
AcDbPolyline
 90
       15
 70
   128
 43
0.0
 10
5976.738228584
 20
7542.1175733306
 10
5976.8922469861
 20
7541.3198247649
 10
5977.4086616284
 20
7540.1581302383
 10
5978.2378814466
 20
7539.125241349
 10
5979.3355605847
 20
7538.2768288352
 10
5980.6425712354
 20
7537.6587286689
 10
5982.088341499
 20
7537.3041406371
 10
5983.595146919
 20
7537.2322574355
 10
5985.0814483411
 20
7537.446953366
 10
5986.4671371228
 20
7537.9366055228
 10
5987.6778266675
 20
7538.6748090484
 10
5988.6477134473
 20
7539.6218672492
 10
5989.3252990491
 20
7540.7266393401
 10
5989.6733901746
 20
7541.929580281
 10
5989.695801521
 20
7542.1175733306
  0
LINE
  5
2D3
330
1F
100
AcDbEntity
  8
0
  6
Continuous
 62
     7
370
    25
100
AcDbLine
 10
4833.3170554883
 20
7579.0050998428
 30
0.0
 11
4813.1170413739
 21
7579.0050998428
 31
0.0
  0
LINE
  5
2D4
330
1F
100
AcDbEntity
  8
0
  6
Continuous
 62
     7
370
    25
100
AcDbLine
 10
6008.2171104199
 20
7588.8374820449
 30
0.0
 11
6008.2171104199
 21
7589.4704237678
 31
0.0
  0
LWPOLYLINE
  5
2D5
330
1F
100
AcDbEntity
  8
0
  6
Continuous
 62
     7
370
    25
100
AcDbPolyline
 90
       15
 70
   128
 43
0.0
 10
3656.7382953412
 20
7501.15994365
 10
3656.7611835248
 20
7500.972010205
 10
3657.1090362317
 20
7499.7690692641
 10
3657.7863834149
 20
7498.6642971732
 10
3658.7565086133
 20
7497.7172389724
 10
3659.967198158
 20
7496.9789758422
 10
3661.3528869397
 20
7496.4893236854
 10
3662.8391883618
 20
7496.2746277549
 10
3664.3457553632
 20
7496.3465109565
 10
3665.7917640454
 20
7496.7010989883
 10
3667.0987746961
 20
7497.3192587592
 10
3668.1964538342
 20
7498.1676116683
 10
3669.0256736524
 20
7499.2005005576
 10
3669.5418498761
 20
7500.3621950843
 10
3669.6958682782
 20
7501.15994365
  0
LWPOLYLINE
  5
2D6
330
1F
100
AcDbEntity
  8
0
  6
Continuous
 62
     7
370
    25
100
AcDbPolyline
 90
       15
 70
   128
 43
0.0
 10
5976.738228584
 20
7501.15994365
 10
5976.8922469861
 20
7500.3621950843
 10
5977.4086616284
 20
7499.2005005576
 10
5978.2378814466
 20
7498.1676116683
 10
5979.3355605847
 20
7497.3192587592
 10
5980.6425712354
 20
7496.7010989883
 10
5982.088341499
 20
7496.3465109565
 10
5983.595146919
 20
7496.2746277549
 10
5985.0814483411
 20
7496.4893236854
 10
5986.4671371228
 20
7496.9789758422
 10
5987.6778266675
 20
7497.7172389724
 10
5988.6477134473
 20
7498.6642971732
 10
5989.3252990491
 20
7499.7690692641
 10
5989.6733901746
 20
7500.972010205
 10
5989.695801521
 20
7501.15994365
  0
LINE
  5
2D7
330
1F
100
AcDbEntity
  8
0
  6
Continuous
 62
     7
370
    25
100
AcDbLine
 10
4833.3170554883
 20
7573.601581166
 30
0.0
 11
4813.1170413739
 21
7573.601581166
 31
0.0
  0
LINE
  5
2D8
330
1F
100
AcDbEntity
  8
0
  6
Continuous
 62
     7
370
    25
100
AcDbLine
 10
6008.2171104199
 20
7483.1179753043
 30
0.0
 11
6008.2171104199
 21
7481.6255346038
 31
0.0
  0
LINE
  5
2D9
330
1F
100
AcDbEntity
  8
0
  6
Continuous
 62
     7
370
    25
100
AcDbLine
 10
1268.2171306855
 20
8404.7508016326
 30
0.0
 11
1268.2171306855
 21
8409.6253886916
 31
0.0
  0
LWPOLYLINE
  5
2DA
330
1F
100
AcDbEntity
  8
0
  6
Continuous
 62
     7
370
    25
100
AcDbPolyline
 90
       28
 70
   128
 43
0.0
 10
3606.7171237714
 20
8387.139059613
 10
3606.892361427
 20
8385.9110847213
 10
3607.4085376508
 20
8384.7493901946
 10
3608.2377574689
 20
8383.71656091
 10
3609.3356750257
 20
8382.8681483962
 10
3610.6426856763
 20
8382.2500482299
 10
3612.08845594
 20
8381.8954005935
 10
3613.5950229413
 20
8381.8235173919
 10
3615.0813243634
 20
8382.0382133224
 10
3616.4670131452
 20
8382.5279250838
 10
3617.6777026898
 20
8383.266188214
 10
3618.6478278882
 20
8384.2131868102
 10
3619.3251750714
 20
8385.3178992965
 10
3619.6732661969
 20
8386.5208402374
 10
3619.6732661969
 20
8387.7571597793
 10
3619.3251750714
 20
8388.9601007201
 10
3618.6478278882
 20
8390.0649324157
 10
3617.6777026898
 20
8391.0119310119
 10
3616.4670131452
 20
8391.7501941421
 10
3615.0813243634
 20
8392.2397866943
 10
3613.5950229413
 20
8392.4544826247
 10
3612.08845594
 20
8392.3825994231
 10
3610.6426856763
 20
8392.028070996
 10
3609.3356750257
 20
8391.4099708297
 10
3608.2377574689
 20
8390.561558316
 10
3607.4085376508
 20
8389.528609822
 10
3606.892361427
 20
8388.3669152953
 10
3606.7171237714
 20
8387.139059613
  0
LWPOLYLINE
  5
2DB
330
1F
100
AcDbEntity
  8
0
  6
Continuous
 62
     7
370
    25
100
AcDbPolyline
 90
       28
 70
   128
 43
0.0
 10
1299.7171274669
 20
8346.181489537
 10
1299.5419196136
 20
8347.4093452193
 10
1299.0257433898
 20
8348.571039746
 10
1298.1964192636
 20
8349.60398824
 10
1297.0986656196
 20
8350.4522815444
 10
1295.7916549689
 20
8351.07050092
 10
1294.3458400018
 20
8351.4250293472
 10
1292.8391835935
 20
8351.4969125488
 10
1291.3529119737
 20
8351.2822166183
 10
1289.967133785
 20
8350.7926240661
 10
1288.7565634496
 20
8350.0543609359
 10
1287.7864531524
 20
8349.1072431304
 10
1287.1091208703
 20
8348.0025306442
 10
1286.7610744483
 20
8346.7995897033
 10
1286.7610744483
 20
8345.5632701614
 10
1287.1091208703
 20
8344.3603292205
 10
1287.7864531524
 20
8343.2556167342
 10
1288.7565634496
 20
8342.3084989288
 10
1289.967133785
 20
8341.5702357986
 10
1291.3529119737
 20
8341.0806432464
 10
1292.8391835935
 20
8340.8659473159
 10
1294.3458400018
 20
8340.9378305175
 10
1295.7916549689
 20
8341.2923589446
 10
1297.0986656196
 20
8341.9105783202
 10
1298.1964192636
 20
8342.7588716247
 10
1299.0257433898
 20
8343.7918201186
 10
1299.5419196136
 20
8344.9535146453
 10
1299.7171274669
 20
8346.181489537
  0
LWPOLYLINE
  5
2DC
330
1F
100
AcDbEntity
  8
0
  6
Continuous
 62
     7
370
    25
100
AcDbPolyline
 90
       28
 70
   128
 43
0.0
 10
1299.7171274669
 20
8387.139059613
 10
1299.5419196136
 20
8388.3669152953
 10
1299.0257433898
 20
8389.528609822
 10
1298.1964192636
 20
8390.561558316
 10
1297.0986656196
 20
8391.4099708297
 10
1295.7916549689
 20
8392.028070996
 10
1294.3458400018
 20
8392.3825994231
 10
1292.8391835935
 20
8392.4544826247
 10
1291.3529119737
 20
8392.2397866943
 10
1289.967133785
 20
8391.7501941421
 10
1288.7565634496
 20
8391.0119310119
 10
1287.7864531524
 20
8390.0649324157
 10
1287.1091208703
 20
8388.9601007201
 10
1286.7610744483
 20
8387.7571597793
 10
1286.7610744483
 20
8386.5208402374
 10
1287.1091208703
 20
8385.3178992965
 10
1287.7864531524
 20
8384.2131868102
 10
1288.7565634496
 20
8383.266188214
 10
1289.967133785
 20
8382.5279250838
 10
1291.3529119737
 20
8382.0382133224
 10
1292.8391835935
 20
8381.8235173919
 10
1294.3458400018
 20
8381.8954005935
 10
1295.7916549689
 20
8382.2500482299
 10
1297.0986656196
 20
8382.8681483962
 10
1298.1964192636
 20
8383.71656091
 10
1299.0257433898
 20
8384.7493901946
 10
1299.5419196136
 20
8385.9110847213
 10
1299.7171274669
 20
8387.139059613
  0
LWPOLYLINE
  5
2DD
330
1F
100
AcDbEntity
  8
0
  6
Continuous
 62
     7
370
    25
100
AcDbPolyline
 90
       28
 70
   128
 43
0.0
 10
3606.7171237714
 20
8346.181489537
 10
3606.892361427
 20
8344.9535146453
 10
3607.4085376508
 20
8343.7918201186
 10
3608.2377574689
 20
8342.7588716247
 10
3609.3356750257
 20
8341.9105783202
 10
3610.6426856763
 20
8341.2923589446
 10
3612.08845594
 20
8340.9378305175
 10
3613.5950229413
 20
8340.8659473159
 10
3615.0813243634
 20
8341.0806432464
 10
3616.4670131452
 20
8341.5702357986
 10
3617.6777026898
 20
8342.3084989288
 10
3618.6478278882
 20
8343.2556167342
 10
3619.3251750714
 20
8344.3603292205
 10
3619.6732661969
 20
8345.5632701614
 10
3619.6732661969
 20
8346.7995897033
 10
3619.3251750714
 20
8348.0025306442
 10
3618.6478278882
 20
8349.1072431304
 10
3617.6777026898
 20
8350.0543609359
 10
3616.4670131452
 20
8350.7926240661
 10
3615.0813243634
 20
8351.2822166183
 10
3613.5950229413
 20
8351.4969125488
 10
3612.08845594
 20
8351.4250293472
 10
3610.6426856763
 20
8351.07050092
 10
3609.3356750257
 20
8350.4522815444
 10
3608.2377574689
 20
8349.60398824
 10
3607.4085376508
 20
8348.571039746
 10
3606.892361427
 20
8347.4093452193
 10
3606.7171237714
 20
8346.181489537
  0
LINE
  5
2DE
330
1F
100
AcDbEntity
  8
0
  6
Continuous
 62
     7
370
    25
100
AcDbLine
 10
1268.2171306855
 20
8328.569628308
 30
0.0
 11
1268.2171306855
 21
8404.7508016326
 31
0.0
  0
LINE
  5
2DF
330
1F
100
AcDbEntity
  8
0
  6
Continuous
 62
     7
370
    25
100
AcDbLine
 10
1268.2171306855
 20
8409.6253886916
 30
0.0
 11
1268.2171306855
 21
8434.2891946532
 31
0.0
  0
LINE
  5
2E0
330
1F
100
AcDbEntity
  8
0
  6
Continuous
 62
     7
370
    25
100
AcDbLine
 10
2443.1171558148
 20
8418.2289615371
 30
0.0
 11
2463.3171103246
 21
8418.2289615371
 31
0.0
  0
LINE
  5
2E1
330
1F
100
AcDbEntity
  8
0
  6
Continuous
 62
     7
370
    25
100
AcDbLine
 10
2463.3171103246
 20
8425.6855025985
 30
0.0
 11
2443.1171558148
 21
8425.6855025985
 31
0.0
  0
LWPOLYLINE
  5
2E2
330
1F
100
AcDbEntity
  8
0
  6
Continuous
 62
     7
370
    25
100
AcDbPolyline
 90
       15
 70
   128
 43
0.0
 10
1286.7383799798
 20
8387.5691667297
 10
1286.7610744483
 20
8387.3812928893
 10
1287.1091208703
 20
8386.1783519485
 10
1287.7864531524
 20
8385.0735202529
 10
1288.7565634496
 20
8384.1265216567
 10
1289.967133785
 20
8383.3882585265
 10
1291.3529119737
 20
8382.8985467651
 10
1292.8391835935
 20
8382.6839700439
 10
1294.3458400018
 20
8382.7558532455
 10
1295.7916549689
 20
8383.1103816726
 10
1297.0986656196
 20
8383.7284818389
 10
1298.1964192636
 20
8384.5768943526
 10
1299.0257433898
 20
8385.6097236373
 10
1299.5419196136
 20
8386.7715373733
 10
1299.695878411
 20
8387.5691667297
  0
LWPOLYLINE
  5
2E3
330
1F
100
AcDbEntity
  8
0
  6
Continuous
 62
     7
370
    25
100
AcDbPolyline
 90
       15
 70
   128
 43
0.0
 10
3606.7383430249
 20
8387.5691667297
 10
3606.892361427
 20
8386.7715373733
 10
3607.4085376508
 20
8385.6097236373
 10
3608.2377574689
 20
8384.5768943526
 10
3609.3356750257
 20
8383.7284818389
 10
3610.6426856763
 20
8383.1103816726
 10
3612.08845594
 20
8382.7558532455
 10
3613.5950229413
 20
8382.6839700439
 10
3615.0813243634
 20
8382.8985467651
 10
3616.4670131452
 20
8383.3882585265
 10
3617.6777026898
 20
8384.1265216567
 10
3618.6478278882
 20
8385.0735202529
 10
3619.3251750714
 20
8386.1783519485
 10
3619.6732661969
 20
8387.3812928893
 10
3619.6959159619
 20
8387.5691667297
  0
LINE
  5
2E4
330
1F
100
AcDbEntity
  8
0
  6
Continuous
 62
     7
370
    25
100
AcDbLine
 10
2463.3171103246
 20
8424.4568124511
 30
0.0
 11
2443.1171558148
 21
8424.4568124511
 31
0.0
  0
LINE
  5
2E5
330
1F
100
AcDbEntity
  8
0
  6
Continuous
 62
     7
370
    25
100
AcDbLine
 10
1268.2171306855
 20
8434.2891946532
 30
0.0
 11
1268.2171306855
 21
8434.9220767715
 31
0.0
  0
LWPOLYLINE
  5
2E6
330
1F
100
AcDbEntity
  8
0
  6
Continuous
 62
     7
370
    25
100
AcDbPolyline
 90
       15
 70
   128
 43
0.0
 10
1286.7383799798
 20
8346.6115966537
 10
1286.7610744483
 20
8346.4236036041
 10
1287.1091208703
 20
8345.2206626632
 10
1287.7864531524
 20
8344.1159501769
 10
1288.7565634496
 20
8343.1689515807
 10
1289.967133785
 20
8342.4306884505
 10
1291.3529119737
 20
8341.9409766891
 10
1292.8391835935
 20
8341.7262807586
 10
1294.3458400018
 20
8341.7981639602
 10
1295.7916549689
 20
8342.1528115966
 10
1297.0986656196
 20
8342.7709117629
 10
1298.1964192636
 20
8343.6193242767
 10
1299.0257433898
 20
8344.6521535613
 10
1299.5419196136
 20
8345.813848088
 10
1299.695878411
 20
8346.6115966537
  0
LWPOLYLINE
  5
2E7
330
1F
100
AcDbEntity
  8
0
  6
Continuous
 62
     7
370
    25
100
AcDbPolyline
 90
       15
 70
   128
 43
0.0
 10
3606.7383430249
 20
8346.6115966537
 10
3606.892361427
 20
8345.813848088
 10
3607.4085376508
 20
8344.6521535613
 10
3608.2377574689
 20
8343.6193242767
 10
3609.3356750257
 20
8342.7709117629
 10
3610.6426856763
 20
8342.1528115966
 10
3612.08845594
 20
8341.7981639602
 10
3613.5950229413
 20
8341.7262807586
 10
3615.0813243634
 20
8341.9409766891
 10
3616.4670131452
 20
8342.4306884505
 10
3617.6777026898
 20
8343.1689515807
 10
3618.6478278882
 20
8344.1159501769
 10
3619.3251750714
 20
8345.2206626632
 10
3619.6732661969
 20
8346.4236036041
 10
3619.6959159619
 20
8346.6115966537
  0
LINE
  5
2E8
330
1F
100
AcDbEntity
  8
0
  6
Continuous
 62
     7
370
    25
100
AcDbLine
 10
2463.3171103246
 20
8419.0532937743
 30
0.0
 11
2443.1171558148
 21
8419.0532937743
 31
0.0
  0
LINE
  5
2E9
330
1F
100
AcDbEntity
  8
0
  6
Continuous
 62
     7
370
    25
100
AcDbLine
 10
1268.2171306855
 20
8327.0771280029
 30
0.0
 11
1268.2171306855
 21
8328.569628308
 31
0.0
  0
LINE
  5
2EA
330
1F
100
AcDbEntity
  8
0
  6
Continuous
 62
     7
370
    25
100
AcDbLine
 10
5730.7169578321
 20
7316.3168802955
 30
0.0
 11
5730.7169578321
 21
7370.0180724361
 31
0.0
  0
LINE
  5
2EB
330
1F
100
AcDbEntity
  8
0
  6
Continuous
 62
     7
370
    25
100
AcDbLine
 10
5728.2169006116
 20
7316.3168802955
 30
0.0
 11
5730.7169578321
 21
7316.3168802955
 31
0.0
  0
LINE
  5
2EC
330
1F
100
AcDbEntity
  8
0
  6
Continuous
 62
     7
370
    25
100
AcDbLine
 10
5728.2169006116
 20
7316.3168802955
 30
0.0
 11
5728.2169006116
 21
7370.0180724361
 31
0.0
  0
LINE
  5
2ED
330
1F
100
AcDbEntity
  8
0
  6
Continuous
 62
     7
370
    25
100
AcDbLine
 10
5788.2173202283
 20
7329.0137425163
 30
0.0
 11
5785.7172630078
 21
7329.0137425163
 31
0.0
  0
LINE
  5
2EE
330
1F
100
AcDbEntity
  8
0
  6
Continuous
 62
     7
370
    25
100
AcDbLine
 10
5788.2173202283
 20
7329.0137425163
 30
0.0
 11
5788.2173202283
 21
7316.3168802955
 31
0.0
  0
LINE
  5
2EF
330
1F
100
AcDbEntity
  8
0
  6
Continuous
 62
     7
370
    25
100
AcDbLine
 10
5785.7172630078
 20
7316.3168802955
 30
0.0
 11
5788.2173202283
 21
7316.3168802955
 31
0.0
  0
LINE
  5
2F0
330
1F
100
AcDbEntity
  8
0
  6
Continuous
 62
     7
370
    25
100
AcDbLine
 10
5785.7172630078
 20
7329.0137425163
 30
0.0
 11
5785.7172630078
 21
7316.3168802955
 31
0.0
  0
LINE
  5
2F1
330
1F
100
AcDbEntity
  8
0
  6
Continuous
 62
     7
370
    25
100
AcDbLine
 10
5788.2173202283
 20
7329.0137425163
 30
0.0
 11
5788.2173202283
 21
7370.0180724361
 31
0.0
  0
LINE
  5
2F2
330
1F
100
AcDbEntity
  8
0
  6
Continuous
 62
     7
370
    25
100
AcDbLine
 10
5785.7172630078
 20
7329.0137425163
 30
0.0
 11
5785.7172630078
 21
7370.0180724361
 31
0.0
  0
ARC
  5
2F3
330
1F
100
AcDbEntity
  8
0
  6
Continuous
 62
     7
370
    25
100
AcDbCircle
 10
5732.5530546044
 20
7316.5183928618
 30
0.0
 40
1.847121726329122
100
AcDbArc
 50
186.2631745631
 51
275.101137291
  0
LINE
  5
2F4
330
1F
100
AcDbEntity
  8
0
  6
Continuous
 62
     7
370
    25
100
AcDbLine
 10
5732.7172897107
 20
7314.6785870292
 30
0.0
 11
5732.7172897107
 21
7312.630690644
 31
0.0
  0
ARC
  5
2F5
330
1F
100
AcDbEntity
  8
0
  6
Continuous
 62
     7
370
    25
100
AcDbCircle
 10
5732.3473655379
 20
7316.7693668442
 30
0.0
 40
4.155175638174391
100
AcDbArc
 50
186.2517417392
 51
275.107652303
  0
ARC
  5
2F6
330
1F
100
AcDbEntity
  8
0
  6
Continuous
 62
     7
370
    25
100
AcDbCircle
 10
5784.0870950786
 20
7316.7690741062
 30
0.0
 40
4.154905417679903
100
AcDbArc
 50
264.8886949406
 51
353.7519110173
  0
ARC
  5
2F7
330
1F
100
AcDbEntity
  8
0
  6
Continuous
 62
     7
370
    25
100
AcDbCircle
 10
5783.8813450305
 20
7316.5181745558
 30
0.0
 40
1.846920192864919
100
AcDbArc
 50
264.8927358803
 51
353.7429522655
  0
LINE
  5
2F8
330
1F
100
AcDbEntity
  8
0
  6
Continuous
 62
     7
370
    25
100
AcDbLine
 10
5783.7169311292
 20
7312.630690644
 30
0.0
 11
5783.7169311292
 21
7314.6785870292
 31
0.0
  0
LINE
  5
2F9
330
1F
100
AcDbEntity
  8
0
  6
Continuous
 62
     7
370
    25
100
AcDbLine
 10
5783.7169311292
 20
7314.6785870292
 30
0.0
 11
5732.7172897107
 21
7314.6785870292
 31
0.0
  0
LINE
  5
2FA
330
1F
100
AcDbEntity
  8
0
  6
Continuous
 62
     7
370
    25
100
AcDbLine
 10
5783.7169311292
 20
7312.630690644
 30
0.0
 11
5732.7172897107
 21
7312.630690644
 31
0.0
  0
LWPOLYLINE
  5
2FB
330
1F
100
AcDbEntity
  8
0
  6
Continuous
 62
     7
370
    25
100
AcDbPolyline
 90
       14
 70
   128
 43
0.0
 10
5751.7173431165
 20
7351.1006906726
 10
5751.9061706311
 20
7351.9929126003
 10
5752.4616859204
 20
7352.8332784869
 10
5753.3519408948
 20
7353.5729721286
 10
5754.5244834668
 20
7354.1689589717
 10
5755.9120795972
 20
7354.58663852
 10
5757.433666969
 20
7354.801751683
 10
5759.0005538709
 20
7354.801751683
 10
5760.5221412427
 20
7354.58663852
 10
5761.9097373731
 20
7354.1689589717
 10
5763.0822799451
 20
7353.5729721286
 10
5763.9725349195
 20
7352.8332784869
 10
5764.5280502088
 20
7351.9929126003
 10
5764.7173545606
 20
7351.1006906726
  0
LINE
  5
2FC
330
1F
100
AcDbEntity
  8
0
  6
Continuous
 62
     7
370
    25
100
AcDbLine
 10
5751.7173431165
 20
7324.1425827243
 30
0.0
 11
5751.7173431165
 21
7351.1006906726
 31
0.0
  0
LWPOLYLINE
  5
2FD
330
1F
100
AcDbEntity
  8
0
  6
Continuous
 62
     7
370
    25
100
AcDbPolyline
 90
       14
 70
   128
 43
0.0
 10
5764.7173545606
 20
7324.1425827243
 10
5764.5280502088
 20
7323.2503607967
 10
5763.9725349195
 20
7322.40999491
 10
5763.0822799451
 20
7321.6703012683
 10
5761.9097373731
 20
7321.0742846229
 10
5760.5221412427
 20
7320.6566050746
 10
5759.0005538709
 20
7320.4415217139
 10
5757.433666969
 20
7320.4415217139
 10
5755.9120795972
 20
7320.6566050746
 10
5754.5244834668
 20
7321.0742846229
 10
5753.3519408948
 20
7321.6703012683
 10
5752.4616859204
 20
7322.40999491
 10
5751.9061706311
 20
7323.2503607967
 10
5751.7173431165
 20
7324.1425827243
  0
LINE
  5
2FE
330
1F
100
AcDbEntity
  8
0
  6
Continuous
 62
     7
370
    25
100
AcDbLine
 10
5764.7173545606
 20
7351.1006906726
 30
0.0
 11
5764.7173545606
 21
7324.1425827243
 31
0.0
  0
LWPOLYLINE
  5
2FF
330
1F
100
AcDbEntity
  8
0
  6
Continuous
 62
     7
370
    25
100
AcDbPolyline
 90
       14
 70
   128
 43
0.0
 10
5764.7173545606
 20
7349.0527942874
 10
5764.5280502088
 20
7349.9450162151
 10
5763.9725349195
 20
7350.7854119041
 10
5763.0822799451
 20
7351.5250757434
 10
5761.9097373731
 20
7352.1210923888
 10
5760.5221412427
 20
7352.5387719371
 10
5759.0005538709
 20
7352.7538552978
 10
5757.433666969
 20
7352.7538552978
 10
5755.9120795972
 20
7352.5387719371
 10
5754.5244834668
 20
7352.1210923888
 10
5753.3519408948
 20
7351.5250757434
 10
5752.4616859204
 20
7350.7854119041
 10
5751.9061706311
 20
7349.9450162151
 10
5751.7173431165
 20
7349.0527942874
  0
LINE
  5
300
330
1F
100
AcDbEntity
  8
0
  6
Continuous
 62
     7
370
    25
100
AcDbLine
 10
1488.2171294935
 20
7316.3168802955
 30
0.0
 11
1490.7171294376
 21
7316.3168802955
 31
0.0
  0
LINE
  5
301
330
1F
100
AcDbEntity
  8
0
  6
Continuous
 62
     7
370
    25
100
AcDbLine
 10
1488.2171294935
 20
7316.3168802955
 30
0.0
 11
1488.2171294935
 21
7370.0180724361
 31
0.0
  0
LINE
  5
302
330
1F
100
AcDbEntity
  8
0
  6
Continuous
 62
     7
370
    25
100
AcDbLine
 10
1490.7171294376
 20
7316.3168802955
 30
0.0
 11
1490.7171294376
 21
7370.0180724361
 31
0.0
  0
LINE
  5
303
330
1F
100
AcDbEntity
  8
0
  6
Continuous
 62
     7
370
    25
100
AcDbLine
 10
1548.2171281523
 20
7329.0137425163
 30
0.0
 11
1545.7171305365
 21
7329.0137425163
 31
0.0
  0
LINE
  5
304
330
1F
100
AcDbEntity
  8
0
  6
Continuous
 62
     7
370
    25
100
AcDbLine
 10
1548.2171281523
 20
7329.0137425163
 30
0.0
 11
1548.2171281523
 21
7316.3168802955
 31
0.0
  0
LINE
  5
305
330
1F
100
AcDbEntity
  8
0
  6
Continuous
 62
     7
370
    25
100
AcDbLine
 10
1545.7171305365
 20
7316.3168802955
 30
0.0
 11
1548.2171281523
 21
7316.3168802955
 31
0.0
  0
LINE
  5
306
330
1F
100
AcDbEntity
  8
0
  6
Continuous
 62
     7
370
    25
100
AcDbLine
 10
1545.7171305365
 20
7329.0137425163
 30
0.0
 11
1545.7171305365
 21
7316.3168802955
 31
0.0
  0
LINE
  5
307
330
1F
100
AcDbEntity
  8
0
  6
Continuous
 62
     7
370
    25
100
AcDbLine
 10
1548.2171281523
 20
7329.0137425163
 30
0.0
 11
1548.2171281523
 21
7370.0180724361
 31
0.0
  0
LINE
  5
308
330
1F
100
AcDbEntity
  8
0
  6
Continuous
 62
     7
370
    25
100
AcDbLine
 10
1545.7171305365
 20
7329.0137425163
 30
0.0
 11
1545.7171305365
 21
7370.0180724361
 31
0.0
  0
ARC
  5
309
330
1F
100
AcDbEntity
  8
0
  6
Continuous
 62
     7
370
    25
100
AcDbCircle
 10
1492.55261524
 20
7316.5176802506
 30
0.0
 40
1.84643677199617
100
AcDbArc
 50
186.2432622006
 51
275.1117251853
  0
LINE
  5
30A
330
1F
100
AcDbEntity
  8
0
  6
Continuous
 62
     7
370
    25
100
AcDbLine
 10
1492.7171292997
 20
7314.6785870292
 30
0.0
 11
1492.7171292997
 21
7312.630690644
 31
0.0
  0
ARC
  5
30B
330
1F
100
AcDbEntity
  8
0
  6
Continuous
 62
     7
370
    25
100
AcDbCircle
 10
1492.3470103681
 20
7316.7686928965
 30
0.0
 40
4.154521713140056
100
AcDbArc
 50
186.2433796152
 51
275.1111550603
  0
ARC
  5
30C
330
1F
100
AcDbEntity
  8
0
  6
Continuous
 62
     7
370
    25
100
AcDbCircle
 10
1544.0872498755
 20
7316.7686899121
 30
0.0
 40
4.154518806174128
100
AcDbArc
 50
264.8888311741
 51
353.7566574019
  0
ARC
  5
30D
330
1F
100
AcDbEntity
  8
0
  6
Continuous
 62
     7
370
    25
100
AcDbCircle
 10
1543.8816430718
 20
7316.5176822332
 30
0.0
 40
1.846438640025966
100
AcDbArc
 50
264.8883172801
 51
353.756682255
  0
LINE
  5
30E
330
1F
100
AcDbEntity
  8
0
  6
Continuous
 62
     7
370
    25
100
AcDbLine
 10
1543.7171302087
 20
7312.630690644
 30
0.0
 11
1543.7171302087
 21
7314.6785870292
 31
0.0
  0
LINE
  5
30F
330
1F
100
AcDbEntity
  8
0
  6
Continuous
 62
     7
370
    25
100
AcDbLine
 10
1543.7171302087
 20
7314.6785870292
 30
0.0
 11
1492.7171292997
 21
7314.6785870292
 31
0.0
  0
LINE
  5
310
330
1F
100
AcDbEntity
  8
0
  6
Continuous
 62
     7
370
    25
100
AcDbLine
 10
1543.7171302087
 20
7312.630690644
 30
0.0
 11
1492.7171292997
 21
7312.630690644
 31
0.0
  0
LWPOLYLINE
  5
311
330
1F
100
AcDbEntity
  8
0
  6
Continuous
 62
     7
370
    25
100
AcDbPolyline
 90
       14
 70
   128
 43
0.0
 10
1511.7171286888
 20
7351.1006906726
 10
1511.9060083575
 20
7351.9929126003
 10
1512.4616652078
 20
7352.8332784869
 10
1513.3518102861
 20
7353.5729721286
 10
1514.5247086234
 20
7354.1689589717
 10
1515.912198583
 20
7354.58663852
 10
1517.4336406685
 20
7354.801751683
 10
1519.0006188399
 20
7354.801751683
 10
1520.5220609254
 20
7354.58663852
 10
1521.9095490224
 20
7354.1689589717
 10
1523.0824492223
 20
7353.5729721286
 10
1523.9725924379
 20
7352.8332784869
 10
1524.5282530136
 20
7351.9929126003
 10
1524.717128957
 20
7351.1006906726
  0
LINE
  5
312
330
1F
100
AcDbEntity
  8
0
  6
Continuous
 62
     7
370
    25
100
AcDbLine
 10
1511.7171286888
 20
7324.1425827243
 30
0.0
 11
1511.7171286888
 21
7351.1006906726
 31
0.0
  0
LWPOLYLINE
  5
313
330
1F
100
AcDbEntity
  8
0
  6
Continuous
 62
     7
370
    25
100
AcDbPolyline
 90
       14
 70
   128
 43
0.0
 10
1524.717128957
 20
7324.1425827243
 10
1524.5282530136
 20
7323.2503607967
 10
1523.9725924379
 20
7322.40999491
 10
1523.0824492223
 20
7321.6703012683
 10
1521.9095490224
 20
7321.0742846229
 10
1520.5220609254
 20
7320.6566050746
 10
1519.0006188399
 20
7320.4415217139
 10
1517.4336406685
 20
7320.4415217139
 10
1515.912198583
 20
7320.6566050746
 10
1514.5247086234
 20
7321.0742846229
 10
1513.3518102861
 20
7321.6703012683
 10
1512.4616652078
 20
7322.40999491
 10
1511.9060083575
 20
7323.2503607967
 10
1511.7171286888
 20
7324.1425827243
  0
LINE
  5
314
330
1F
100
AcDbEntity
  8
0
  6
Continuous
 62
     7
370
    25
100
AcDbLine
 10
1524.717128957
 20
7351.1006906726
 30
0.0
 11
1524.717128957
 21
7324.1425827243
 31
0.0
  0
LWPOLYLINE
  5
315
330
1F
100
AcDbEntity
  8
0
  6
Continuous
 62
     7
370
    25
100
AcDbPolyline
 90
       14
 70
   128
 43
0.0
 10
1524.717128957
 20
7349.0527942874
 10
1524.5282530136
 20
7349.9450162151
 10
1523.9725924379
 20
7350.7854119041
 10
1523.0824492223
 20
7351.5250757434
 10
1521.9095490224
 20
7352.1210923888
 10
1520.5220609254
 20
7352.5387719371
 10
1519.0006188399
 20
7352.7538552978
 10
1517.4336406685
 20
7352.7538552978
 10
1515.912198583
 20
7352.5387719371
 10
1514.5247086234
 20
7352.1210923888
 10
1513.3518102861
 20
7351.5250757434
 10
1512.4616652078
 20
7350.7854119041
 10
1511.9060083575
 20
7349.9450162151
 10
1511.7171286888
 20
7349.0527942874
  0
LINE
  5
316
330
1F
100
AcDbEntity
  8
0
  6
Continuous
 62
     7
370
    25
100
AcDbLine
 10
3358.2171342618
 20
7316.3168802955
 30
0.0
 11
3360.717072273
 21
7316.3168802955
 31
0.0
  0
LINE
  5
317
330
1F
100
AcDbEntity
  8
0
  6
Continuous
 62
     7
370
    25
100
AcDbLine
 10
3358.2171342618
 20
7316.3168802955
 30
0.0
 11
3358.2171342618
 21
7370.0180724361
 31
0.0
  0
LINE
  5
318
330
1F
100
AcDbEntity
  8
0
  6
Continuous
 62
     7
370
    25
100
AcDbLine
 10
3360.717072273
 20
7316.3168802955
 30
0.0
 11
3360.717072273
 21
7370.0180724361
 31
0.0
  0
LINE
  5
319
330
1F
100
AcDbEntity
  8
0
  6
Continuous
 62
     7
370
    25
100
AcDbLine
 10
3418.2170770413
 20
7329.0137425163
 30
0.0
 11
3415.7171390302
 21
7329.0137425163
 31
0.0
  0
LINE
  5
31A
330
1F
100
AcDbEntity
  8
0
  6
Continuous
 62
     7
370
    25
100
AcDbLine
 10
3418.2170770413
 20
7329.0137425163
 30
0.0
 11
3418.2170770413
 21
7316.3168802955
 31
0.0
  0
LINE
  5
31B
330
1F
100
AcDbEntity
  8
0
  6
Continuous
 62
     7
370
    25
100
AcDbLine
 10
3415.7171390302
 20
7316.3168802955
 30
0.0
 11
3418.2170770413
 21
7316.3168802955
 31
0.0
  0
LINE
  5
31C
330
1F
100
AcDbEntity
  8
0
  6
Continuous
 62
     7
370
    25
100
AcDbLine
 10
3415.7171390302
 20
7329.0137425163
 30
0.0
 11
3415.7171390302
 21
7316.3168802955
 31
0.0
  0
LINE
  5
31D
330
1F
100
AcDbEntity
  8
0
  6
Continuous
 62
     7
370
    25
100
AcDbLine
 10
3418.2170770413
 20
7329.0137425163
 30
0.0
 11
3418.2170770413
 21
7370.0180724361
 31
0.0
  0
LINE
  5
31E
330
1F
100
AcDbEntity
  8
0
  6
Continuous
 62
     7
370
    25
100
AcDbLine
 10
3415.7171390302
 20
7329.0137425163
 30
0.0
 11
3415.7171390302
 21
7370.0180724361
 31
0.0
  0
ARC
  5
31F
330
1F
100
AcDbEntity
  8
0
  6
Continuous
 62
     7
370
    25
100
AcDbCircle
 10
3362.5526755217
 20
7316.5178142321
 30
0.0
 40
1.846568096093607
100
AcDbArc
 50
186.2469984537
 51
275.1106177567
  0
LINE
  5
320
330
1F
100
AcDbEntity
  8
0
  6
Continuous
 62
     7
370
    25
100
AcDbLine
 10
3362.7171657331
 20
7314.6785870292
 30
0.0
 11
3362.7171657331
 21
7312.630690644
 31
0.0
  0
ARC
  5
321
330
1F
100
AcDbEntity
  8
0
  6
Continuous
 62
     7
370
    25
100
AcDbCircle
 10
3362.3469555318
 20
7316.7686169528
 30
0.0
 40
4.154454203611358
100
AcDbArc
 50
186.2424278543
 51
275.1125020998
  0
ARC
  5
322
330
1F
100
AcDbEntity
  8
0
  6
Continuous
 62
     7
370
    25
100
AcDbCircle
 10
3414.0873168701
 20
7316.768554337
 30
0.0
 40
4.154386658955571
100
AcDbArc
 50
264.8882191967
 51
353.7583389729
  0
ARC
  5
323
330
1F
100
AcDbEntity
  8
0
  6
Continuous
 62
     7
370
    25
100
AcDbCircle
 10
3413.8816555011
 20
7316.517680047
 30
0.0
 40
1.84643448992971
100
AcDbArc
 50
264.8889955602
 51
353.7567364097
  0
LINE
  5
324
330
1F
100
AcDbEntity
  8
0
  6
Continuous
 62
     7
370
    25
100
AcDbLine
 10
3413.7171647794
 20
7312.630690644
 30
0.0
 11
3413.7171647794
 21
7314.6785870292
 31
0.0
  0
LINE
  5
325
330
1F
100
AcDbEntity
  8
0
  6
Continuous
 62
     7
370
    25
100
AcDbLine
 10
3413.7171647794
 20
7314.6785870292
 30
0.0
 11
3362.7171657331
 21
7314.6785870292
 31
0.0
  0
LINE
  5
326
330
1F
100
AcDbEntity
  8
0
  6
Continuous
 62
     7
370
    25
100
AcDbLine
 10
3413.7171647794
 20
7312.630690644
 30
0.0
 11
3362.7171657331
 21
7312.630690644
 31
0.0
  0
LWPOLYLINE
  5
327
330
1F
100
AcDbEntity
  8
0
  6
Continuous
 62
     7
370
    25
100
AcDbPolyline
 90
       14
 70
   128
 43
0.0
 10
3381.7170999295
 20
7351.1006906726
 10
3381.9060466535
 20
7351.9929126003
 10
3382.4616811521
 20
7352.8332784869
 10
3383.3518169171
 20
7353.5729721286
 10
3384.524717117
 20
7354.1689589717
 10
3385.9121940381
 20
7354.58663852
 10
3387.4336622006
 20
7354.801751683
 10
3389.0006683118
 20
7354.801751683
 10
3390.522017265
 20
7354.58663852
 10
3391.9094941861
 20
7354.1689589717
 10
3393.082394386
 20
7353.5729721286
 10
3393.9726493604
 20
7352.8332784869
 10
3394.528283859
 20
7351.9929126003
 10
3394.7171113736
 20
7351.1006906726
  0
LINE
  5
328
330
1F
100
AcDbEntity
  8
0
  6
Continuous
 62
     7
370
    25
100
AcDbLine
 10
3381.7170999295
 20
7324.1425827243
 30
0.0
 11
3381.7170999295
 21
7351.1006906726
 31
0.0
  0
LWPOLYLINE
  5
329
330
1F
100
AcDbEntity
  8
0
  6
Continuous
 62
     7
370
    25
100
AcDbPolyline
 90
       14
 70
   128
 43
0.0
 10
3394.7171113736
 20
7324.1425827243
 10
3394.528283859
 20
7323.2503607967
 10
3393.9726493604
 20
7322.40999491
 10
3393.082394386
 20
7321.6703012683
 10
3391.9094941861
 20
7321.0742846229
 10
3390.522017265
 20
7320.6566050746
 10
3389.0006683118
 20
7320.4415217139
 10
3387.4336622006
 20
7320.4415217139
 10
3385.9121940381
 20
7320.6566050746
 10
3384.524717117
 20
7321.0742846229
 10
3383.3518169171
 20
7321.6703012683
 10
3382.4616811521
 20
7322.40999491
 10
3381.9060466535
 20
7323.2503607967
 10
3381.7170999295
 20
7324.1425827243
  0
LINE
  5
32A
330
1F
100
AcDbEntity
  8
0
  6
Continuous
 62
     7
370
    25
100
AcDbLine
 10
3394.7171113736
 20
7351.1006906726
 30
0.0
 11
3394.7171113736
 21
7324.1425827243
 31
0.0
  0
LWPOLYLINE
  5
32B
330
1F
100
AcDbEntity
  8
0
  6
Continuous
 62
     7
370
    25
100
AcDbPolyline
 90
       14
 70
   128
 43
0.0
 10
3394.7171113736
 20
7349.0527942874
 10
3394.528283859
 20
7349.9450162151
 10
3393.9726493604
 20
7350.7854119041
 10
3393.082394386
 20
7351.5250757434
 10
3391.9094941861
 20
7352.1210923888
 10
3390.522017265
 20
7352.5387719371
 10
3389.0006683118
 20
7352.7538552978
 10
3387.4336622006
 20
7352.7538552978
 10
3385.9121940381
 20
7352.5387719371
 10
3384.524717117
 20
7352.1210923888
 10
3383.3518169171
 20
7351.5250757434
 10
3382.4616811521
 20
7350.7854119041
 10
3381.9060466535
 20
7349.9450162151
 10
3381.7170999295
 20
7349.0527942874
  0
LINE
  5
32C
330
1F
100
AcDbEntity
  8
0
  6
Continuous
 62
     7
370
    25
100
AcDbLine
 10
5728.2169006116
 20
7111.8216142156
 30
0.0
 11
5728.2169006116
 21
5545.214988301
 31
0.0
  0
LINE
  5
32D
330
1F
100
AcDbEntity
  8
0
  6
Continuous
 62
     7
370
    25
100
AcDbLine
 10
5728.2169006116
 20
5545.214988301
 30
0.0
 11
5723.7169883496
 21
5545.214988301
 31
0.0
  0
LINE
  5
32E
330
1F
100
AcDbEntity
  8
0
  6
Continuous
 62
     7
370
    25
100
AcDbLine
 10
5723.7169883496
 20
5545.214988301
 30
0.0
 11
5672.7173469312
 21
5545.214988301
 31
0.0
  0
LINE
  5
32F
330
1F
100
AcDbEntity
  8
0
  6
Continuous
 62
     7
370
    25
100
AcDbLine
 10
5668.2169578321
 20
7370.0180724361
 30
0.0
 11
5668.2169578321
 21
5545.214988301
 31
0.0
  0
LINE
  5
330
330
1F
100
AcDbEntity
  8
0
  6
Continuous
 62
     7
370
    25
100
AcDbLine
 10
5672.7173469312
 20
5545.214988301
 30
0.0
 11
5668.2169578321
 21
5545.214988301
 31
0.0
  0
LINE
  5
331
330
1F
100
AcDbEntity
  8
0
  6
Continuous
 62
     7
370
    25
100
AcDbLine
 10
1488.2171294934
 20
7111.8216142156
 30
0.0
 11
1488.2171294934
 21
5545.214988301
 31
0.0
  0
LINE
  5
332
330
1F
100
AcDbEntity
  8
0
  6
Continuous
 62
     7
370
    25
100
AcDbLine
 10
1488.2171294934
 20
5545.214988301
 30
0.0
 11
1483.7171296871
 21
5545.214988301
 31
0.0
  0
LINE
  5
333
330
1F
100
AcDbEntity
  8
0
  6
Continuous
 62
     7
370
    25
100
AcDbLine
 10
1483.7171296871
 20
5545.214988301
 30
0.0
 11
1432.7171287782
 21
5545.214988301
 31
0.0
  0
LINE
  5
334
330
1F
100
AcDbEntity
  8
0
  6
Continuous
 62
     7
370
    25
100
AcDbLine
 10
1428.2171308345
 20
7370.0180724361
 30
0.0
 11
1428.2171308345
 21
5545.214988301
 31
0.0
  0
LINE
  5
335
330
1F
100
AcDbEntity
  8
0
  6
Continuous
 62
     7
370
    25
100
AcDbLine
 10
1432.7171287782
 20
5545.214988301
 30
0.0
 11
1428.2171308345
 21
5545.214988301
 31
0.0
  0
LINE
  5
336
330
1F
100
AcDbEntity
  8
0
  6
Continuous
 62
     7
370
    25
100
AcDbLine
 10
3358.2171342618
 20
7111.8216142156
 30
0.0
 11
3358.2171342618
 21
5545.214988301
 31
0.0
  0
LINE
  5
337
330
1F
100
AcDbEntity
  8
0
  6
Continuous
 62
     7
370
    25
100
AcDbLine
 10
3358.2171342618
 20
5545.214988301
 30
0.0
 11
3353.7171027905
 21
5545.214988301
 31
0.0
  0
LINE
  5
338
330
1F
100
AcDbEntity
  8
0
  6
Continuous
 62
     7
370
    25
100
AcDbLine
 10
3353.7171027905
 20
5545.214988301
 30
0.0
 11
3302.7171037442
 21
5545.214988301
 31
0.0
  0
LINE
  5
339
330
1F
100
AcDbEntity
  8
0
  6
Continuous
 62
     7
370
    25
100
AcDbLine
 10
3298.217072273
 20
7370.0180724361
 30
0.0
 11
3298.217072273
 21
5545.214988301
 31
0.0
  0
LINE
  5
33A
330
1F
100
AcDbEntity
  8
0
  6
Continuous
 62
     7
370
    25
100
AcDbLine
 10
3302.7171037442
 20
5545.214988301
 30
0.0
 11
3298.217072273
 21
5545.214988301
 31
0.0
  0
LINE
  5
33B
330
1F
100
AcDbEntity
  8
0
  6
Continuous
 62
     8
370
    25
100
AcDbLine
 10
5724.7169158704
 20
7370.0180724361
 30
0.0
 11
5724.7169158704
 21
7193.9771995046
 31
0.0
  0
LINE
  5
33C
330
1F
100
AcDbEntity
  8
0
  6
Continuous
 62
     8
370
    25
100
AcDbLine
 10
1491.7171296015
 20
7312.7228692271
 30
0.0
 11
1491.7171296015
 21
7285.6757715442
 31
0.0
  0
LINE
  5
33D
330
1F
100
AcDbEntity
  8
0
  6
Continuous
 62
     8
370
    25
100
AcDbLine
 10
5731.71736219
 20
7312.7228692271
 30
0.0
 11
5731.71736219
 21
7285.6757715442
 31
0.0
  0
LINE
  5
33E
330
1F
100
AcDbEntity
  8
0
  6
Continuous
 62
     8
370
    25
100
AcDbLine
 10
3354.7171495206
 20
7370.0180724361
 30
0.0
 11
3354.7171495206
 21
7193.9771995046
 31
0.0
  0
LINE
  5
33F
330
1F
100
AcDbEntity
  8
0
  6
Continuous
 62
     8
370
    25
100
AcDbLine
 10
1484.7171293854
 20
7370.0180724361
 30
0.0
 11
1484.7171293854
 21
7193.9771995046
 31
0.0
  0
LINE
  5
340
330
1F
100
AcDbEntity
  8
0
  6
Continuous
 62
     8
370
    25
100
AcDbLine
 10
3361.717119003
 20
7312.7228692271
 30
0.0
 11
3361.717119003
 21
7285.6757715442
 31
0.0
  0
LINE
  5
341
330
1F
100
AcDbEntity
  8
0
  6
Continuous
 62
     8
370
    25
100
AcDbLine
 10
1303.2171271092
 20
7564.1736760833
 30
0.0
 11
1268.2171306855
 21
7564.1736760833
 31
0.0
  0
LINE
  5
342
330
1F
100
AcDbEntity
  8
0
  6
Continuous
 62
     8
370
    25
100
AcDbLine
 10
1303.2171271092
 20
7559.2991486289
 30
0.0
 11
1268.2171306855
 21
7559.2991486289
 31
0.0
  0
LINE
  5
343
330
1F
100
AcDbEntity
  8
0
  6
Continuous
 62
     8
370
    25
100
AcDbLine
 10
2463.2171533353
 20
7564.1736760833
 30
0.0
 11
2443.2171128041
 21
7564.1736760833
 31
0.0
  0
LINE
  5
344
330
1F
100
AcDbEntity
  8
0
  6
Continuous
 62
     8
370
    25
100
AcDbLine
 10
2463.2171533353
 20
7559.2991486289
 30
0.0
 11
2443.2171128041
 21
7559.2991486289
 31
0.0
  0
LINE
  5
345
330
1F
100
AcDbEntity
  8
0
  6
Continuous
 62
     8
370
    25
100
AcDbLine
 10
3638.2172248609
 20
7559.2991486289
 30
0.0
 11
3603.2171390302
 21
7559.2991486289
 31
0.0
  0
LINE
  5
346
330
1F
100
AcDbEntity
  8
0
  6
Continuous
 62
     8
370
    25
100
AcDbLine
 10
3638.2172248609
 20
7564.1736760833
 30
0.0
 11
3603.2171390302
 21
7564.1736760833
 31
0.0
  0
LINE
  5
347
330
1F
100
AcDbEntity
  8
0
  6
Continuous
 62
     8
370
    25
100
AcDbLine
 10
3638.2172248609
 20
7483.1179753043
 30
0.0
 11
3603.2171390302
 21
7483.1179753043
 31
0.0
  0
LINE
  5
348
330
1F
100
AcDbEntity
  8
0
  6
Continuous
 62
     8
370
    25
100
AcDbLine
 10
2463.2171533353
 20
7483.1179753043
 30
0.0
 11
2443.2171128041
 21
7483.1179753043
 31
0.0
  0
LINE
  5
349
330
1F
100
AcDbEntity
  8
0
  6
Continuous
 62
     8
370
    25
100
AcDbLine
 10
1303.2171271092
 20
7483.1179753043
 30
0.0
 11
1268.2171306855
 21
7483.1179753043
 31
0.0
  0
LINE
  5
34A
330
1F
100
AcDbEntity
  8
0
  6
Continuous
 62
     8
370
    25
100
AcDbLine
 10
3638.2172248609
 20
7588.8374820449
 30
0.0
 11
3603.1172416455
 21
7588.8374820449
 31
0.0
  0
LINE
  5
34B
330
1F
100
AcDbEntity
  8
0
  6
Continuous
 62
     8
370
    25
100
AcDbLine
 10
2463.3171103246
 20
7588.8374820449
 30
0.0
 11
2443.1171558148
 21
7588.8374820449
 31
0.0
  0
LINE
  5
34C
330
1F
100
AcDbEntity
  8
0
  6
Continuous
 62
     8
370
    25
100
AcDbLine
 10
1303.317128802
 20
7588.8374820449
 30
0.0
 11
1268.2171306855
 21
7588.8374820449
 31
0.0
  0
LINE
  5
34D
330
1F
100
AcDbEntity
  8
0
  6
Continuous
 62
     8
370
    25
100
AcDbLine
 10
3673.3172080762
 20
8409.6253886916
 30
0.0
 11
3638.2172248609
 21
8409.6253886916
 31
0.0
  0
LINE
  5
34E
330
1F
100
AcDbEntity
  8
0
  6
Continuous
 62
     8
370
    25
100
AcDbLine
 10
3673.3172080762
 20
8404.7508016326
 30
0.0
 11
3638.2172248609
 21
8404.7508016326
 31
0.0
  0
LINE
  5
34F
330
1F
100
AcDbEntity
  8
0
  6
Continuous
 62
     8
370
    25
100
AcDbLine
 10
4833.3170554883
 20
8409.6253886916
 30
0.0
 11
4813.1170413739
 21
8409.6253886916
 31
0.0
  0
LINE
  5
350
330
1F
100
AcDbEntity
  8
0
  6
Continuous
 62
     8
370
    25
100
AcDbLine
 10
4833.3170554883
 20
8404.7508016326
 30
0.0
 11
4813.1170413739
 21
8404.7508016326
 31
0.0
  0
LINE
  5
351
330
1F
100
AcDbEntity
  8
0
  6
Continuous
 62
     8
370
    25
100
AcDbLine
 10
6008.2171104199
 20
8404.7508016326
 30
0.0
 11
5973.1171272046
 21
8404.7508016326
 31
0.0
  0
LINE
  5
352
330
1F
100
AcDbEntity
  8
0
  6
Continuous
 62
     8
370
    25
100
AcDbLine
 10
6008.2171104199
 20
8409.6253886916
 30
0.0
 11
5973.1171272046
 21
8409.6253886916
 31
0.0
  0
LINE
  5
353
330
1F
100
AcDbEntity
  8
0
  6
Continuous
 62
     8
370
    25
100
AcDbLine
 10
6008.2171104199
 20
8328.569628308
 30
0.0
 11
5973.2172630078
 21
8328.569628308
 31
0.0
  0
LINE
  5
354
330
1F
100
AcDbEntity
  8
0
  6
Continuous
 62
     8
370
    25
100
AcDbLine
 10
4833.2171581037
 20
8328.569628308
 30
0.0
 11
4813.2171771771
 21
8328.569628308
 31
0.0
  0
LINE
  5
355
330
1F
100
AcDbEntity
  8
0
  6
Continuous
 62
     8
370
    25
100
AcDbLine
 10
3673.217072273
 20
8328.569628308
 30
0.0
 11
3638.2172248609
 21
8328.569628308
 31
0.0
  0
LINE
  5
356
330
1F
100
AcDbEntity
  8
0
  6
Continuous
 62
     8
370
    25
100
AcDbLine
 10
6008.2171104199
 20
8434.2891946532
 30
0.0
 11
5973.1171272046
 21
8434.2891946532
 31
0.0
  0
LINE
  5
357
330
1F
100
AcDbEntity
  8
0
  6
Continuous
 62
     8
370
    25
100
AcDbLine
 10
4833.3170554883
 20
8434.2891946532
 30
0.0
 11
4813.1170413739
 21
8434.2891946532
 31
0.0
  0
LINE
  5
358
330
1F
100
AcDbEntity
  8
0
  6
Continuous
 62
     8
370
    25
100
AcDbLine
 10
3673.3172080762
 20
8434.2891946532
 30
0.0
 11
3638.2172248609
 21
8434.2891946532
 31
0.0
  0
LINE
  5
359
330
1F
100
AcDbEntity
  8
0
  6
Continuous
 62
     8
370
    25
100
AcDbLine
 10
3673.217072273
 20
7564.1736760833
 30
0.0
 11
3638.2172248609
 21
7564.1736760833
 31
0.0
  0
LINE
  5
35A
330
1F
100
AcDbEntity
  8
0
  6
Continuous
 62
     8
370
    25
100
AcDbLine
 10
3673.217072273
 20
7559.2991486289
 30
0.0
 11
3638.2172248609
 21
7559.2991486289
 31
0.0
  0
LINE
  5
35B
330
1F
100
AcDbEntity
  8
0
  6
Continuous
 62
     8
370
    25
100
AcDbLine
 10
4833.2171581037
 20
7564.1736760833
 30
0.0
 11
4813.2171771771
 21
7564.1736760833
 31
0.0
  0
LINE
  5
35C
330
1F
100
AcDbEntity
  8
0
  6
Continuous
 62
     8
370
    25
100
AcDbLine
 10
4833.2171581037
 20
7559.2991486289
 30
0.0
 11
4813.2171771771
 21
7559.2991486289
 31
0.0
  0
LINE
  5
35D
330
1F
100
AcDbEntity
  8
0
  6
Continuous
 62
     8
370
    25
100
AcDbLine
 10
6008.2171104199
 20
7559.2991486289
 30
0.0
 11
5973.2172630078
 21
7559.2991486289
 31
0.0
  0
LINE
  5
35E
330
1F
100
AcDbEntity
  8
0
  6
Continuous
 62
     8
370
    25
100
AcDbLine
 10
6008.2171104199
 20
7564.1736760833
 30
0.0
 11
5973.2172630078
 21
7564.1736760833
 31
0.0
  0
LINE
  5
35F
330
1F
100
AcDbEntity
  8
0
  6
Continuous
 62
     8
370
    25
100
AcDbLine
 10
6008.2171104199
 20
7483.1179753043
 30
0.0
 11
5973.2172630078
 21
7483.1179753043
 31
0.0
  0
LINE
  5
360
330
1F
100
AcDbEntity
  8
0
  6
Continuous
 62
     8
370
    25
100
AcDbLine
 10
4833.2171581037
 20
7483.1179753043
 30
0.0
 11
4813.2171771771
 21
7483.1179753043
 31
0.0
  0
LINE
  5
361
330
1F
100
AcDbEntity
  8
0
  6
Continuous
 62
     8
370
    25
100
AcDbLine
 10
3673.217072273
 20
7483.1179753043
 30
0.0
 11
3638.2172248609
 21
7483.1179753043
 31
0.0
  0
LINE
  5
362
330
1F
100
AcDbEntity
  8
0
  6
Continuous
 62
     8
370
    25
100
AcDbLine
 10
6008.2171104199
 20
7588.8374820449
 30
0.0
 11
5973.1171272046
 21
7588.8374820449
 31
0.0
  0
LINE
  5
363
330
1F
100
AcDbEntity
  8
0
  6
Continuous
 62
     8
370
    25
100
AcDbLine
 10
4833.3170554883
 20
7588.8374820449
 30
0.0
 11
4813.1170413739
 21
7588.8374820449
 31
0.0
  0
LINE
  5
364
330
1F
100
AcDbEntity
  8
0
  6
Continuous
 62
     8
370
    25
100
AcDbLine
 10
3673.3172080762
 20
7588.8374820449
 30
0.0
 11
3638.2172248609
 21
7588.8374820449
 31
0.0
  0
LINE
  5
365
330
1F
100
AcDbEntity
  8
0
  6
Continuous
 62
     8
370
    25
100
AcDbLine
 10
1303.317128802
 20
8409.6253886916
 30
0.0
 11
1268.2171306855
 21
8409.6253886916
 31
0.0
  0
LINE
  5
366
330
1F
100
AcDbEntity
  8
0
  6
Continuous
 62
     8
370
    25
100
AcDbLine
 10
1303.317128802
 20
8404.7508016326
 30
0.0
 11
1268.2171306855
 21
8404.7508016326
 31
0.0
  0
LINE
  5
367
330
1F
100
AcDbEntity
  8
0
  6
Continuous
 62
     8
370
    25
100
AcDbLine
 10
2463.3171103246
 20
8409.6253886916
 30
0.0
 11
2443.1171558148
 21
8409.6253886916
 31
0.0
  0
LINE
  5
368
330
1F
100
AcDbEntity
  8
0
  6
Continuous
 62
     8
370
    25
100
AcDbLine
 10
2463.3171103246
 20
8404.7508016326
 30
0.0
 11
2443.1171558148
 21
8404.7508016326
 31
0.0
  0
LINE
  5
369
330
1F
100
AcDbEntity
  8
0
  6
Continuous
 62
     8
370
    25
100
AcDbLine
 10
3638.2172248609
 20
8404.7508016326
 30
0.0
 11
3603.1172416455
 21
8404.7508016326
 31
0.0
  0
LINE
  5
36A
330
1F
100
AcDbEntity
  8
0
  6
Continuous
 62
     8
370
    25
100
AcDbLine
 10
3638.2172248609
 20
8409.6253886916
 30
0.0
 11
3603.1172416455
 21
8409.6253886916
 31
0.0
  0
LINE
  5
36B
330
1F
100
AcDbEntity
  8
0
  6
Continuous
 62
     8
370
    25
100
AcDbLine
 10
3638.2172248609
 20
8328.569628308
 30
0.0
 11
3603.2171390302
 21
8328.569628308
 31
0.0
  0
LINE
  5
36C
330
1F
100
AcDbEntity
  8
0
  6
Continuous
 62
     8
370
    25
100
AcDbLine
 10
2463.2171533353
 20
8328.569628308
 30
0.0
 11
2443.2171128041
 21
8328.569628308
 31
0.0
  0
LINE
  5
36D
330
1F
100
AcDbEntity
  8
0
  6
Continuous
 62
     8
370
    25
100
AcDbLine
 10
1303.2171271092
 20
8328.569628308
 30
0.0
 11
1268.2171306855
 21
8328.569628308
 31
0.0
  0
LINE
  5
36E
330
1F
100
AcDbEntity
  8
0
  6
Continuous
 62
     8
370
    25
100
AcDbLine
 10
3638.2172248609
 20
8434.2891946532
 30
0.0
 11
3603.1172416455
 21
8434.2891946532
 31
0.0
  0
LINE
  5
36F
330
1F
100
AcDbEntity
  8
0
  6
Continuous
 62
     8
370
    25
100
AcDbLine
 10
2463.3171103246
 20
8434.2891946532
 30
0.0
 11
2443.1171558148
 21
8434.2891946532
 31
0.0
  0
LINE
  5
370
330
1F
100
AcDbEntity
  8
0
  6
Continuous
 62
     8
370
    25
100
AcDbLine
 10
1303.317128802
 20
8434.2891946532
 30
0.0
 11
1268.2171306855
 21
8434.2891946532
 31
0.0
  0
LINE
  5
371
330
1F
100
AcDbEntity
  8
0
  6
Continuous
 62
     8
370
    25
100
AcDbLine
 10
5732.7172897107
 20
7314.6785870292
 30
0.0
 11
5732.7172897107
 21
7370.0180724361
 31
0.0
  0
LINE
  5
372
330
1F
100
AcDbEntity
  8
0
  6
Continuous
 62
     8
370
    25
100
AcDbLine
 10
5783.7169311292
 20
7314.6785870292
 30
0.0
 11
5783.7169311292
 21
7370.0180724361
 31
0.0
  0
LINE
  5
373
330
1F
100
AcDbEntity
  8
0
  6
Continuous
 62
     8
370
    25
100
AcDbLine
 10
1492.7171292997
 20
7314.6785870292
 30
0.0
 11
1492.7171292997
 21
7370.0180724361
 31
0.0
  0
LINE
  5
374
330
1F
100
AcDbEntity
  8
0
  6
Continuous
 62
     8
370
    25
100
AcDbLine
 10
1543.7171302087
 20
7314.6785870292
 30
0.0
 11
1543.7171302087
 21
7370.0180724361
 31
0.0
  0
LINE
  5
375
330
1F
100
AcDbEntity
  8
0
  6
Continuous
 62
     8
370
    25
100
AcDbLine
 10
3362.7171657331
 20
7314.6785870292
 30
0.0
 11
3362.7171657331
 21
7370.0180724361
 31
0.0
  0
LINE
  5
376
330
1F
100
AcDbEntity
  8
0
  6
Continuous
 62
     8
370
    25
100
AcDbLine
 10
3413.7171647794
 20
7314.6785870292
 30
0.0
 11
3413.7171647794
 21
7370.0180724361
 31
0.0
  0
LINE
  5
377
330
1F
100
AcDbEntity
  8
0
  6
Continuous
 62
     8
370
    25
100
AcDbLine
 10
5723.7169883496
 20
7193.9771995046
 30
0.0
 11
5723.7169883496
 21
5545.214988301
 31
0.0
  0
LINE
  5
378
330
1F
100
AcDbEntity
  8
0
  6
Continuous
 62
     8
370
    25
100
AcDbLine
 10
5672.7173469312
 20
7370.0180724361
 30
0.0
 11
5672.7173469312
 21
5545.214988301
 31
0.0
  0
LINE
  5
379
330
1F
100
AcDbEntity
  8
0
  6
Continuous
 62
     8
370
    25
100
AcDbLine
 10
1483.7171296871
 20
7193.9771995046
 30
0.0
 11
1483.7171296871
 21
5545.214988301
 31
0.0
  0
LINE
  5
37A
330
1F
100
AcDbEntity
  8
0
  6
Continuous
 62
     8
370
    25
100
AcDbLine
 10
1432.7171287782
 20
7370.0180724361
 30
0.0
 11
1432.7171287782
 21
5545.214988301
 31
0.0
  0
LINE
  5
37B
330
1F
100
AcDbEntity
  8
0
  6
Continuous
 62
     8
370
    25
100
AcDbLine
 10
3353.7171027905
 20
7193.9771995046
 30
0.0
 11
3353.7171027905
 21
5545.214988301
 31
0.0
  0
LINE
  5
37C
330
1F
100
AcDbEntity
  8
0
  6
Continuous
 62
     8
370
    25
100
AcDbLine
 10
3302.7171037442
 20
7370.0180724361
 30
0.0
 11
3302.7171037442
 21
5545.214988301
 31
0.0
  0
POINT
  5
37D
330
1F
100
AcDbEntity
  8
0
  6
Continuous
 62
     7
370
     0
100
AcDbPoint
 10
3328.2171294934
 20
5545.2149644592
 30
0.0
  0
POINT
  5
37E
330
1F
100
AcDbEntity
  8
0
  6
Continuous
 62
     7
370
     0
100
AcDbPoint
 10
1458.2171294934
 20
5545.2149644592
 30
0.0
  0
POINT
  5
37F
330
1F
100
AcDbEntity
  8
0
  6
Continuous
 62
     7
370
     0
100
AcDbPoint
 10
5698.2171294934
 20
5545.2149644591
 30
0.0
  0
DIMENSION
  5
380
330
1F
100
AcDbEntity
  8
0
  6
Continuous
 62
     7
370
    18
100
AcDbDimension
  2
_D_8
 10
3328.2171294935
 20
5295.2149644592
 30
0.0
 11
2357.2695023792
 21
5295.2149644592
 31
0.0
 70
   160
  1
<>
 71
     2
 42
-1.0
  3
SLDDIMSTYLE0
100
AcDbAlignedDimension
 13
1458.2171294935
 23
5545.2149644592
 33
0.0
 14
3328.2171294935
 24
5545.2149644592
 34
0.0
 50
0.0
100
AcDbRotatedDimension
  0
DIMENSION
  5
38A
330
1F
100
AcDbEntity
  8
0
  6
Continuous
 62
     7
370
    18
100
AcDbDimension
  2
_D_9
 10
5698.2171294935
 20
5295.2149644592
 30
0.0
 11
4522.4214369323
 21
5295.2149644592
 31
0.0
 70
   160
  1
<>
 71
     2
 42
-1.0
  3
SLDDIMSTYLE0
100
AcDbAlignedDimension
 13
3328.2171294935
 23
5545.2149644592
 33
0.0
 14
5698.2171294935
 24
5545.2149644592
 34
0.0
 50
0.0
100
AcDbRotatedDimension
  0
DIMENSION
  5
394
330
1F
100
AcDbEntity
  8
0
  6
Continuous
 62
     7
370
    18
100
AcDbDimension
  2
_D_10
 10
2443.2171294934
 20
8960.5384174095
 30
0.0
 11
1979.5920014258
 21
8960.5384174095
 31
0.0
 70
   160
  1
<>
 71
     2
 42
-1.0
  3
SLDDIMSTYLE0
100
AcDbAlignedDimension
 13
1303.2171294934
 23
8549.1681560381
 33
0.0
 14
2443.2171294934
 24
8549.1681560381
 34
0.0
 50
0.0
100
AcDbRotatedDimension
  0
LINE
  5
39E
330
1F
100
AcDbEntity
  8
0
  6
Continuous
 62
     7
370
    25
100
AcDbLine
 10
3603.1172416455
 20
2402.1135376305
 30
0.0
 11
3638.2172248609
 21
2402.1135376305
 31
0.0
  0
LINE
  5
39F
330
1F
100
AcDbEntity
  8
0
  6
Continuous
 62
     7
370
    25
100
AcDbLine
 10
1268.2171306855
 20
2402.1135376305
 30
0.0
 11
1303.317128802
 21
2402.1135376305
 31
0.0
  0
LINE
  5
3A0
330
1F
100
AcDbEntity
  8
0
  6
Continuous
 62
     7
370
    25
100
AcDbLine
 10
2443.1171558148
 20
2402.1135376305
 30
0.0
 11
2463.3171103246
 21
2402.1135376305
 31
0.0
  0
LINE
  5
3A1
330
1F
100
AcDbEntity
  8
0
  6
Continuous
 62
     7
370
    25
100
AcDbLine
 10
3638.2172248609
 20
2497.6796911568
 30
0.0
 11
3603.1172416455
 21
2497.6796911568
 31
0.0
  0
LINE
  5
3A2
330
1F
100
AcDbEntity
  8
0
  6
Continuous
 62
     7
370
    25
100
AcDbLine
 10
2463.3171103246
 20
2497.6796911568
 30
0.0
 11
2443.1171558148
 21
2497.6796911568
 31
0.0
  0
LINE
  5
3A3
330
1F
100
AcDbEntity
  8
0
  6
Continuous
 62
     7
370
    25
100
AcDbLine
 10
1303.317128802
 20
2497.6796911568
 30
0.0
 11
1268.2171306855
 21
2497.6796911568
 31
0.0
  0
LINE
  5
3A4
330
1F
100
AcDbEntity
  8
0
  6
Continuous
 62
     7
370
    25
100
AcDbLine
 10
5973.1171272046
 20
3609.5436619133
 30
0.0
 11
6008.2171104199
 21
3609.5436619133
 31
0.0
  0
LINE
  5
3A5
330
1F
100
AcDbEntity
  8
0
  6
Continuous
 62
     7
370
    25
100
AcDbLine
 10
3638.2172248609
 20
3609.5436619133
 30
0.0
 11
3673.3172080762
 21
3609.5436619133
 31
0.0
  0
LINE
  5
3A6
330
1F
100
AcDbEntity
  8
0
  6
Continuous
 62
     7
370
    25
100
AcDbLine
 10
4813.1170413739
 20
3609.5436619133
 30
0.0
 11
4833.3170554883
 21
3609.5436619133
 31
0.0
  0
LINE
  5
3A7
330
1F
100
AcDbEntity
  8
0
  6
Continuous
 62
     7
370
    25
100
AcDbLine
 10
6008.2171104199
 20
3705.1098154396
 30
0.0
 11
5973.1171272046
 21
3705.1098154396
 31
0.0
  0
LINE
  5
3A8
330
1F
100
AcDbEntity
  8
0
  6
Continuous
 62
     7
370
    25
100
AcDbLine
 10
4833.3170554883
 20
3705.1098154396
 30
0.0
 11
4813.1170413739
 21
3705.1098154396
 31
0.0
  0
LINE
  5
3A9
330
1F
100
AcDbEntity
  8
0
  6
Continuous
 62
     7
370
    25
100
AcDbLine
 10
3673.3172080762
 20
3705.1098154396
 30
0.0
 11
3638.2172248609
 21
3705.1098154396
 31
0.0
  0
LINE
  5
3AA
330
1F
100
AcDbEntity
  8
0
  6
Continuous
 62
     7
370
    25
100
AcDbLine
 10
5973.1171272046
 20
2402.1135376305
 30
0.0
 11
6008.2171104199
 21
2402.1135376305
 31
0.0
  0
LINE
  5
3AB
330
1F
100
AcDbEntity
  8
0
  6
Continuous
 62
     7
370
    25
100
AcDbLine
 10
3638.2172248609
 20
2402.1135376305
 30
0.0
 11
3673.3172080762
 21
2402.1135376305
 31
0.0
  0
LINE
  5
3AC
330
1F
100
AcDbEntity
  8
0
  6
Continuous
 62
     7
370
    25
100
AcDbLine
 10
4813.1170413739
 20
2402.1135376305
 30
0.0
 11
4833.3170554883
 21
2402.1135376305
 31
0.0
  0
LINE
  5
3AD
330
1F
100
AcDbEntity
  8
0
  6
Continuous
 62
     7
370
    25
100
AcDbLine
 10
6008.2171104199
 20
2497.6796911568
 30
0.0
 11
5973.1171272046
 21
2497.6796911568
 31
0.0
  0
LINE
  5
3AE
330
1F
100
AcDbEntity
  8
0
  6
Continuous
 62
     7
370
    25
100
AcDbLine
 10
4833.3170554883
 20
2497.6796911568
 30
0.0
 11
4813.1170413739
 21
2497.6796911568
 31
0.0
  0
LINE
  5
3AF
330
1F
100
AcDbEntity
  8
0
  6
Continuous
 62
     7
370
    25
100
AcDbLine
 10
3673.3172080762
 20
2497.6796911568
 30
0.0
 11
3638.2172248609
 21
2497.6796911568
 31
0.0
  0
LINE
  5
3B0
330
1F
100
AcDbEntity
  8
0
  6
Continuous
 62
     7
370
    25
100
AcDbLine
 10
3603.1172416455
 20
3609.5436619133
 30
0.0
 11
3638.2172248609
 21
3609.5436619133
 31
0.0
  0
LINE
  5
3B1
330
1F
100
AcDbEntity
  8
0
  6
Continuous
 62
     7
370
    25
100
AcDbLine
 10
1268.2171306855
 20
3609.5436619133
 30
0.0
 11
1303.317128802
 21
3609.5436619133
 31
0.0
  0
LINE
  5
3B2
330
1F
100
AcDbEntity
  8
0
  6
Continuous
 62
     7
370
    25
100
AcDbLine
 10
2443.1171558148
 20
3609.5436619133
 30
0.0
 11
2463.3171103246
 21
3609.5436619133
 31
0.0
  0
LINE
  5
3B3
330
1F
100
AcDbEntity
  8
0
  6
Continuous
 62
     7
370
    25
100
AcDbLine
 10
3638.2172248609
 20
3705.1098154396
 30
0.0
 11
3603.1172416455
 21
3705.1098154396
 31
0.0
  0
LINE
  5
3B4
330
1F
100
AcDbEntity
  8
0
  6
Continuous
 62
     7
370
    25
100
AcDbLine
 10
2463.3171103246
 20
3705.1098154396
 30
0.0
 11
2443.1171558148
 21
3705.1098154396
 31
0.0
  0
LINE
  5
3B5
330
1F
100
AcDbEntity
  8
0
  6
Continuous
 62
     7
370
    25
100
AcDbLine
 10
1303.317128802
 20
3705.1098154396
 30
0.0
 11
1268.2171306855
 21
3705.1098154396
 31
0.0
  0
LINE
  5
3B6
330
1F
100
AcDbEntity
  8
0
  6
Continuous
 62
     7
370
    25
100
AcDbLine
 10
4833.2171581037
 20
2103.3800052017
 30
0.0
 11
5973.2172630078
 21
2103.3800052017
 31
0.0
  0
LINE
  5
3B7
330
1F
100
AcDbEntity
  8
0
  6
Continuous
 62
     7
370
    25
100
AcDbLine
 10
4833.2171581037
 20
2336.8383453697
 30
0.0
 11
4833.2171581037
 21
2103.3800052017
 31
0.0
  0
LINE
  5
3B8
330
1F
100
AcDbEntity
  8
0
  6
Continuous
 62
     7
370
    25
100
AcDbLine
 10
4833.3170554883
 20
2336.8383453697
 30
0.0
 11
4833.2171581037
 21
2336.8383453697
 31
0.0
  0
LINE
  5
3B9
330
1F
100
AcDbEntity
  8
0
  6
Continuous
 62
     7
370
    25
100
AcDbLine
 10
4833.3170554883
 20
2336.8383453697
 30
0.0
 11
4833.3170554883
 21
2570.2966855377
 31
0.0
  0
LINE
  5
3BA
330
1F
100
AcDbEntity
  8
0
  6
Continuous
 62
     7
370
    25
100
AcDbLine
 10
4833.3170554883
 20
2570.2966855377
 30
0.0
 11
4833.2171581037
 21
2570.2966855377
 31
0.0
  0
LINE
  5
3BB
330
1F
100
AcDbEntity
  8
0
  6
Continuous
 62
     7
370
    25
100
AcDbLine
 10
4833.2171581037
 20
3504.1299866051
 30
0.0
 11
4833.2171581037
 21
2570.2966855377
 31
0.0
  0
LINE
  5
3BC
330
1F
100
AcDbEntity
  8
0
  6
Continuous
 62
     7
370
    25
100
AcDbLine
 10
4833.3170554883
 20
3504.1299866051
 30
0.0
 11
4833.2171581037
 21
3504.1299866051
 31
0.0
  0
LINE
  5
3BD
330
1F
100
AcDbEntity
  8
0
  6
Continuous
 62
     7
370
    25
100
AcDbLine
 10
4833.3170554883
 20
3504.1299866051
 30
0.0
 11
4833.3170554883
 21
3737.5883267731
 31
0.0
  0
LINE
  5
3BE
330
1F
100
AcDbEntity
  8
0
  6
Continuous
 62
     7
370
    25
100
AcDbLine
 10
4833.3170554883
 20
3737.5883267731
 30
0.0
 11
4833.2171581037
 21
3737.5883267731
 31
0.0
  0
LINE
  5
3BF
330
1F
100
AcDbEntity
  8
0
  6
Continuous
 62
     7
370
    25
100
AcDbLine
 10
4833.2171581037
 20
3971.0466669411
 30
0.0
 11
4833.2171581037
 21
3737.5883267731
 31
0.0
  0
LINE
  5
3C0
330
1F
100
AcDbEntity
  8
0
  6
Continuous
 62
     7
370
    25
100
AcDbLine
 10
5973.2172630078
 20
3971.0466669411
 30
0.0
 11
4833.2171581037
 21
3971.0466669411
 31
0.0
  0
LINE
  5
3C1
330
1F
100
AcDbEntity
  8
0
  6
Continuous
 62
     7
370
    25
100
AcDbLine
 10
5973.2172630078
 20
3737.5883267731
 30
0.0
 11
5973.2172630078
 21
3971.0466669411
 31
0.0
  0
LINE
  5
3C2
330
1F
100
AcDbEntity
  8
0
  6
Continuous
 62
     7
370
    25
100
AcDbLine
 10
5973.1171272046
 20
3737.5883267731
 30
0.0
 11
5973.2172630078
 21
3737.5883267731
 31
0.0
  0
LINE
  5
3C3
330
1F
100
AcDbEntity
  8
0
  6
Continuous
 62
     7
370
    25
100
AcDbLine
 10
5973.1171272046
 20
3504.1299866051
 30
0.0
 11
5973.1171272046
 21
3737.5883267731
 31
0.0
  0
LINE
  5
3C4
330
1F
100
AcDbEntity
  8
0
  6
Continuous
 62
     7
370
    25
100
AcDbLine
 10
5973.1171272046
 20
3504.1299866051
 30
0.0
 11
5973.2172630078
 21
3504.1299866051
 31
0.0
  0
LINE
  5
3C5
330
1F
100
AcDbEntity
  8
0
  6
Continuous
 62
     7
370
    25
100
AcDbLine
 10
5973.2172630078
 20
2570.2966855377
 30
0.0
 11
5973.2172630078
 21
3504.1299866051
 31
0.0
  0
LINE
  5
3C6
330
1F
100
AcDbEntity
  8
0
  6
Continuous
 62
     7
370
    25
100
AcDbLine
 10
5973.1171272046
 20
2570.2966855377
 30
0.0
 11
5973.2172630078
 21
2570.2966855377
 31
0.0
  0
LINE
  5
3C7
330
1F
100
AcDbEntity
  8
0
  6
Continuous
 62
     7
370
    25
100
AcDbLine
 10
5973.1171272046
 20
2336.8383453697
 30
0.0
 11
5973.1171272046
 21
2570.2966855377
 31
0.0
  0
LINE
  5
3C8
330
1F
100
AcDbEntity
  8
0
  6
Continuous
 62
     7
370
    25
100
AcDbLine
 10
5973.1171272046
 20
2336.8383453697
 30
0.0
 11
5973.2172630078
 21
2336.8383453697
 31
0.0
  0
LINE
  5
3C9
330
1F
100
AcDbEntity
  8
0
  6
Continuous
 62
     7
370
    25
100
AcDbLine
 10
5973.2172630078
 20
2103.3800052017
 30
0.0
 11
5973.2172630078
 21
2336.8383453697
 31
0.0
  0
LINE
  5
3CA
330
1F
100
AcDbEntity
  8
0
  6
Continuous
 62
     7
370
    25
100
AcDbLine
 10
4842.2172210462
 20
3963.6742876381
 30
0.0
 11
5964.2169616467
 21
3963.6742876381
 31
0.0
  0
LINE
  5
3CB
330
1F
100
AcDbEntity
  8
0
  6
Continuous
 62
     7
370
    25
100
AcDbLine
 10
4842.2172210462
 20
2110.7523845047
 30
0.0
 11
4842.2172210462
 21
3963.6742876381
 31
0.0
  0
LINE
  5
3CC
330
1F
100
AcDbEntity
  8
0
  6
Continuous
 62
     7
370
    25
100
AcDbLine
 10
5964.2169616467
 20
2110.7523845047
 30
0.0
 11
4842.2172210462
 21
2110.7523845047
 31
0.0
  0
LINE
  5
3CD
330
1F
100
AcDbEntity
  8
0
  6
Continuous
 62
     7
370
    25
100
AcDbLine
 10
5964.2169616467
 20
3963.6742876381
 30
0.0
 11
5964.2169616467
 21
2110.7523845047
 31
0.0
  0
LINE
  5
3CE
330
1F
100
AcDbEntity
  8
0
  6
Continuous
 62
     7
370
    25
100
AcDbLine
 10
4833.2171581037
 20
3993.989686808
 30
0.0
 11
4833.2171581037
 21
3971.0466669411
 31
0.0
  0
LINE
  5
3CF
330
1F
100
AcDbEntity
  8
0
  6
Continuous
 62
     7
370
    25
100
AcDbLine
 10
5973.2172630078
 20
3993.989686808
 30
0.0
 11
4833.2171581037
 21
3993.989686808
 31
0.0
  0
LINE
  5
3D0
330
1F
100
AcDbEntity
  8
0
  6
Continuous
 62
     7
370
    25
100
AcDbLine
 10
5973.2172630078
 20
3993.989686808
 30
0.0
 11
5973.2172630078
 21
3971.0466669411
 31
0.0
  0
LINE
  5
3D1
330
1F
100
AcDbEntity
  8
0
  6
Continuous
 62
     7
370
    25
100
AcDbLine
 10
5963.217034126
 20
3963.1863044113
 30
0.0
 11
4843.2171485669
 21
3963.1863044113
 31
0.0
  0
LINE
  5
3D2
330
1F
100
AcDbEntity
  8
0
  6
Continuous
 62
     7
370
    25
100
AcDbLine
 10
4843.2171485669
 20
3963.1863044113
 30
0.0
 11
4842.2172210462
 21
3963.6742876381
 31
0.0
  0
LINE
  5
3D3
330
1F
100
AcDbEntity
  8
0
  6
Continuous
 62
     7
370
    25
100
AcDbLine
 10
5964.2169616467
 20
3963.6742876381
 30
0.0
 11
5963.217034126
 21
3963.1863044113
 31
0.0
  0
LINE
  5
3D4
330
1F
100
AcDbEntity
  8
0
  6
Continuous
 62
     7
370
    25
100
AcDbLine
 10
4843.2171485669
 20
3963.1863044113
 30
0.0
 11
4843.2171485669
 21
2111.9026349396
 31
0.0
  0
LINE
  5
3D5
330
1F
100
AcDbEntity
  8
0
  6
Continuous
 62
     7
370
    25
100
AcDbLine
 10
4843.2171485669
 20
2111.9026349396
 30
0.0
 11
4842.2172210462
 21
2110.7523845047
 31
0.0
  0
LINE
  5
3D6
330
1F
100
AcDbEntity
  8
0
  6
Continuous
 62
     7
370
    25
100
AcDbLine
 10
5964.2169616467
 20
2110.7523845047
 30
0.0
 11
5963.217034126
 21
2111.9026349396
 31
0.0
  0
LINE
  5
3D7
330
1F
100
AcDbEntity
  8
0
  6
Continuous
 62
     7
370
    25
100
AcDbLine
 10
5963.217034126
 20
2111.9026349396
 30
0.0
 11
5963.217034126
 21
3963.1863044113
 31
0.0
  0
LINE
  5
3D8
330
1F
100
AcDbEntity
  8
0
  6
Continuous
 62
     7
370
    25
100
AcDbLine
 10
4843.2171485669
 20
2112.4319241852
 30
0.0
 11
5963.217034126
 21
2112.4319241852
 31
0.0
  0
LINE
  5
3D9
330
1F
100
AcDbEntity
  8
0
  6
Continuous
 62
     7
370
    25
100
AcDbLine
 10
4833.2171581037
 20
3527.0730362743
 30
0.0
 11
4833.2171581037
 21
3504.1299866051
 31
0.0
  0
LINE
  5
3DA
330
1F
100
AcDbEntity
  8
0
  6
Continuous
 62
     7
370
    25
100
AcDbLine
 10
4833.3170554883
 20
3527.0730362743
 30
0.0
 11
4833.2171581037
 21
3527.0730362743
 31
0.0
  0
LINE
  5
3DB
330
1F
100
AcDbEntity
  8
0
  6
Continuous
 62
     7
370
    25
100
AcDbLine
 10
5973.2172630078
 20
3527.0730362743
 30
0.0
 11
5973.2172630078
 21
3504.1299866051
 31
0.0
  0
LINE
  5
3DC
330
1F
100
AcDbEntity
  8
0
  6
Continuous
 62
     7
370
    25
100
AcDbLine
 10
5973.1171272046
 20
3527.0730362743
 30
0.0
 11
5973.2172630078
 21
3527.0730362743
 31
0.0
  0
LINE
  5
3DD
330
1F
100
AcDbEntity
  8
0
  6
Continuous
 62
     7
370
    25
100
AcDbLine
 10
4833.2171581037
 20
2359.7813652367
 30
0.0
 11
4833.2171581037
 21
2336.8383453697
 31
0.0
  0
LINE
  5
3DE
330
1F
100
AcDbEntity
  8
0
  6
Continuous
 62
     7
370
    25
100
AcDbLine
 10
4833.3170554883
 20
2359.7813652367
 30
0.0
 11
4833.2171581037
 21
2359.7813652367
 31
0.0
  0
LINE
  5
3DF
330
1F
100
AcDbEntity
  8
0
  6
Continuous
 62
     7
370
    25
100
AcDbLine
 10
5973.2172630078
 20
2359.7813652367
 30
0.0
 11
5973.2172630078
 21
2336.8383453697
 31
0.0
  0
LINE
  5
3E0
330
1F
100
AcDbEntity
  8
0
  6
Continuous
 62
     7
370
    25
100
AcDbLine
 10
5973.1171272046
 20
2359.7813652367
 30
0.0
 11
5973.2172630078
 21
2359.7813652367
 31
0.0
  0
LINE
  5
3E1
330
1F
100
AcDbEntity
  8
0
  6
Continuous
 62
     7
370
    25
100
AcDbLine
 10
4843.2171485669
 20
2111.9026349396
 30
0.0
 11
5963.217034126
 21
2111.9026349396
 31
0.0
  0
LINE
  5
3E2
330
1F
100
AcDbEntity
  8
0
  6
Continuous
 62
     7
370
    25
100
AcDbLine
 10
1303.2171271092
 20
2103.3800052017
 30
0.0
 11
2443.2171128041
 21
2103.3800052017
 31
0.0
  0
LINE
  5
3E3
330
1F
100
AcDbEntity
  8
0
  6
Continuous
 62
     7
370
    25
100
AcDbLine
 10
1303.2171271092
 20
2336.8383453697
 30
0.0
 11
1303.2171271092
 21
2103.3800052017
 31
0.0
  0
LINE
  5
3E4
330
1F
100
AcDbEntity
  8
0
  6
Continuous
 62
     7
370
    25
100
AcDbLine
 10
1303.317128802
 20
2336.8383453697
 30
0.0
 11
1303.2171271092
 21
2336.8383453697
 31
0.0
  0
LINE
  5
3E5
330
1F
100
AcDbEntity
  8
0
  6
Continuous
 62
     7
370
    25
100
AcDbLine
 10
1303.317128802
 20
2336.8383453697
 30
0.0
 11
1303.317128802
 21
2570.2966855377
 31
0.0
  0
LINE
  5
3E6
330
1F
100
AcDbEntity
  8
0
  6
Continuous
 62
     7
370
    25
100
AcDbLine
 10
1303.317128802
 20
2570.2966855377
 30
0.0
 11
1303.2171271092
 21
2570.2966855377
 31
0.0
  0
LINE
  5
3E7
330
1F
100
AcDbEntity
  8
0
  6
Continuous
 62
     7
370
    25
100
AcDbLine
 10
1303.2171271092
 20
3504.1299866051
 30
0.0
 11
1303.2171271092
 21
2570.2966855377
 31
0.0
  0
LINE
  5
3E8
330
1F
100
AcDbEntity
  8
0
  6
Continuous
 62
     7
370
    25
100
AcDbLine
 10
1303.317128802
 20
3504.1299866051
 30
0.0
 11
1303.2171271092
 21
3504.1299866051
 31
0.0
  0
LINE
  5
3E9
330
1F
100
AcDbEntity
  8
0
  6
Continuous
 62
     7
370
    25
100
AcDbLine
 10
1303.317128802
 20
3504.1299866051
 30
0.0
 11
1303.317128802
 21
3737.5883267731
 31
0.0
  0
LINE
  5
3EA
330
1F
100
AcDbEntity
  8
0
  6
Continuous
 62
     7
370
    25
100
AcDbLine
 10
1303.317128802
 20
3737.5883267731
 30
0.0
 11
1303.2171271092
 21
3737.5883267731
 31
0.0
  0
LINE
  5
3EB
330
1F
100
AcDbEntity
  8
0
  6
Continuous
 62
     7
370
    25
100
AcDbLine
 10
1303.2171271092
 20
3971.0466669411
 30
0.0
 11
1303.2171271092
 21
3737.5883267731
 31
0.0
  0
LINE
  5
3EC
330
1F
100
AcDbEntity
  8
0
  6
Continuous
 62
     7
370
    25
100
AcDbLine
 10
2443.2171128041
 20
3971.0466669411
 30
0.0
 11
1303.2171271092
 21
3971.0466669411
 31
0.0
  0
LINE
  5
3ED
330
1F
100
AcDbEntity
  8
0
  6
Continuous
 62
     7
370
    25
100
AcDbLine
 10
2443.2171128041
 20
3737.5883267731
 30
0.0
 11
2443.2171128041
 21
3971.0466669411
 31
0.0
  0
LINE
  5
3EE
330
1F
100
AcDbEntity
  8
0
  6
Continuous
 62
     7
370
    25
100
AcDbLine
 10
2443.1171558148
 20
3737.5883267731
 30
0.0
 11
2443.2171128041
 21
3737.5883267731
 31
0.0
  0
LINE
  5
3EF
330
1F
100
AcDbEntity
  8
0
  6
Continuous
 62
     7
370
    25
100
AcDbLine
 10
2443.1171558148
 20
3504.1299866051
 30
0.0
 11
2443.1171558148
 21
3737.5883267731
 31
0.0
  0
LINE
  5
3F0
330
1F
100
AcDbEntity
  8
0
  6
Continuous
 62
     7
370
    25
100
AcDbLine
 10
2443.1171558148
 20
3504.1299866051
 30
0.0
 11
2443.2171128041
 21
3504.1299866051
 31
0.0
  0
LINE
  5
3F1
330
1F
100
AcDbEntity
  8
0
  6
Continuous
 62
     7
370
    25
100
AcDbLine
 10
2443.2171128041
 20
2570.2966855377
 30
0.0
 11
2443.2171128041
 21
3504.1299866051
 31
0.0
  0
LINE
  5
3F2
330
1F
100
AcDbEntity
  8
0
  6
Continuous
 62
     7
370
    25
100
AcDbLine
 10
2443.1171558148
 20
2570.2966855377
 30
0.0
 11
2443.2171128041
 21
2570.2966855377
 31
0.0
  0
LINE
  5
3F3
330
1F
100
AcDbEntity
  8
0
  6
Continuous
 62
     7
370
    25
100
AcDbLine
 10
2443.1171558148
 20
2336.8383453697
 30
0.0
 11
2443.1171558148
 21
2570.2966855377
 31
0.0
  0
LINE
  5
3F4
330
1F
100
AcDbEntity
  8
0
  6
Continuous
 62
     7
370
    25
100
AcDbLine
 10
2443.1171558148
 20
2336.8383453697
 30
0.0
 11
2443.2171128041
 21
2336.8383453697
 31
0.0
  0
LINE
  5
3F5
330
1F
100
AcDbEntity
  8
0
  6
Continuous
 62
     7
370
    25
100
AcDbLine
 10
2443.2171128041
 20
2103.3800052017
 30
0.0
 11
2443.2171128041
 21
2336.8383453697
 31
0.0
  0
LINE
  5
3F6
330
1F
100
AcDbEntity
  8
0
  6
Continuous
 62
     7
370
    25
100
AcDbLine
 10
1312.2171304471
 20
3963.6742876381
 30
0.0
 11
2434.2171094663
 21
3963.6742876381
 31
0.0
  0
LINE
  5
3F7
330
1F
100
AcDbEntity
  8
0
  6
Continuous
 62
     7
370
    25
100
AcDbLine
 10
1312.2171304471
 20
2110.7523845047
 30
0.0
 11
1312.2171304471
 21
3963.6742876381
 31
0.0
  0
LINE
  5
3F8
330
1F
100
AcDbEntity
  8
0
  6
Continuous
 62
     7
370
    25
100
AcDbLine
 10
2434.2171094663
 20
2110.7523845047
 30
0.0
 11
1312.2171304471
 21
2110.7523845047
 31
0.0
  0
LINE
  5
3F9
330
1F
100
AcDbEntity
  8
0
  6
Continuous
 62
     7
370
    25
100
AcDbLine
 10
2434.2171094663
 20
3963.6742876381
 30
0.0
 11
2434.2171094663
 21
2110.7523845047
 31
0.0
  0
LINE
  5
3FA
330
1F
100
AcDbEntity
  8
0
  6
Continuous
 62
     7
370
    25
100
AcDbLine
 10
1303.2171271092
 20
3993.989686808
 30
0.0
 11
1303.2171271092
 21
3971.0466669411
 31
0.0
  0
LINE
  5
3FB
330
1F
100
AcDbEntity
  8
0
  6
Continuous
 62
     7
370
    25
100
AcDbLine
 10
2443.2171128041
 20
3993.989686808
 30
0.0
 11
1303.2171271092
 21
3993.989686808
 31
0.0
  0
LINE
  5
3FC
330
1F
100
AcDbEntity
  8
0
  6
Continuous
 62
     7
370
    25
100
AcDbLine
 10
2443.2171128041
 20
3993.989686808
 30
0.0
 11
2443.2171128041
 21
3971.0466669411
 31
0.0
  0
LINE
  5
3FD
330
1F
100
AcDbEntity
  8
0
  6
Continuous
 62
     7
370
    25
100
AcDbLine
 10
2433.2171223409
 20
3963.1863044113
 30
0.0
 11
1313.2171324737
 21
3963.1863044113
 31
0.0
  0
LINE
  5
3FE
330
1F
100
AcDbEntity
  8
0
  6
Continuous
 62
     7
370
    25
100
AcDbLine
 10
1313.2171324737
 20
3963.1863044113
 30
0.0
 11
1312.2171304471
 21
3963.6742876381
 31
0.0
  0
LINE
  5
3FF
330
1F
100
AcDbEntity
  8
0
  6
Continuous
 62
     7
370
    25
100
AcDbLine
 10
2434.2171094663
 20
3963.6742876381
 30
0.0
 11
2433.2171223409
 21
3963.1863044113
 31
0.0
  0
LINE
  5
400
330
1F
100
AcDbEntity
  8
0
  6
Continuous
 62
     7
370
    25
100
AcDbLine
 10
1313.2171324737
 20
3963.1863044113
 30
0.0
 11
1313.2171324737
 21
2111.9026349396
 31
0.0
  0
LINE
  5
401
330
1F
100
AcDbEntity
  8
0
  6
Continuous
 62
     7
370
    25
100
AcDbLine
 10
1313.2171324737
 20
2111.9026349396
 30
0.0
 11
1312.2171304471
 21
2110.7523845047
 31
0.0
  0
LINE
  5
402
330
1F
100
AcDbEntity
  8
0
  6
Continuous
 62
     7
370
    25
100
AcDbLine
 10
2434.2171094663
 20
2110.7523845047
 30
0.0
 11
2433.2171223409
 21
2111.9026349396
 31
0.0
  0
LINE
  5
403
330
1F
100
AcDbEntity
  8
0
  6
Continuous
 62
     7
370
    25
100
AcDbLine
 10
2433.2171223409
 20
2111.9026349396
 30
0.0
 11
2433.2171223409
 21
3963.1863044113
 31
0.0
  0
LINE
  5
404
330
1F
100
AcDbEntity
  8
0
  6
Continuous
 62
     7
370
    25
100
AcDbLine
 10
1313.2171324737
 20
2112.4319241852
 30
0.0
 11
2433.2171223409
 21
2112.4319241852
 31
0.0
  0
LINE
  5
405
330
1F
100
AcDbEntity
  8
0
  6
Continuous
 62
     7
370
    25
100
AcDbLine
 10
1303.2171271092
 20
3527.0730362743
 30
0.0
 11
1303.2171271092
 21
3504.1299866051
 31
0.0
  0
LINE
  5
406
330
1F
100
AcDbEntity
  8
0
  6
Continuous
 62
     7
370
    25
100
AcDbLine
 10
1303.317128802
 20
3527.0730362743
 30
0.0
 11
1303.2171271092
 21
3527.0730362743
 31
0.0
  0
LINE
  5
407
330
1F
100
AcDbEntity
  8
0
  6
Continuous
 62
     7
370
    25
100
AcDbLine
 10
2443.2171128041
 20
3527.0730362743
 30
0.0
 11
2443.2171128041
 21
3504.1299866051
 31
0.0
  0
LINE
  5
408
330
1F
100
AcDbEntity
  8
0
  6
Continuous
 62
     7
370
    25
100
AcDbLine
 10
2443.1171558148
 20
3527.0730362743
 30
0.0
 11
2443.2171128041
 21
3527.0730362743
 31
0.0
  0
LINE
  5
409
330
1F
100
AcDbEntity
  8
0
  6
Continuous
 62
     7
370
    25
100
AcDbLine
 10
1303.2171271092
 20
2359.7813652367
 30
0.0
 11
1303.2171271092
 21
2336.8383453697
 31
0.0
  0
LINE
  5
40A
330
1F
100
AcDbEntity
  8
0
  6
Continuous
 62
     7
370
    25
100
AcDbLine
 10
1303.317128802
 20
2359.7813652367
 30
0.0
 11
1303.2171271092
 21
2359.7813652367
 31
0.0
  0
LINE
  5
40B
330
1F
100
AcDbEntity
  8
0
  6
Continuous
 62
     7
370
    25
100
AcDbLine
 10
2443.2171128041
 20
2359.7813652367
 30
0.0
 11
2443.2171128041
 21
2336.8383453697
 31
0.0
  0
LINE
  5
40C
330
1F
100
AcDbEntity
  8
0
  6
Continuous
 62
     7
370
    25
100
AcDbLine
 10
2443.1171558148
 20
2359.7813652367
 30
0.0
 11
2443.2171128041
 21
2359.7813652367
 31
0.0
  0
LINE
  5
40D
330
1F
100
AcDbEntity
  8
0
  6
Continuous
 62
     7
370
    25
100
AcDbLine
 10
1313.2171324737
 20
2111.9026349396
 30
0.0
 11
2433.2171223409
 21
2111.9026349396
 31
0.0
  0
LINE
  5
40E
330
1F
100
AcDbEntity
  8
0
  6
Continuous
 62
     7
370
    25
100
AcDbLine
 10
2463.2171533353
 20
2103.3800052017
 30
0.0
 11
3603.2171390302
 21
2103.3800052017
 31
0.0
  0
LINE
  5
40F
330
1F
100
AcDbEntity
  8
0
  6
Continuous
 62
     7
370
    25
100
AcDbLine
 10
2463.2171533353
 20
2336.8383453697
 30
0.0
 11
2463.2171533353
 21
2103.3800052017
 31
0.0
  0
LINE
  5
410
330
1F
100
AcDbEntity
  8
0
  6
Continuous
 62
     7
370
    25
100
AcDbLine
 10
2463.3171103246
 20
2336.8383453697
 30
0.0
 11
2463.2171533353
 21
2336.8383453697
 31
0.0
  0
LINE
  5
411
330
1F
100
AcDbEntity
  8
0
  6
Continuous
 62
     7
370
    25
100
AcDbLine
 10
2463.3171103246
 20
2336.8383453697
 30
0.0
 11
2463.3171103246
 21
2570.2966855377
 31
0.0
  0
LINE
  5
412
330
1F
100
AcDbEntity
  8
0
  6
Continuous
 62
     7
370
    25
100
AcDbLine
 10
2463.3171103246
 20
2570.2966855377
 30
0.0
 11
2463.2171533353
 21
2570.2966855377
 31
0.0
  0
LINE
  5
413
330
1F
100
AcDbEntity
  8
0
  6
Continuous
 62
     7
370
    25
100
AcDbLine
 10
2463.2171533353
 20
3504.1299866051
 30
0.0
 11
2463.2171533353
 21
2570.2966855377
 31
0.0
  0
LINE
  5
414
330
1F
100
AcDbEntity
  8
0
  6
Continuous
 62
     7
370
    25
100
AcDbLine
 10
2463.3171103246
 20
3504.1299866051
 30
0.0
 11
2463.2171533353
 21
3504.1299866051
 31
0.0
  0
LINE
  5
415
330
1F
100
AcDbEntity
  8
0
  6
Continuous
 62
     7
370
    25
100
AcDbLine
 10
2463.3171103246
 20
3504.1299866051
 30
0.0
 11
2463.3171103246
 21
3737.5883267731
 31
0.0
  0
LINE
  5
416
330
1F
100
AcDbEntity
  8
0
  6
Continuous
 62
     7
370
    25
100
AcDbLine
 10
2463.3171103246
 20
3737.5883267731
 30
0.0
 11
2463.2171533353
 21
3737.5883267731
 31
0.0
  0
LINE
  5
417
330
1F
100
AcDbEntity
  8
0
  6
Continuous
 62
     7
370
    25
100
AcDbLine
 10
2463.2171533353
 20
3971.0466669411
 30
0.0
 11
2463.2171533353
 21
3737.5883267731
 31
0.0
  0
LINE
  5
418
330
1F
100
AcDbEntity
  8
0
  6
Continuous
 62
     7
370
    25
100
AcDbLine
 10
3603.2171390302
 20
3971.0466669411
 30
0.0
 11
2463.2171533353
 21
3971.0466669411
 31
0.0
  0
LINE
  5
419
330
1F
100
AcDbEntity
  8
0
  6
Continuous
 62
     7
370
    25
100
AcDbLine
 10
3603.2171390302
 20
3737.5883267731
 30
0.0
 11
3603.2171390302
 21
3971.0466669411
 31
0.0
  0
LINE
  5
41A
330
1F
100
AcDbEntity
  8
0
  6
Continuous
 62
     7
370
    25
100
AcDbLine
 10
3603.1172416455
 20
3737.5883267731
 30
0.0
 11
3603.2171390302
 21
3737.5883267731
 31
0.0
  0
LINE
  5
41B
330
1F
100
AcDbEntity
  8
0
  6
Continuous
 62
     7
370
    25
100
AcDbLine
 10
3603.1172416455
 20
3504.1299866051
 30
0.0
 11
3603.1172416455
 21
3737.5883267731
 31
0.0
  0
LINE
  5
41C
330
1F
100
AcDbEntity
  8
0
  6
Continuous
 62
     7
370
    25
100
AcDbLine
 10
3603.1172416455
 20
3504.1299866051
 30
0.0
 11
3603.2171390302
 21
3504.1299866051
 31
0.0
  0
LINE
  5
41D
330
1F
100
AcDbEntity
  8
0
  6
Continuous
 62
     7
370
    25
100
AcDbLine
 10
3603.2171390302
 20
2570.2966855377
 30
0.0
 11
3603.2171390302
 21
3504.1299866051
 31
0.0
  0
LINE
  5
41E
330
1F
100
AcDbEntity
  8
0
  6
Continuous
 62
     7
370
    25
100
AcDbLine
 10
3603.1172416455
 20
2570.2966855377
 30
0.0
 11
3603.2171390302
 21
2570.2966855377
 31
0.0
  0
LINE
  5
41F
330
1F
100
AcDbEntity
  8
0
  6
Continuous
 62
     7
370
    25
100
AcDbLine
 10
3603.1172416455
 20
2336.8383453697
 30
0.0
 11
3603.1172416455
 21
2570.2966855377
 31
0.0
  0
LINE
  5
420
330
1F
100
AcDbEntity
  8
0
  6
Continuous
 62
     7
370
    25
100
AcDbLine
 10
3603.1172416455
 20
2336.8383453697
 30
0.0
 11
3603.2171390302
 21
2336.8383453697
 31
0.0
  0
LINE
  5
421
330
1F
100
AcDbEntity
  8
0
  6
Continuous
 62
     7
370
    25
100
AcDbLine
 10
3603.2171390302
 20
2103.3800052017
 30
0.0
 11
3603.2171390302
 21
2336.8383453697
 31
0.0
  0
LINE
  5
422
330
1F
100
AcDbEntity
  8
0
  6
Continuous
 62
     7
370
    25
100
AcDbLine
 10
2472.2171566731
 20
3963.6742876381
 30
0.0
 11
3594.2170760877
 21
3963.6742876381
 31
0.0
  0
LINE
  5
423
330
1F
100
AcDbEntity
  8
0
  6
Continuous
 62
     7
370
    25
100
AcDbLine
 10
2472.2171566731
 20
2110.7523845047
 30
0.0
 11
2472.2171566731
 21
3963.6742876381
 31
0.0
  0
LINE
  5
424
330
1F
100
AcDbEntity
  8
0
  6
Continuous
 62
     7
370
    25
100
AcDbLine
 10
3594.2170760877
 20
2110.7523845047
 30
0.0
 11
2472.2171566731
 21
2110.7523845047
 31
0.0
  0
LINE
  5
425
330
1F
100
AcDbEntity
  8
0
  6
Continuous
 62
     7
370
    25
100
AcDbLine
 10
3594.2170760877
 20
3963.6742876381
 30
0.0
 11
3594.2170760877
 21
2110.7523845047
 31
0.0
  0
LINE
  5
426
330
1F
100
AcDbEntity
  8
0
  6
Continuous
 62
     7
370
    25
100
AcDbLine
 10
2463.2171533353
 20
3993.989686808
 30
0.0
 11
2463.2171533353
 21
3971.0466669411
 31
0.0
  0
LINE
  5
427
330
1F
100
AcDbEntity
  8
0
  6
Continuous
 62
     7
370
    25
100
AcDbLine
 10
3603.2171390302
 20
3993.989686808
 30
0.0
 11
2463.2171533353
 21
3993.989686808
 31
0.0
  0
LINE
  5
428
330
1F
100
AcDbEntity
  8
0
  6
Continuous
 62
     7
370
    25
100
AcDbLine
 10
3603.2171390302
 20
3993.989686808
 30
0.0
 11
3603.2171390302
 21
3971.0466669411
 31
0.0
  0
LINE
  5
429
330
1F
100
AcDbEntity
  8
0
  6
Continuous
 62
     7
370
    25
100
AcDbLine
 10
3593.2171485669
 20
3963.1863044113
 30
0.0
 11
2473.2171437985
 21
3963.1863044113
 31
0.0
  0
LINE
  5
42A
330
1F
100
AcDbEntity
  8
0
  6
Continuous
 62
     7
370
    25
100
AcDbLine
 10
2473.2171437985
 20
3963.1863044113
 30
0.0
 11
2472.2171566731
 21
3963.6742876381
 31
0.0
  0
LINE
  5
42B
330
1F
100
AcDbEntity
  8
0
  6
Continuous
 62
     7
370
    25
100
AcDbLine
 10
3594.2170760877
 20
3963.6742876381
 30
0.0
 11
3593.2171485669
 21
3963.1863044113
 31
0.0
  0
LINE
  5
42C
330
1F
100
AcDbEntity
  8
0
  6
Continuous
 62
     7
370
    25
100
AcDbLine
 10
2473.2171437985
 20
3963.1863044113
 30
0.0
 11
2473.2171437985
 21
2111.9026349396
 31
0.0
  0
LINE
  5
42D
330
1F
100
AcDbEntity
  8
0
  6
Continuous
 62
     7
370
    25
100
AcDbLine
 10
2473.2171437985
 20
2111.9026349396
 30
0.0
 11
2472.2171566731
 21
2110.7523845047
 31
0.0
  0
LINE
  5
42E
330
1F
100
AcDbEntity
  8
0
  6
Continuous
 62
     7
370
    25
100
AcDbLine
 10
3594.2170760877
 20
2110.7523845047
 30
0.0
 11
3593.2171485669
 21
2111.9026349396
 31
0.0
  0
LINE
  5
42F
330
1F
100
AcDbEntity
  8
0
  6
Continuous
 62
     7
370
    25
100
AcDbLine
 10
3593.2171485669
 20
2111.9026349396
 30
0.0
 11
3593.2171485669
 21
3963.1863044113
 31
0.0
  0
LINE
  5
430
330
1F
100
AcDbEntity
  8
0
  6
Continuous
 62
     7
370
    25
100
AcDbLine
 10
2473.2171437985
 20
2112.4319241852
 30
0.0
 11
3593.2171485669
 21
2112.4319241852
 31
0.0
  0
LINE
  5
431
330
1F
100
AcDbEntity
  8
0
  6
Continuous
 62
     7
370
    25
100
AcDbLine
 10
2463.2171533353
 20
3527.0730362743
 30
0.0
 11
2463.2171533353
 21
3504.1299866051
 31
0.0
  0
LINE
  5
432
330
1F
100
AcDbEntity
  8
0
  6
Continuous
 62
     7
370
    25
100
AcDbLine
 10
2463.3171103246
 20
3527.0730362743
 30
0.0
 11
2463.2171533353
 21
3527.0730362743
 31
0.0
  0
LINE
  5
433
330
1F
100
AcDbEntity
  8
0
  6
Continuous
 62
     7
370
    25
100
AcDbLine
 10
3603.2171390302
 20
3527.0730362743
 30
0.0
 11
3603.2171390302
 21
3504.1299866051
 31
0.0
  0
LINE
  5
434
330
1F
100
AcDbEntity
  8
0
  6
Continuous
 62
     7
370
    25
100
AcDbLine
 10
3603.1172416455
 20
3527.0730362743
 30
0.0
 11
3603.2171390302
 21
3527.0730362743
 31
0.0
  0
LINE
  5
435
330
1F
100
AcDbEntity
  8
0
  6
Continuous
 62
     7
370
    25
100
AcDbLine
 10
2463.2171533353
 20
2359.7813652367
 30
0.0
 11
2463.2171533353
 21
2336.8383453697
 31
0.0
  0
LINE
  5
436
330
1F
100
AcDbEntity
  8
0
  6
Continuous
 62
     7
370
    25
100
AcDbLine
 10
2463.3171103246
 20
2359.7813652367
 30
0.0
 11
2463.2171533353
 21
2359.7813652367
 31
0.0
  0
LINE
  5
437
330
1F
100
AcDbEntity
  8
0
  6
Continuous
 62
     7
370
    25
100
AcDbLine
 10
3603.2171390302
 20
2359.7813652367
 30
0.0
 11
3603.2171390302
 21
2336.8383453697
 31
0.0
  0
LINE
  5
438
330
1F
100
AcDbEntity
  8
0
  6
Continuous
 62
     7
370
    25
100
AcDbLine
 10
3603.1172416455
 20
2359.7813652367
 30
0.0
 11
3603.2171390302
 21
2359.7813652367
 31
0.0
  0
LINE
  5
439
330
1F
100
AcDbEntity
  8
0
  6
Continuous
 62
     7
370
    25
100
AcDbLine
 10
2473.2171437985
 20
2111.9026349396
 30
0.0
 11
3593.2171485669
 21
2111.9026349396
 31
0.0
  0
LINE
  5
43A
330
1F
100
AcDbEntity
  8
0
  6
Continuous
 62
     7
370
    25
100
AcDbLine
 10
3673.217072273
 20
2103.3800052017
 30
0.0
 11
4813.2171771771
 21
2103.3800052017
 31
0.0
  0
LINE
  5
43B
330
1F
100
AcDbEntity
  8
0
  6
Continuous
 62
     7
370
    25
100
AcDbLine
 10
3673.217072273
 20
2336.8383453697
 30
0.0
 11
3673.217072273
 21
2103.3800052017
 31
0.0
  0
LINE
  5
43C
330
1F
100
AcDbEntity
  8
0
  6
Continuous
 62
     7
370
    25
100
AcDbLine
 10
3673.3172080762
 20
2336.8383453697
 30
0.0
 11
3673.217072273
 21
2336.8383453697
 31
0.0
  0
LINE
  5
43D
330
1F
100
AcDbEntity
  8
0
  6
Continuous
 62
     7
370
    25
100
AcDbLine
 10
3673.3172080762
 20
2336.8383453697
 30
0.0
 11
3673.3172080762
 21
2570.2966855377
 31
0.0
  0
LINE
  5
43E
330
1F
100
AcDbEntity
  8
0
  6
Continuous
 62
     7
370
    25
100
AcDbLine
 10
3673.3172080762
 20
2570.2966855377
 30
0.0
 11
3673.217072273
 21
2570.2966855377
 31
0.0
  0
LINE
  5
43F
330
1F
100
AcDbEntity
  8
0
  6
Continuous
 62
     7
370
    25
100
AcDbLine
 10
3673.217072273
 20
3504.1299866051
 30
0.0
 11
3673.217072273
 21
2570.2966855377
 31
0.0
  0
LINE
  5
440
330
1F
100
AcDbEntity
  8
0
  6
Continuous
 62
     7
370
    25
100
AcDbLine
 10
3673.3172080762
 20
3504.1299866051
 30
0.0
 11
3673.217072273
 21
3504.1299866051
 31
0.0
  0
LINE
  5
441
330
1F
100
AcDbEntity
  8
0
  6
Continuous
 62
     7
370
    25
100
AcDbLine
 10
3673.3172080762
 20
3504.1299866051
 30
0.0
 11
3673.3172080762
 21
3737.5883267731
 31
0.0
  0
LINE
  5
442
330
1F
100
AcDbEntity
  8
0
  6
Continuous
 62
     7
370
    25
100
AcDbLine
 10
3673.3172080762
 20
3737.5883267731
 30
0.0
 11
3673.217072273
 21
3737.5883267731
 31
0.0
  0
LINE
  5
443
330
1F
100
AcDbEntity
  8
0
  6
Continuous
 62
     7
370
    25
100
AcDbLine
 10
3673.217072273
 20
3971.0466669411
 30
0.0
 11
3673.217072273
 21
3737.5883267731
 31
0.0
  0
LINE
  5
444
330
1F
100
AcDbEntity
  8
0
  6
Continuous
 62
     7
370
    25
100
AcDbLine
 10
4813.2171771771
 20
3971.0466669411
 30
0.0
 11
3673.217072273
 21
3971.0466669411
 31
0.0
  0
LINE
  5
445
330
1F
100
AcDbEntity
  8
0
  6
Continuous
 62
     7
370
    25
100
AcDbLine
 10
4813.2171771771
 20
3737.5883267731
 30
0.0
 11
4813.2171771771
 21
3971.0466669411
 31
0.0
  0
LINE
  5
446
330
1F
100
AcDbEntity
  8
0
  6
Continuous
 62
     7
370
    25
100
AcDbLine
 10
4813.1170413739
 20
3737.5883267731
 30
0.0
 11
4813.2171771771
 21
3737.5883267731
 31
0.0
  0
LINE
  5
447
330
1F
100
AcDbEntity
  8
0
  6
Continuous
 62
     7
370
    25
100
AcDbLine
 10
4813.1170413739
 20
3504.1299866051
 30
0.0
 11
4813.1170413739
 21
3737.5883267731
 31
0.0
  0
LINE
  5
448
330
1F
100
AcDbEntity
  8
0
  6
Continuous
 62
     7
370
    25
100
AcDbLine
 10
4813.1170413739
 20
3504.1299866051
 30
0.0
 11
4813.2171771771
 21
3504.1299866051
 31
0.0
  0
LINE
  5
449
330
1F
100
AcDbEntity
  8
0
  6
Continuous
 62
     7
370
    25
100
AcDbLine
 10
4813.2171771771
 20
2570.2966855377
 30
0.0
 11
4813.2171771771
 21
3504.1299866051
 31
0.0
  0
LINE
  5
44A
330
1F
100
AcDbEntity
  8
0
  6
Continuous
 62
     7
370
    25
100
AcDbLine
 10
4813.1170413739
 20
2570.2966855377
 30
0.0
 11
4813.2171771771
 21
2570.2966855377
 31
0.0
  0
LINE
  5
44B
330
1F
100
AcDbEntity
  8
0
  6
Continuous
 62
     7
370
    25
100
AcDbLine
 10
4813.1170413739
 20
2336.8383453697
 30
0.0
 11
4813.1170413739
 21
2570.2966855377
 31
0.0
  0
LINE
  5
44C
330
1F
100
AcDbEntity
  8
0
  6
Continuous
 62
     7
370
    25
100
AcDbLine
 10
4813.1170413739
 20
2336.8383453697
 30
0.0
 11
4813.2171771771
 21
2336.8383453697
 31
0.0
  0
LINE
  5
44D
330
1F
100
AcDbEntity
  8
0
  6
Continuous
 62
     7
370
    25
100
AcDbLine
 10
4813.2171771771
 20
2103.3800052017
 30
0.0
 11
4813.2171771771
 21
2336.8383453697
 31
0.0
  0
LINE
  5
44E
330
1F
100
AcDbEntity
  8
0
  6
Continuous
 62
     7
370
    25
100
AcDbLine
 10
3682.2171352155
 20
3963.6742876381
 30
0.0
 11
4804.2171142346
 21
3963.6742876381
 31
0.0
  0
LINE
  5
44F
330
1F
100
AcDbEntity
  8
0
  6
Continuous
 62
     7
370
    25
100
AcDbLine
 10
3682.2171352155
 20
2110.7523845047
 30
0.0
 11
3682.2171352155
 21
3963.6742876381
 31
0.0
  0
LINE
  5
450
330
1F
100
AcDbEntity
  8
0
  6
Continuous
 62
     7
370
    25
100
AcDbLine
 10
4804.2171142346
 20
2110.7523845047
 30
0.0
 11
3682.2171352155
 21
2110.7523845047
 31
0.0
  0
LINE
  5
451
330
1F
100
AcDbEntity
  8
0
  6
Continuous
 62
     7
370
    25
100
AcDbLine
 10
4804.2171142346
 20
3963.6742876381
 30
0.0
 11
4804.2171142346
 21
2110.7523845047
 31
0.0
  0
LINE
  5
452
330
1F
100
AcDbEntity
  8
0
  6
Continuous
 62
     7
370
    25
100
AcDbLine
 10
3673.217072273
 20
3993.989686808
 30
0.0
 11
3673.217072273
 21
3971.0466669411
 31
0.0
  0
LINE
  5
453
330
1F
100
AcDbEntity
  8
0
  6
Continuous
 62
     7
370
    25
100
AcDbLine
 10
4813.2171771771
 20
3993.989686808
 30
0.0
 11
3673.217072273
 21
3993.989686808
 31
0.0
  0
LINE
  5
454
330
1F
100
AcDbEntity
  8
0
  6
Continuous
 62
     7
370
    25
100
AcDbLine
 10
4813.2171771771
 20
3993.989686808
 30
0.0
 11
4813.2171771771
 21
3971.0466669411
 31
0.0
  0
LINE
  5
455
330
1F
100
AcDbEntity
  8
0
  6
Continuous
 62
     7
370
    25
100
AcDbLine
 10
4803.2171867139
 20
3963.1863044113
 30
0.0
 11
3683.2170627362
 21
3963.1863044113
 31
0.0
  0
LINE
  5
456
330
1F
100
AcDbEntity
  8
0
  6
Continuous
 62
     7
370
    25
100
AcDbLine
 10
3683.2170627362
 20
3963.1863044113
 30
0.0
 11
3682.2171352155
 21
3963.6742876381
 31
0.0
  0
LINE
  5
457
330
1F
100
AcDbEntity
  8
0
  6
Continuous
 62
     7
370
    25
100
AcDbLine
 10
4804.2171142346
 20
3963.6742876381
 30
0.0
 11
4803.2171867139
 21
3963.1863044113
 31
0.0
  0
LINE
  5
458
330
1F
100
AcDbEntity
  8
0
  6
Continuous
 62
     7
370
    25
100
AcDbLine
 10
3683.2170627362
 20
3963.1863044113
 30
0.0
 11
3683.2170627362
 21
2111.9026349396
 31
0.0
  0
LINE
  5
459
330
1F
100
AcDbEntity
  8
0
  6
Continuous
 62
     7
370
    25
100
AcDbLine
 10
3683.2170627362
 20
2111.9026349396
 30
0.0
 11
3682.2171352155
 21
2110.7523845047
 31
0.0
  0
LINE
  5
45A
330
1F
100
AcDbEntity
  8
0
  6
Continuous
 62
     7
370
    25
100
AcDbLine
 10
4804.2171142346
 20
2110.7523845047
 30
0.0
 11
4803.2171867139
 21
2111.9026349396
 31
0.0
  0
LINE
  5
45B
330
1F
100
AcDbEntity
  8
0
  6
Continuous
 62
     7
370
    25
100
AcDbLine
 10
4803.2171867139
 20
2111.9026349396
 30
0.0
 11
4803.2171867139
 21
3963.1863044113
 31
0.0
  0
LINE
  5
45C
330
1F
100
AcDbEntity
  8
0
  6
Continuous
 62
     7
370
    25
100
AcDbLine
 10
3683.2170627362
 20
2112.4319241852
 30
0.0
 11
4803.2171867139
 21
2112.4319241852
 31
0.0
  0
LINE
  5
45D
330
1F
100
AcDbEntity
  8
0
  6
Continuous
 62
     7
370
    25
100
AcDbLine
 10
3673.217072273
 20
3527.0730362743
 30
0.0
 11
3673.217072273
 21
3504.1299866051
 31
0.0
  0
LINE
  5
45E
330
1F
100
AcDbEntity
  8
0
  6
Continuous
 62
     7
370
    25
100
AcDbLine
 10
3673.3172080762
 20
3527.0730362743
 30
0.0
 11
3673.217072273
 21
3527.0730362743
 31
0.0
  0
LINE
  5
45F
330
1F
100
AcDbEntity
  8
0
  6
Continuous
 62
     7
370
    25
100
AcDbLine
 10
4813.2171771771
 20
3527.0730362743
 30
0.0
 11
4813.2171771771
 21
3504.1299866051
 31
0.0
  0
LINE
  5
460
330
1F
100
AcDbEntity
  8
0
  6
Continuous
 62
     7
370
    25
100
AcDbLine
 10
4813.1170413739
 20
3527.0730362743
 30
0.0
 11
4813.2171771771
 21
3527.0730362743
 31
0.0
  0
LINE
  5
461
330
1F
100
AcDbEntity
  8
0
  6
Continuous
 62
     7
370
    25
100
AcDbLine
 10
3673.217072273
 20
2359.7813652367
 30
0.0
 11
3673.217072273
 21
2336.8383453697
 31
0.0
  0
LINE
  5
462
330
1F
100
AcDbEntity
  8
0
  6
Continuous
 62
     7
370
    25
100
AcDbLine
 10
3673.3172080762
 20
2359.7813652367
 30
0.0
 11
3673.217072273
 21
2359.7813652367
 31
0.0
  0
LINE
  5
463
330
1F
100
AcDbEntity
  8
0
  6
Continuous
 62
     7
370
    25
100
AcDbLine
 10
4813.2171771771
 20
2359.7813652367
 30
0.0
 11
4813.2171771771
 21
2336.8383453697
 31
0.0
  0
LINE
  5
464
330
1F
100
AcDbEntity
  8
0
  6
Continuous
 62
     7
370
    25
100
AcDbLine
 10
4813.1170413739
 20
2359.7813652367
 30
0.0
 11
4813.2171771771
 21
2359.7813652367
 31
0.0
  0
LINE
  5
465
330
1F
100
AcDbEntity
  8
0
  6
Continuous
 62
     7
370
    25
100
AcDbLine
 10
3683.2170627362
 20
2111.9026349396
 30
0.0
 11
4803.2171867139
 21
2111.9026349396
 31
0.0
  0
LINE
  5
466
330
1F
100
AcDbEntity
  8
0
  6
Continuous
 62
     7
370
    25
100
AcDbLine
 10
1268.2171306855
 20
2438.8295815796
 30
0.0
 11
1268.2171306855
 21
2443.704109034
 31
0.0
  0
LINE
  5
467
330
1F
100
AcDbEntity
  8
0
  6
Continuous
 62
     7
370
    25
100
AcDbLine
 10
3638.2172248609
 20
2438.8295815796
 30
0.0
 11
3638.2172248609
 21
2443.704109034
 31
0.0
  0
LINE
  5
468
330
1F
100
AcDbEntity
  8
0
  6
Continuous
 62
     7
370
    25
100
AcDbLine
 10
1268.2171306855
 20
2403.6060379356
 30
0.0
 11
1268.2171306855
 21
2438.8295815796
 31
0.0
  0
LINE
  5
469
330
1F
100
AcDbEntity
  8
0
  6
Continuous
 62
     7
370
    25
100
AcDbLine
 10
3638.2172248609
 20
2403.6060379356
 30
0.0
 11
3638.2172248609
 21
2438.8295815796
 31
0.0
  0
LINE
  5
46A
330
1F
100
AcDbEntity
  8
0
  6
Continuous
 62
     7
370
    25
100
AcDbLine
 10
2443.1171558148
 20
2415.8932970375
 30
0.0
 11
2463.3171103246
 21
2415.8932970375
 31
0.0
  0
LINE
  5
46B
330
1F
100
AcDbEntity
  8
0
  6
Continuous
 62
     7
370
    25
100
AcDbLine
 10
2463.3171103246
 20
2426.5422628731
 30
0.0
 11
2443.1171558148
 21
2426.5422628731
 31
0.0
  0
LINE
  5
46C
330
1F
100
AcDbEntity
  8
0
  6
Continuous
 62
     7
370
    25
100
AcDbLine
 10
3638.2172248609
 20
2453.1681345314
 30
0.0
 11
3603.1172416455
 21
2453.1681345314
 31
0.0
  0
LINE
  5
46D
330
1F
100
AcDbEntity
  8
0
  6
Continuous
 62
     7
370
    25
100
AcDbLine
 10
2463.3171103246
 20
2453.1681345314
 30
0.0
 11
2443.1171558148
 21
2453.1681345314
 31
0.0
  0
LINE
  5
46E
330
1F
100
AcDbEntity
  8
0
  6
Continuous
 62
     7
370
    25
100
AcDbLine
 10
1303.317128802
 20
2453.1681345314
 30
0.0
 11
1268.2171306855
 21
2453.1681345314
 31
0.0
  0
LINE
  5
46F
330
1F
100
AcDbEntity
  8
0
  6
Continuous
 62
     7
370
    25
100
AcDbLine
 10
1268.2171306855
 20
2443.704109034
 30
0.0
 11
1268.2171306855
 21
2453.1681345314
 31
0.0
  0
LINE
  5
470
330
1F
100
AcDbEntity
  8
0
  6
Continuous
 62
     7
370
    25
100
AcDbLine
 10
3638.2172248609
 20
2443.704109034
 30
0.0
 11
3638.2172248609
 21
2453.1681345314
 31
0.0
  0
LINE
  5
471
330
1F
100
AcDbEntity
  8
0
  6
Continuous
 62
     7
370
    25
100
AcDbLine
 10
2443.1171558148
 20
2416.7536900848
 30
0.0
 11
2463.3171103246
 21
2416.7536900848
 31
0.0
  0
LINE
  5
472
330
1F
100
AcDbEntity
  8
0
  6
Continuous
 62
     7
370
    25
100
AcDbLine
 10
3638.2172248609
 20
2403.6060379356
 30
0.0
 11
3638.2172248609
 21
2402.1135376305
 31
0.0
  0
LINE
  5
473
330
1F
100
AcDbEntity
  8
0
  6
Continuous
 62
     7
370
    25
100
AcDbLine
 10
1268.2171306855
 20
2402.1135376305
 30
0.0
 11
1268.2171306855
 21
2403.6060379356
 31
0.0
  0
LINE
  5
474
330
1F
100
AcDbEntity
  8
0
  6
Continuous
 62
     7
370
    25
100
AcDbLine
 10
1268.2171306855
 20
2457.3178099007
 30
0.0
 11
1268.2171306855
 21
2453.1681345314
 31
0.0
  0
LINE
  5
475
330
1F
100
AcDbEntity
  8
0
  6
Continuous
 62
     7
370
    25
100
AcDbLine
 10
3638.2172248609
 20
2457.3178099007
 30
0.0
 11
3638.2172248609
 21
2453.1681345314
 31
0.0
  0
LINE
  5
476
330
1F
100
AcDbEntity
  8
0
  6
Continuous
 62
     7
370
    25
100
AcDbLine
 10
3638.2172248609
 20
2487.5827239365
 30
0.0
 11
3638.2172248609
 21
2497.0466898293
 31
0.0
  0
LINE
  5
477
330
1F
100
AcDbEntity
  8
0
  6
Continuous
 62
     7
370
    25
100
AcDbLine
 10
3638.2172248609
 20
2487.5827239365
 30
0.0
 11
3603.1172416455
 21
2487.5827239365
 31
0.0
  0
LINE
  5
478
330
1F
100
AcDbEntity
  8
0
  6
Continuous
 62
     7
370
    25
100
AcDbLine
 10
2463.3171103246
 20
2487.5827239365
 30
0.0
 11
2443.1171558148
 21
2487.5827239365
 31
0.0
  0
LINE
  5
479
330
1F
100
AcDbEntity
  8
0
  6
Continuous
 62
     7
370
    25
100
AcDbLine
 10
1303.317128802
 20
2487.5827239365
 30
0.0
 11
1268.2171306855
 21
2487.5827239365
 31
0.0
  0
LINE
  5
47A
330
1F
100
AcDbEntity
  8
0
  6
Continuous
 62
     7
370
    25
100
AcDbLine
 10
1268.2171306855
 20
2487.5827239365
 30
0.0
 11
1268.2171306855
 21
2497.0466898293
 31
0.0
  0
LINE
  5
47B
330
1F
100
AcDbEntity
  8
0
  6
Continuous
 62
     7
370
    25
100
AcDbLine
 10
3638.2172248609
 20
2487.5827239365
 30
0.0
 11
3638.2172248609
 21
2486.3539741844
 31
0.0
  0
LINE
  5
47C
330
1F
100
AcDbEntity
  8
0
  6
Continuous
 62
     7
370
    25
100
AcDbLine
 10
3638.2172248609
 20
2486.3539741844
 30
0.0
 11
3603.1172416455
 21
2486.3539741844
 31
0.0
  0
LINE
  5
47D
330
1F
100
AcDbEntity
  8
0
  6
Continuous
 62
     7
370
    25
100
AcDbLine
 10
2463.3171103246
 20
2486.3539741844
 30
0.0
 11
2443.1171558148
 21
2486.3539741844
 31
0.0
  0
LINE
  5
47E
330
1F
100
AcDbEntity
  8
0
  6
Continuous
 62
     7
370
    25
100
AcDbLine
 10
1303.317128802
 20
2486.3539741844
 30
0.0
 11
1268.2171306855
 21
2486.3539741844
 31
0.0
  0
LINE
  5
47F
330
1F
100
AcDbEntity
  8
0
  6
Continuous
 62
     7
370
    25
100
AcDbLine
 10
1268.2171306855
 20
2487.5827239365
 30
0.0
 11
1268.2171306855
 21
2486.3539741844
 31
0.0
  0
LINE
  5
480
330
1F
100
AcDbEntity
  8
0
  6
Continuous
 62
     7
370
    25
100
AcDbLine
 10
1268.2171306855
 20
2497.0466898293
 30
0.0
 11
1268.2171306855
 21
2497.6796911568
 31
0.0
  0
LINE
  5
481
330
1F
100
AcDbEntity
  8
0
  6
Continuous
 62
     7
370
    25
100
AcDbLine
 10
3638.2172248609
 20
2497.0466898293
 30
0.0
 11
3638.2172248609
 21
2497.6796911568
 31
0.0
  0
LINE
  5
482
330
1F
100
AcDbEntity
  8
0
  6
Continuous
 62
     7
370
    25
100
AcDbLine
 10
1268.2171306855
 20
2486.3539741844
 30
0.0
 11
1268.2171306855
 21
2460.103313765
 31
0.0
  0
LINE
  5
483
330
1F
100
AcDbEntity
  8
0
  6
Continuous
 62
     7
370
    25
100
AcDbLine
 10
3638.2172248609
 20
2486.3539741844
 30
0.0
 11
3638.2172248609
 21
2460.103313765
 31
0.0
  0
LINE
  5
484
330
1F
100
AcDbEntity
  8
0
  6
Continuous
 62
     7
370
    25
100
AcDbLine
 10
2443.1171558148
 20
2483.0395387024
 30
0.0
 11
2463.3171103246
 21
2483.0395387024
 31
0.0
  0
LINE
  5
485
330
1F
100
AcDbEntity
  8
0
  6
Continuous
 62
     7
370
    25
100
AcDbLine
 10
2463.3171103246
 20
2472.3905728668
 30
0.0
 11
2443.1171558148
 21
2472.3905728668
 31
0.0
  0
LINE
  5
486
330
1F
100
AcDbEntity
  8
0
  6
Continuous
 62
     7
370
    25
100
AcDbLine
 10
2463.3171103246
 20
2473.2509659142
 30
0.0
 11
2443.1171558148
 21
2473.2509659142
 31
0.0
  0
LINE
  5
487
330
1F
100
AcDbEntity
  8
0
  6
Continuous
 62
     7
370
    25
100
AcDbLine
 10
3638.2172248609
 20
2457.3178099007
 30
0.0
 11
3638.2172248609
 21
2460.103313765
 31
0.0
  0
LINE
  5
488
330
1F
100
AcDbEntity
  8
0
  6
Continuous
 62
     7
370
    25
100
AcDbLine
 10
1268.2171306855
 20
2460.103313765
 30
0.0
 11
1268.2171306855
 21
2457.3178099007
 31
0.0
  0
LINE
  5
489
330
1F
100
AcDbEntity
  8
0
  6
Continuous
 62
     7
370
    25
100
AcDbLine
 10
3638.2172248609
 20
3646.2596462578
 30
0.0
 11
3638.2172248609
 21
3651.1342333168
 31
0.0
  0
LINE
  5
48A
330
1F
100
AcDbEntity
  8
0
  6
Continuous
 62
     7
370
    25
100
AcDbLine
 10
6008.2171104199
 20
3646.2596462578
 30
0.0
 11
6008.2171104199
 21
3651.1342333168
 31
0.0
  0
LINE
  5
48B
330
1F
100
AcDbEntity
  8
0
  6
Continuous
 62
     7
370
    25
100
AcDbLine
 10
3638.2172248609
 20
3611.0361324162
 30
0.0
 11
3638.2172248609
 21
3646.2596462578
 31
0.0
  0
LINE
  5
48C
330
1F
100
AcDbEntity
  8
0
  6
Continuous
 62
     7
370
    25
100
AcDbLine
 10
6008.2171104199
 20
3611.0361324162
 30
0.0
 11
6008.2171104199
 21
3646.2596462578
 31
0.0
  0
LINE
  5
48D
330
1F
100
AcDbEntity
  8
0
  6
Continuous
 62
     7
370
    25
100
AcDbLine
 10
4813.1170413739
 20
3623.3234213203
 30
0.0
 11
4833.3170554883
 21
3623.3234213203
 31
0.0
  0
LINE
  5
48E
330
1F
100
AcDbEntity
  8
0
  6
Continuous
 62
     7
370
    25
100
AcDbLine
 10
4833.3170554883
 20
3633.9723871559
 30
0.0
 11
4813.1170413739
 21
3633.9723871559
 31
0.0
  0
LINE
  5
48F
330
1F
100
AcDbEntity
  8
0
  6
Continuous
 62
     7
370
    25
100
AcDbLine
 10
6008.2171104199
 20
3660.5982588142
 30
0.0
 11
5973.1171272046
 21
3660.5982588142
 31
0.0
  0
LINE
  5
490
330
1F
100
AcDbEntity
  8
0
  6
Continuous
 62
     7
370
    25
100
AcDbLine
 10
4833.3170554883
 20
3660.5982588142
 30
0.0
 11
4813.1170413739
 21
3660.5982588142
 31
0.0
  0
LINE
  5
491
330
1F
100
AcDbEntity
  8
0
  6
Continuous
 62
     7
370
    25
100
AcDbLine
 10
3673.3172080762
 20
3660.5982588142
 30
0.0
 11
3638.2172248609
 21
3660.5982588142
 31
0.0
  0
LINE
  5
492
330
1F
100
AcDbEntity
  8
0
  6
Continuous
 62
     7
370
    25
100
AcDbLine
 10
3638.2172248609
 20
3651.1342333168
 30
0.0
 11
3638.2172248609
 21
3660.5982588142
 31
0.0
  0
LINE
  5
493
330
1F
100
AcDbEntity
  8
0
  6
Continuous
 62
     7
370
    25
100
AcDbLine
 10
6008.2171104199
 20
3651.1342333168
 30
0.0
 11
6008.2171104199
 21
3660.5982588142
 31
0.0
  0
LINE
  5
494
330
1F
100
AcDbEntity
  8
0
  6
Continuous
 62
     7
370
    25
100
AcDbLine
 10
4813.1170413739
 20
3624.183754763
 30
0.0
 11
4833.3170554883
 21
3624.183754763
 31
0.0
  0
LINE
  5
495
330
1F
100
AcDbEntity
  8
0
  6
Continuous
 62
     7
370
    25
100
AcDbLine
 10
6008.2171104199
 20
3611.0361324162
 30
0.0
 11
6008.2171104199
 21
3609.5436619133
 31
0.0
  0
LINE
  5
496
330
1F
100
AcDbEntity
  8
0
  6
Continuous
 62
     7
370
    25
100
AcDbLine
 10
3638.2172248609
 20
3609.5436619133
 30
0.0
 11
3638.2172248609
 21
3611.0361324162
 31
0.0
  0
LINE
  5
497
330
1F
100
AcDbEntity
  8
0
  6
Continuous
 62
     7
370
    25
100
AcDbLine
 10
3638.2172248609
 20
3664.7479341835
 30
0.0
 11
3638.2172248609
 21
3660.5982588142
 31
0.0
  0
LINE
  5
498
330
1F
100
AcDbEntity
  8
0
  6
Continuous
 62
     7
370
    25
100
AcDbLine
 10
6008.2171104199
 20
3664.7479341835
 30
0.0
 11
6008.2171104199
 21
3660.5982588142
 31
0.0
  0
LINE
  5
499
330
1F
100
AcDbEntity
  8
0
  6
Continuous
 62
     7
370
    25
100
AcDbLine
 10
6008.2171104199
 20
3695.0127886147
 30
0.0
 11
6008.2171104199
 21
3704.4768141121
 31
0.0
  0
LINE
  5
49A
330
1F
100
AcDbEntity
  8
0
  6
Continuous
 62
     7
370
    25
100
AcDbLine
 10
6008.2171104199
 20
3695.0127886147
 30
0.0
 11
5973.1171272046
 21
3695.0127886147
 31
0.0
  0
LINE
  5
49B
330
1F
100
AcDbEntity
  8
0
  6
Continuous
 62
     7
370
    25
100
AcDbLine
 10
4833.3170554883
 20
3695.0127886147
 30
0.0
 11
4813.1170413739
 21
3695.0127886147
 31
0.0
  0
LINE
  5
49C
330
1F
100
AcDbEntity
  8
0
  6
Continuous
 62
     7
370
    25
100
AcDbLine
 10
3673.3172080762
 20
3695.0127886147
 30
0.0
 11
3638.2172248609
 21
3695.0127886147
 31
0.0
  0
LINE
  5
49D
330
1F
100
AcDbEntity
  8
0
  6
Continuous
 62
     7
370
    25
100
AcDbLine
 10
3638.2172248609
 20
3695.0127886147
 30
0.0
 11
3638.2172248609
 21
3704.4768141121
 31
0.0
  0
LINE
  5
49E
330
1F
100
AcDbEntity
  8
0
  6
Continuous
 62
     7
370
    25
100
AcDbLine
 10
6008.2171104199
 20
3695.0127886147
 30
0.0
 11
6008.2171104199
 21
3693.7840984673
 31
0.0
  0
LINE
  5
49F
330
1F
100
AcDbEntity
  8
0
  6
Continuous
 62
     7
370
    25
100
AcDbLine
 10
6008.2171104199
 20
3693.7840984673
 30
0.0
 11
5973.1171272046
 21
3693.7840984673
 31
0.0
  0
LINE
  5
4A0
330
1F
100
AcDbEntity
  8
0
  6
Continuous
 62
     7
370
    25
100
AcDbLine
 10
4833.3170554883
 20
3693.7840984673
 30
0.0
 11
4813.1170413739
 21
3693.7840984673
 31
0.0
  0
LINE
  5
4A1
330
1F
100
AcDbEntity
  8
0
  6
Continuous
 62
     7
370
    25
100
AcDbLine
 10
3673.3172080762
 20
3693.7840984673
 30
0.0
 11
3638.2172248609
 21
3693.7840984673
 31
0.0
  0
LINE
  5
4A2
330
1F
100
AcDbEntity
  8
0
  6
Continuous
 62
     7
370
    25
100
AcDbLine
 10
3638.2172248609
 20
3695.0127886147
 30
0.0
 11
3638.2172248609
 21
3693.7840984673
 31
0.0
  0
LINE
  5
4A3
330
1F
100
AcDbEntity
  8
0
  6
Continuous
 62
     7
370
    25
100
AcDbLine
 10
6008.2171104199
 20
3704.4768141121
 30
0.0
 11
6008.2171104199
 21
3705.1098154396
 31
0.0
  0
LINE
  5
4A4
330
1F
100
AcDbEntity
  8
0
  6
Continuous
 62
     7
370
    25
100
AcDbLine
 10
3638.2172248609
 20
3704.4768141121
 30
0.0
 11
3638.2172248609
 21
3705.1098154396
 31
0.0
  0
LINE
  5
4A5
330
1F
100
AcDbEntity
  8
0
  6
Continuous
 62
     7
370
    25
100
AcDbLine
 10
3638.2172248609
 20
3693.7840984673
 30
0.0
 11
3638.2172248609
 21
3667.5334380478
 31
0.0
  0
LINE
  5
4A6
330
1F
100
AcDbEntity
  8
0
  6
Continuous
 62
     7
370
    25
100
AcDbLine
 10
6008.2171104199
 20
3693.7840984673
 30
0.0
 11
6008.2171104199
 21
3667.5334380478
 31
0.0
  0
LINE
  5
4A7
330
1F
100
AcDbEntity
  8
0
  6
Continuous
 62
     7
370
    25
100
AcDbLine
 10
4813.1170413739
 20
3690.4696629852
 30
0.0
 11
4833.3170554883
 21
3690.4696629852
 31
0.0
  0
LINE
  5
4A8
330
1F
100
AcDbEntity
  8
0
  6
Continuous
 62
     7
370
    25
100
AcDbLine
 10
4833.3170554883
 20
3679.8206971497
 30
0.0
 11
4813.1170413739
 21
3679.8206971497
 31
0.0
  0
LINE
  5
4A9
330
1F
100
AcDbEntity
  8
0
  6
Continuous
 62
     7
370
    25
100
AcDbLine
 10
4833.3170554883
 20
3680.6810305923
 30
0.0
 11
4813.1170413739
 21
3680.6810305923
 31
0.0
  0
LINE
  5
4AA
330
1F
100
AcDbEntity
  8
0
  6
Continuous
 62
     7
370
    25
100
AcDbLine
 10
6008.2171104199
 20
3664.7479341835
 30
0.0
 11
6008.2171104199
 21
3667.5334380478
 31
0.0
  0
LINE
  5
4AB
330
1F
100
AcDbEntity
  8
0
  6
Continuous
 62
     7
370
    25
100
AcDbLine
 10
3638.2172248609
 20
3667.5334380478
 30
0.0
 11
3638.2172248609
 21
3664.7479341835
 31
0.0
  0
LINE
  5
4AC
330
1F
100
AcDbEntity
  8
0
  6
Continuous
 62
     7
370
    25
100
AcDbLine
 10
6008.2171104199
 20
2438.8295815796
 30
0.0
 11
6008.2171104199
 21
2443.704109034
 31
0.0
  0
LINE
  5
4AD
330
1F
100
AcDbEntity
  8
0
  6
Continuous
 62
     7
370
    25
100
AcDbLine
 10
6008.2171104199
 20
2403.6060379356
 30
0.0
 11
6008.2171104199
 21
2438.8295815796
 31
0.0
  0
LINE
  5
4AE
330
1F
100
AcDbEntity
  8
0
  6
Continuous
 62
     7
370
    25
100
AcDbLine
 10
4813.1170413739
 20
2415.8932970375
 30
0.0
 11
4833.3170554883
 21
2415.8932970375
 31
0.0
  0
LINE
  5
4AF
330
1F
100
AcDbEntity
  8
0
  6
Continuous
 62
     7
370
    25
100
AcDbLine
 10
4833.3170554883
 20
2426.5422628731
 30
0.0
 11
4813.1170413739
 21
2426.5422628731
 31
0.0
  0
LINE
  5
4B0
330
1F
100
AcDbEntity
  8
0
  6
Continuous
 62
     7
370
    25
100
AcDbLine
 10
6008.2171104199
 20
2453.1681345314
 30
0.0
 11
5973.1171272046
 21
2453.1681345314
 31
0.0
  0
LINE
  5
4B1
330
1F
100
AcDbEntity
  8
0
  6
Continuous
 62
     7
370
    25
100
AcDbLine
 10
4833.3170554883
 20
2453.1681345314
 30
0.0
 11
4813.1170413739
 21
2453.1681345314
 31
0.0
  0
LINE
  5
4B2
330
1F
100
AcDbEntity
  8
0
  6
Continuous
 62
     7
370
    25
100
AcDbLine
 10
3673.3172080762
 20
2453.1681345314
 30
0.0
 11
3638.2172248609
 21
2453.1681345314
 31
0.0
  0
LINE
  5
4B3
330
1F
100
AcDbEntity
  8
0
  6
Continuous
 62
     7
370
    25
100
AcDbLine
 10
6008.2171104199
 20
2443.704109034
 30
0.0
 11
6008.2171104199
 21
2453.1681345314
 31
0.0
  0
LINE
  5
4B4
330
1F
100
AcDbEntity
  8
0
  6
Continuous
 62
     7
370
    25
100
AcDbLine
 10
4813.1170413739
 20
2416.7536900848
 30
0.0
 11
4833.3170554883
 21
2416.7536900848
 31
0.0
  0
LINE
  5
4B5
330
1F
100
AcDbEntity
  8
0
  6
Continuous
 62
     7
370
    25
100
AcDbLine
 10
6008.2171104199
 20
2403.6060379356
 30
0.0
 11
6008.2171104199
 21
2402.1135376305
 31
0.0
  0
LINE
  5
4B6
330
1F
100
AcDbEntity
  8
0
  6
Continuous
 62
     7
370
    25
100
AcDbLine
 10
6008.2171104199
 20
2457.3178099007
 30
0.0
 11
6008.2171104199
 21
2453.1681345314
 31
0.0
  0
LINE
  5
4B7
330
1F
100
AcDbEntity
  8
0
  6
Continuous
 62
     7
370
    25
100
AcDbLine
 10
6008.2171104199
 20
2487.5827239365
 30
0.0
 11
6008.2171104199
 21
2497.0466898293
 31
0.0
  0
LINE
  5
4B8
330
1F
100
AcDbEntity
  8
0
  6
Continuous
 62
     7
370
    25
100
AcDbLine
 10
6008.2171104199
 20
2487.5827239365
 30
0.0
 11
5973.1171272046
 21
2487.5827239365
 31
0.0
  0
LINE
  5
4B9
330
1F
100
AcDbEntity
  8
0
  6
Continuous
 62
     7
370
    25
100
AcDbLine
 10
4833.3170554883
 20
2487.5827239365
 30
0.0
 11
4813.1170413739
 21
2487.5827239365
 31
0.0
  0
LINE
  5
4BA
330
1F
100
AcDbEntity
  8
0
  6
Continuous
 62
     7
370
    25
100
AcDbLine
 10
3673.3172080762
 20
2487.5827239365
 30
0.0
 11
3638.2172248609
 21
2487.5827239365
 31
0.0
  0
LINE
  5
4BB
330
1F
100
AcDbEntity
  8
0
  6
Continuous
 62
     7
370
    25
100
AcDbLine
 10
6008.2171104199
 20
2487.5827239365
 30
0.0
 11
6008.2171104199
 21
2486.3539741844
 31
0.0
  0
LINE
  5
4BC
330
1F
100
AcDbEntity
  8
0
  6
Continuous
 62
     7
370
    25
100
AcDbLine
 10
6008.2171104199
 20
2486.3539741844
 30
0.0
 11
5973.1171272046
 21
2486.3539741844
 31
0.0
  0
LINE
  5
4BD
330
1F
100
AcDbEntity
  8
0
  6
Continuous
 62
     7
370
    25
100
AcDbLine
 10
4833.3170554883
 20
2486.3539741844
 30
0.0
 11
4813.1170413739
 21
2486.3539741844
 31
0.0
  0
LINE
  5
4BE
330
1F
100
AcDbEntity
  8
0
  6
Continuous
 62
     7
370
    25
100
AcDbLine
 10
3673.3172080762
 20
2486.3539741844
 30
0.0
 11
3638.2172248609
 21
2486.3539741844
 31
0.0
  0
LINE
  5
4BF
330
1F
100
AcDbEntity
  8
0
  6
Continuous
 62
     7
370
    25
100
AcDbLine
 10
6008.2171104199
 20
2497.0466898293
 30
0.0
 11
6008.2171104199
 21
2497.6796911568
 31
0.0
  0
LINE
  5
4C0
330
1F
100
AcDbEntity
  8
0
  6
Continuous
 62
     7
370
    25
100
AcDbLine
 10
6008.2171104199
 20
2486.3539741844
 30
0.0
 11
6008.2171104199
 21
2460.103313765
 31
0.0
  0
LINE
  5
4C1
330
1F
100
AcDbEntity
  8
0
  6
Continuous
 62
     7
370
    25
100
AcDbLine
 10
4813.1170413739
 20
2483.0395387024
 30
0.0
 11
4833.3170554883
 21
2483.0395387024
 31
0.0
  0
LINE
  5
4C2
330
1F
100
AcDbEntity
  8
0
  6
Continuous
 62
     7
370
    25
100
AcDbLine
 10
4833.3170554883
 20
2472.3905728668
 30
0.0
 11
4813.1170413739
 21
2472.3905728668
 31
0.0
  0
LINE
  5
4C3
330
1F
100
AcDbEntity
  8
0
  6
Continuous
 62
     7
370
    25
100
AcDbLine
 10
4833.3170554883
 20
2473.2509659142
 30
0.0
 11
4813.1170413739
 21
2473.2509659142
 31
0.0
  0
LINE
  5
4C4
330
1F
100
AcDbEntity
  8
0
  6
Continuous
 62
     7
370
    25
100
AcDbLine
 10
6008.2171104199
 20
2457.3178099007
 30
0.0
 11
6008.2171104199
 21
2460.103313765
 31
0.0
  0
LINE
  5
4C5
330
1F
100
AcDbEntity
  8
0
  6
Continuous
 62
     7
370
    25
100
AcDbLine
 10
1268.2171306855
 20
3646.2596462578
 30
0.0
 11
1268.2171306855
 21
3651.1342333168
 31
0.0
  0
LINE
  5
4C6
330
1F
100
AcDbEntity
  8
0
  6
Continuous
 62
     7
370
    25
100
AcDbLine
 10
1268.2171306855
 20
3611.0361324162
 30
0.0
 11
1268.2171306855
 21
3646.2596462578
 31
0.0
  0
LINE
  5
4C7
330
1F
100
AcDbEntity
  8
0
  6
Continuous
 62
     7
370
    25
100
AcDbLine
 10
2443.1171558148
 20
3623.3234213203
 30
0.0
 11
2463.3171103246
 21
3623.3234213203
 31
0.0
  0
LINE
  5
4C8
330
1F
100
AcDbEntity
  8
0
  6
Continuous
 62
     7
370
    25
100
AcDbLine
 10
2463.3171103246
 20
3633.9723871559
 30
0.0
 11
2443.1171558148
 21
3633.9723871559
 31
0.0
  0
LINE
  5
4C9
330
1F
100
AcDbEntity
  8
0
  6
Continuous
 62
     7
370
    25
100
AcDbLine
 10
3638.2172248609
 20
3660.5982588142
 30
0.0
 11
3603.1172416455
 21
3660.5982588142
 31
0.0
  0
LINE
  5
4CA
330
1F
100
AcDbEntity
  8
0
  6
Continuous
 62
     7
370
    25
100
AcDbLine
 10
2463.3171103246
 20
3660.5982588142
 30
0.0
 11
2443.1171558148
 21
3660.5982588142
 31
0.0
  0
LINE
  5
4CB
330
1F
100
AcDbEntity
  8
0
  6
Continuous
 62
     7
370
    25
100
AcDbLine
 10
1303.317128802
 20
3660.5982588142
 30
0.0
 11
1268.2171306855
 21
3660.5982588142
 31
0.0
  0
LINE
  5
4CC
330
1F
100
AcDbEntity
  8
0
  6
Continuous
 62
     7
370
    25
100
AcDbLine
 10
1268.2171306855
 20
3651.1342333168
 30
0.0
 11
1268.2171306855
 21
3660.5982588142
 31
0.0
  0
LINE
  5
4CD
330
1F
100
AcDbEntity
  8
0
  6
Continuous
 62
     7
370
    25
100
AcDbLine
 10
2443.1171558148
 20
3624.183754763
 30
0.0
 11
2463.3171103246
 21
3624.183754763
 31
0.0
  0
LINE
  5
4CE
330
1F
100
AcDbEntity
  8
0
  6
Continuous
 62
     7
370
    25
100
AcDbLine
 10
1268.2171306855
 20
3609.5436619133
 30
0.0
 11
1268.2171306855
 21
3611.0361324162
 31
0.0
  0
LINE
  5
4CF
330
1F
100
AcDbEntity
  8
0
  6
Continuous
 62
     7
370
    25
100
AcDbLine
 10
1268.2171306855
 20
3664.7479341835
 30
0.0
 11
1268.2171306855
 21
3660.5982588142
 31
0.0
  0
LINE
  5
4D0
330
1F
100
AcDbEntity
  8
0
  6
Continuous
 62
     7
370
    25
100
AcDbLine
 10
3638.2172248609
 20
3695.0127886147
 30
0.0
 11
3603.1172416455
 21
3695.0127886147
 31
0.0
  0
LINE
  5
4D1
330
1F
100
AcDbEntity
  8
0
  6
Continuous
 62
     7
370
    25
100
AcDbLine
 10
2463.3171103246
 20
3695.0127886147
 30
0.0
 11
2443.1171558148
 21
3695.0127886147
 31
0.0
  0
LINE
  5
4D2
330
1F
100
AcDbEntity
  8
0
  6
Continuous
 62
     7
370
    25
100
AcDbLine
 10
1303.317128802
 20
3695.0127886147
 30
0.0
 11
1268.2171306855
 21
3695.0127886147
 31
0.0
  0
LINE
  5
4D3
330
1F
100
AcDbEntity
  8
0
  6
Continuous
 62
     7
370
    25
100
AcDbLine
 10
1268.2171306855
 20
3695.0127886147
 30
0.0
 11
1268.2171306855
 21
3704.4768141121
 31
0.0
  0
LINE
  5
4D4
330
1F
100
AcDbEntity
  8
0
  6
Continuous
 62
     7
370
    25
100
AcDbLine
 10
3638.2172248609
 20
3693.7840984673
 30
0.0
 11
3603.1172416455
 21
3693.7840984673
 31
0.0
  0
LINE
  5
4D5
330
1F
100
AcDbEntity
  8
0
  6
Continuous
 62
     7
370
    25
100
AcDbLine
 10
2463.3171103246
 20
3693.7840984673
 30
0.0
 11
2443.1171558148
 21
3693.7840984673
 31
0.0
  0
LINE
  5
4D6
330
1F
100
AcDbEntity
  8
0
  6
Continuous
 62
     7
370
    25
100
AcDbLine
 10
1303.317128802
 20
3693.7840984673
 30
0.0
 11
1268.2171306855
 21
3693.7840984673
 31
0.0
  0
LINE
  5
4D7
330
1F
100
AcDbEntity
  8
0
  6
Continuous
 62
     7
370
    25
100
AcDbLine
 10
1268.2171306855
 20
3695.0127886147
 30
0.0
 11
1268.2171306855
 21
3693.7840984673
 31
0.0
  0
LINE
  5
4D8
330
1F
100
AcDbEntity
  8
0
  6
Continuous
 62
     7
370
    25
100
AcDbLine
 10
1268.2171306855
 20
3704.4768141121
 30
0.0
 11
1268.2171306855
 21
3705.1098154396
 31
0.0
  0
LINE
  5
4D9
330
1F
100
AcDbEntity
  8
0
  6
Continuous
 62
     7
370
    25
100
AcDbLine
 10
1268.2171306855
 20
3693.7840984673
 30
0.0
 11
1268.2171306855
 21
3667.5334380478
 31
0.0
  0
LINE
  5
4DA
330
1F
100
AcDbEntity
  8
0
  6
Continuous
 62
     7
370
    25
100
AcDbLine
 10
2443.1171558148
 20
3690.4696629852
 30
0.0
 11
2463.3171103246
 21
3690.4696629852
 31
0.0
  0
LINE
  5
4DB
330
1F
100
AcDbEntity
  8
0
  6
Continuous
 62
     7
370
    25
100
AcDbLine
 10
2463.3171103246
 20
3679.8206971497
 30
0.0
 11
2443.1171558148
 21
3679.8206971497
 31
0.0
  0
LINE
  5
4DC
330
1F
100
AcDbEntity
  8
0
  6
Continuous
 62
     7
370
    25
100
AcDbLine
 10
2463.3171103246
 20
3680.6810305923
 30
0.0
 11
2443.1171558148
 21
3680.6810305923
 31
0.0
  0
LINE
  5
4DD
330
1F
100
AcDbEntity
  8
0
  6
Continuous
 62
     7
370
    25
100
AcDbLine
 10
1268.2171306855
 20
3667.5334380478
 30
0.0
 11
1268.2171306855
 21
3664.7479341835
 31
0.0
  0
LINE
  5
4DE
330
1F
100
AcDbEntity
  8
0
  6
Continuous
 62
     8
370
    25
100
AcDbLine
 10
3638.2172248609
 20
2443.704109034
 30
0.0
 11
3603.1172416455
 21
2443.704109034
 31
0.0
  0
LINE
  5
4DF
330
1F
100
AcDbEntity
  8
0
  6
Continuous
 62
     8
370
    25
100
AcDbLine
 10
2463.3171103246
 20
2443.704109034
 30
0.0
 11
2443.1171558148
 21
2443.704109034
 31
0.0
  0
LINE
  5
4E0
330
1F
100
AcDbEntity
  8
0
  6
Continuous
 62
     8
370
    25
100
AcDbLine
 10
1303.317128802
 20
2443.704109034
 30
0.0
 11
1268.2171306855
 21
2443.704109034
 31
0.0
  0
LINE
  5
4E1
330
1F
100
AcDbEntity
  8
0
  6
Continuous
 62
     8
370
    25
100
AcDbLine
 10
3638.2172248609
 20
2438.8295815796
 30
0.0
 11
3603.1172416455
 21
2438.8295815796
 31
0.0
  0
LINE
  5
4E2
330
1F
100
AcDbEntity
  8
0
  6
Continuous
 62
     8
370
    25
100
AcDbLine
 10
2463.3171103246
 20
2438.8295815796
 30
0.0
 11
2443.1171558148
 21
2438.8295815796
 31
0.0
  0
LINE
  5
4E3
330
1F
100
AcDbEntity
  8
0
  6
Continuous
 62
     8
370
    25
100
AcDbLine
 10
1303.317128802
 20
2438.8295815796
 30
0.0
 11
1268.2171306855
 21
2438.8295815796
 31
0.0
  0
LINE
  5
4E4
330
1F
100
AcDbEntity
  8
0
  6
Continuous
 62
     8
370
    25
100
AcDbLine
 10
2463.3171103246
 20
2403.6060379356
 30
0.0
 11
2443.1171558148
 21
2403.6060379356
 31
0.0
  0
LINE
  5
4E5
330
1F
100
AcDbEntity
  8
0
  6
Continuous
 62
     8
370
    25
100
AcDbLine
 10
1303.317128802
 20
2403.6060379356
 30
0.0
 11
1268.2171306855
 21
2403.6060379356
 31
0.0
  0
LINE
  5
4E6
330
1F
100
AcDbEntity
  8
0
  6
Continuous
 62
     8
370
    25
100
AcDbLine
 10
3638.2172248609
 20
2403.6060379356
 30
0.0
 11
3603.1172416455
 21
2403.6060379356
 31
0.0
  0
LINE
  5
4E7
330
1F
100
AcDbEntity
  8
0
  6
Continuous
 62
     8
370
    25
100
AcDbLine
 10
1303.317128802
 20
2457.3178099007
 30
0.0
 11
1268.2171306855
 21
2457.3178099007
 31
0.0
  0
LINE
  5
4E8
330
1F
100
AcDbEntity
  8
0
  6
Continuous
 62
     8
370
    25
100
AcDbLine
 10
2463.3171103246
 20
2457.3178099007
 30
0.0
 11
2443.1171558148
 21
2457.3178099007
 31
0.0
  0
LINE
  5
4E9
330
1F
100
AcDbEntity
  8
0
  6
Continuous
 62
     8
370
    25
100
AcDbLine
 10
3638.2172248609
 20
2457.3178099007
 30
0.0
 11
3603.1172416455
 21
2457.3178099007
 31
0.0
  0
LINE
  5
4EA
330
1F
100
AcDbEntity
  8
0
  6
Continuous
 62
     8
370
    25
100
AcDbLine
 10
3638.2172248609
 20
2497.0466898293
 30
0.0
 11
3603.1172416455
 21
2497.0466898293
 31
0.0
  0
LINE
  5
4EB
330
1F
100
AcDbEntity
  8
0
  6
Continuous
 62
     8
370
    25
100
AcDbLine
 10
2463.3171103246
 20
2497.0466898293
 30
0.0
 11
2443.1171558148
 21
2497.0466898293
 31
0.0
  0
LINE
  5
4EC
330
1F
100
AcDbEntity
  8
0
  6
Continuous
 62
     8
370
    25
100
AcDbLine
 10
1303.317128802
 20
2497.0466898293
 30
0.0
 11
1268.2171306855
 21
2497.0466898293
 31
0.0
  0
LINE
  5
4ED
330
1F
100
AcDbEntity
  8
0
  6
Continuous
 62
     8
370
    25
100
AcDbLine
 10
3638.2172248609
 20
2460.103313765
 30
0.0
 11
3603.1172416455
 21
2460.103313765
 31
0.0
  0
LINE
  5
4EE
330
1F
100
AcDbEntity
  8
0
  6
Continuous
 62
     8
370
    25
100
AcDbLine
 10
2463.3171103246
 20
2460.103313765
 30
0.0
 11
2443.1171558148
 21
2460.103313765
 31
0.0
  0
LINE
  5
4EF
330
1F
100
AcDbEntity
  8
0
  6
Continuous
 62
     8
370
    25
100
AcDbLine
 10
1303.317128802
 20
2460.103313765
 30
0.0
 11
1268.2171306855
 21
2460.103313765
 31
0.0
  0
LINE
  5
4F0
330
1F
100
AcDbEntity
  8
0
  6
Continuous
 62
     8
370
    25
100
AcDbLine
 10
6008.2171104199
 20
3651.1342333168
 30
0.0
 11
5973.1171272046
 21
3651.1342333168
 31
0.0
  0
LINE
  5
4F1
330
1F
100
AcDbEntity
  8
0
  6
Continuous
 62
     8
370
    25
100
AcDbLine
 10
4833.3170554883
 20
3651.1342333168
 30
0.0
 11
4813.1170413739
 21
3651.1342333168
 31
0.0
  0
LINE
  5
4F2
330
1F
100
AcDbEntity
  8
0
  6
Continuous
 62
     8
370
    25
100
AcDbLine
 10
3673.3172080762
 20
3651.1342333168
 30
0.0
 11
3638.2172248609
 21
3651.1342333168
 31
0.0
  0
LINE
  5
4F3
330
1F
100
AcDbEntity
  8
0
  6
Continuous
 62
     8
370
    25
100
AcDbLine
 10
6008.2171104199
 20
3646.2596462578
 30
0.0
 11
5973.1171272046
 21
3646.2596462578
 31
0.0
  0
LINE
  5
4F4
330
1F
100
AcDbEntity
  8
0
  6
Continuous
 62
     8
370
    25
100
AcDbLine
 10
4833.3170554883
 20
3646.2596462578
 30
0.0
 11
4813.1170413739
 21
3646.2596462578
 31
0.0
  0
LINE
  5
4F5
330
1F
100
AcDbEntity
  8
0
  6
Continuous
 62
     8
370
    25
100
AcDbLine
 10
3673.3172080762
 20
3646.2596462578
 30
0.0
 11
3638.2172248609
 21
3646.2596462578
 31
0.0
  0
LINE
  5
4F6
330
1F
100
AcDbEntity
  8
0
  6
Continuous
 62
     8
370
    25
100
AcDbLine
 10
4833.3170554883
 20
3611.0361324162
 30
0.0
 11
4813.1170413739
 21
3611.0361324162
 31
0.0
  0
LINE
  5
4F7
330
1F
100
AcDbEntity
  8
0
  6
Continuous
 62
     8
370
    25
100
AcDbLine
 10
3673.3172080762
 20
3611.0361324162
 30
0.0
 11
3638.2172248609
 21
3611.0361324162
 31
0.0
  0
LINE
  5
4F8
330
1F
100
AcDbEntity
  8
0
  6
Continuous
 62
     8
370
    25
100
AcDbLine
 10
6008.2171104199
 20
3611.0361324162
 30
0.0
 11
5973.1171272046
 21
3611.0361324162
 31
0.0
  0
LINE
  5
4F9
330
1F
100
AcDbEntity
  8
0
  6
Continuous
 62
     8
370
    25
100
AcDbLine
 10
3673.3172080762
 20
3664.7479341835
 30
0.0
 11
3638.2172248609
 21
3664.7479341835
 31
0.0
  0
LINE
  5
4FA
330
1F
100
AcDbEntity
  8
0
  6
Continuous
 62
     8
370
    25
100
AcDbLine
 10
4833.3170554883
 20
3664.7479341835
 30
0.0
 11
4813.1170413739
 21
3664.7479341835
 31
0.0
  0
LINE
  5
4FB
330
1F
100
AcDbEntity
  8
0
  6
Continuous
 62
     8
370
    25
100
AcDbLine
 10
6008.2171104199
 20
3664.7479341835
 30
0.0
 11
5973.1171272046
 21
3664.7479341835
 31
0.0
  0
LINE
  5
4FC
330
1F
100
AcDbEntity
  8
0
  6
Continuous
 62
     8
370
    25
100
AcDbLine
 10
6008.2171104199
 20
3704.4768141121
 30
0.0
 11
5973.1171272046
 21
3704.4768141121
 31
0.0
  0
LINE
  5
4FD
330
1F
100
AcDbEntity
  8
0
  6
Continuous
 62
     8
370
    25
100
AcDbLine
 10
4833.3170554883
 20
3704.4768141121
 30
0.0
 11
4813.1170413739
 21
3704.4768141121
 31
0.0
  0
LINE
  5
4FE
330
1F
100
AcDbEntity
  8
0
  6
Continuous
 62
     8
370
    25
100
AcDbLine
 10
3673.3172080762
 20
3704.4768141121
 30
0.0
 11
3638.2172248609
 21
3704.4768141121
 31
0.0
  0
LINE
  5
4FF
330
1F
100
AcDbEntity
  8
0
  6
Continuous
 62
     8
370
    25
100
AcDbLine
 10
6008.2171104199
 20
3667.5334380478
 30
0.0
 11
5973.1171272046
 21
3667.5334380478
 31
0.0
  0
LINE
  5
500
330
1F
100
AcDbEntity
  8
0
  6
Continuous
 62
     8
370
    25
100
AcDbLine
 10
4833.3170554883
 20
3667.5334380478
 30
0.0
 11
4813.1170413739
 21
3667.5334380478
 31
0.0
  0
LINE
  5
501
330
1F
100
AcDbEntity
  8
0
  6
Continuous
 62
     8
370
    25
100
AcDbLine
 10
3673.3172080762
 20
3667.5334380478
 30
0.0
 11
3638.2172248609
 21
3667.5334380478
 31
0.0
  0
LINE
  5
502
330
1F
100
AcDbEntity
  8
0
  6
Continuous
 62
     8
370
    25
100
AcDbLine
 10
6008.2171104199
 20
2443.704109034
 30
0.0
 11
5973.1171272046
 21
2443.704109034
 31
0.0
  0
LINE
  5
503
330
1F
100
AcDbEntity
  8
0
  6
Continuous
 62
     8
370
    25
100
AcDbLine
 10
4833.3170554883
 20
2443.704109034
 30
0.0
 11
4813.1170413739
 21
2443.704109034
 31
0.0
  0
LINE
  5
504
330
1F
100
AcDbEntity
  8
0
  6
Continuous
 62
     8
370
    25
100
AcDbLine
 10
3673.3172080762
 20
2443.704109034
 30
0.0
 11
3638.2172248609
 21
2443.704109034
 31
0.0
  0
LINE
  5
505
330
1F
100
AcDbEntity
  8
0
  6
Continuous
 62
     8
370
    25
100
AcDbLine
 10
6008.2171104199
 20
2438.8295815796
 30
0.0
 11
5973.1171272046
 21
2438.8295815796
 31
0.0
  0
LINE
  5
506
330
1F
100
AcDbEntity
  8
0
  6
Continuous
 62
     8
370
    25
100
AcDbLine
 10
4833.3170554883
 20
2438.8295815796
 30
0.0
 11
4813.1170413739
 21
2438.8295815796
 31
0.0
  0
LINE
  5
507
330
1F
100
AcDbEntity
  8
0
  6
Continuous
 62
     8
370
    25
100
AcDbLine
 10
3673.3172080762
 20
2438.8295815796
 30
0.0
 11
3638.2172248609
 21
2438.8295815796
 31
0.0
  0
LINE
  5
508
330
1F
100
AcDbEntity
  8
0
  6
Continuous
 62
     8
370
    25
100
AcDbLine
 10
4833.3170554883
 20
2403.6060379356
 30
0.0
 11
4813.1170413739
 21
2403.6060379356
 31
0.0
  0
LINE
  5
509
330
1F
100
AcDbEntity
  8
0
  6
Continuous
 62
     8
370
    25
100
AcDbLine
 10
3673.3172080762
 20
2403.6060379356
 30
0.0
 11
3638.2172248609
 21
2403.6060379356
 31
0.0
  0
LINE
  5
50A
330
1F
100
AcDbEntity
  8
0
  6
Continuous
 62
     8
370
    25
100
AcDbLine
 10
6008.2171104199
 20
2403.6060379356
 30
0.0
 11
5973.1171272046
 21
2403.6060379356
 31
0.0
  0
LINE
  5
50B
330
1F
100
AcDbEntity
  8
0
  6
Continuous
 62
     8
370
    25
100
AcDbLine
 10
3673.3172080762
 20
2457.3178099007
 30
0.0
 11
3638.2172248609
 21
2457.3178099007
 31
0.0
  0
LINE
  5
50C
330
1F
100
AcDbEntity
  8
0
  6
Continuous
 62
     8
370
    25
100
AcDbLine
 10
4833.3170554883
 20
2457.3178099007
 30
0.0
 11
4813.1170413739
 21
2457.3178099007
 31
0.0
  0
LINE
  5
50D
330
1F
100
AcDbEntity
  8
0
  6
Continuous
 62
     8
370
    25
100
AcDbLine
 10
6008.2171104199
 20
2457.3178099007
 30
0.0
 11
5973.1171272046
 21
2457.3178099007
 31
0.0
  0
LINE
  5
50E
330
1F
100
AcDbEntity
  8
0
  6
Continuous
 62
     8
370
    25
100
AcDbLine
 10
6008.2171104199
 20
2497.0466898293
 30
0.0
 11
5973.1171272046
 21
2497.0466898293
 31
0.0
  0
LINE
  5
50F
330
1F
100
AcDbEntity
  8
0
  6
Continuous
 62
     8
370
    25
100
AcDbLine
 10
4833.3170554883
 20
2497.0466898293
 30
0.0
 11
4813.1170413739
 21
2497.0466898293
 31
0.0
  0
LINE
  5
510
330
1F
100
AcDbEntity
  8
0
  6
Continuous
 62
     8
370
    25
100
AcDbLine
 10
3673.3172080762
 20
2497.0466898293
 30
0.0
 11
3638.2172248609
 21
2497.0466898293
 31
0.0
  0
LINE
  5
511
330
1F
100
AcDbEntity
  8
0
  6
Continuous
 62
     8
370
    25
100
AcDbLine
 10
6008.2171104199
 20
2460.103313765
 30
0.0
 11
5973.1171272046
 21
2460.103313765
 31
0.0
  0
LINE
  5
512
330
1F
100
AcDbEntity
  8
0
  6
Continuous
 62
     8
370
    25
100
AcDbLine
 10
4833.3170554883
 20
2460.103313765
 30
0.0
 11
4813.1170413739
 21
2460.103313765
 31
0.0
  0
LINE
  5
513
330
1F
100
AcDbEntity
  8
0
  6
Continuous
 62
     8
370
    25
100
AcDbLine
 10
3673.3172080762
 20
2460.103313765
 30
0.0
 11
3638.2172248609
 21
2460.103313765
 31
0.0
  0
LINE
  5
514
330
1F
100
AcDbEntity
  8
0
  6
Continuous
 62
     8
370
    25
100
AcDbLine
 10
3638.2172248609
 20
3651.1342333168
 30
0.0
 11
3603.1172416455
 21
3651.1342333168
 31
0.0
  0
LINE
  5
515
330
1F
100
AcDbEntity
  8
0
  6
Continuous
 62
     8
370
    25
100
AcDbLine
 10
2463.3171103246
 20
3651.1342333168
 30
0.0
 11
2443.1171558148
 21
3651.1342333168
 31
0.0
  0
LINE
  5
516
330
1F
100
AcDbEntity
  8
0
  6
Continuous
 62
     8
370
    25
100
AcDbLine
 10
1303.317128802
 20
3651.1342333168
 30
0.0
 11
1268.2171306855
 21
3651.1342333168
 31
0.0
  0
LINE
  5
517
330
1F
100
AcDbEntity
  8
0
  6
Continuous
 62
     8
370
    25
100
AcDbLine
 10
3638.2172248609
 20
3646.2596462578
 30
0.0
 11
3603.1172416455
 21
3646.2596462578
 31
0.0
  0
LINE
  5
518
330
1F
100
AcDbEntity
  8
0
  6
Continuous
 62
     8
370
    25
100
AcDbLine
 10
2463.3171103246
 20
3646.2596462578
 30
0.0
 11
2443.1171558148
 21
3646.2596462578
 31
0.0
  0
LINE
  5
519
330
1F
100
AcDbEntity
  8
0
  6
Continuous
 62
     8
370
    25
100
AcDbLine
 10
1303.317128802
 20
3646.2596462578
 30
0.0
 11
1268.2171306855
 21
3646.2596462578
 31
0.0
  0
LINE
  5
51A
330
1F
100
AcDbEntity
  8
0
  6
Continuous
 62
     8
370
    25
100
AcDbLine
 10
2463.3171103246
 20
3611.0361324162
 30
0.0
 11
2443.1171558148
 21
3611.0361324162
 31
0.0
  0
LINE
  5
51B
330
1F
100
AcDbEntity
  8
0
  6
Continuous
 62
     8
370
    25
100
AcDbLine
 10
1303.317128802
 20
3611.0361324162
 30
0.0
 11
1268.2171306855
 21
3611.0361324162
 31
0.0
  0
LINE
  5
51C
330
1F
100
AcDbEntity
  8
0
  6
Continuous
 62
     8
370
    25
100
AcDbLine
 10
3638.2172248609
 20
3611.0361324162
 30
0.0
 11
3603.1172416455
 21
3611.0361324162
 31
0.0
  0
LINE
  5
51D
330
1F
100
AcDbEntity
  8
0
  6
Continuous
 62
     8
370
    25
100
AcDbLine
 10
1303.317128802
 20
3664.7479341835
 30
0.0
 11
1268.2171306855
 21
3664.7479341835
 31
0.0
  0
LINE
  5
51E
330
1F
100
AcDbEntity
  8
0
  6
Continuous
 62
     8
370
    25
100
AcDbLine
 10
2463.3171103246
 20
3664.7479341835
 30
0.0
 11
2443.1171558148
 21
3664.7479341835
 31
0.0
  0
LINE
  5
51F
330
1F
100
AcDbEntity
  8
0
  6
Continuous
 62
     8
370
    25
100
AcDbLine
 10
3638.2172248609
 20
3664.7479341835
 30
0.0
 11
3603.1172416455
 21
3664.7479341835
 31
0.0
  0
LINE
  5
520
330
1F
100
AcDbEntity
  8
0
  6
Continuous
 62
     8
370
    25
100
AcDbLine
 10
3638.2172248609
 20
3704.4768141121
 30
0.0
 11
3603.1172416455
 21
3704.4768141121
 31
0.0
  0
LINE
  5
521
330
1F
100
AcDbEntity
  8
0
  6
Continuous
 62
     8
370
    25
100
AcDbLine
 10
2463.3171103246
 20
3704.4768141121
 30
0.0
 11
2443.1171558148
 21
3704.4768141121
 31
0.0
  0
LINE
  5
522
330
1F
100
AcDbEntity
  8
0
  6
Continuous
 62
     8
370
    25
100
AcDbLine
 10
1303.317128802
 20
3704.4768141121
 30
0.0
 11
1268.2171306855
 21
3704.4768141121
 31
0.0
  0
LINE
  5
523
330
1F
100
AcDbEntity
  8
0
  6
Continuous
 62
     8
370
    25
100
AcDbLine
 10
3638.2172248609
 20
3667.5334380478
 30
0.0
 11
3603.1172416455
 21
3667.5334380478
 31
0.0
  0
LINE
  5
524
330
1F
100
AcDbEntity
  8
0
  6
Continuous
 62
     8
370
    25
100
AcDbLine
 10
2463.3171103246
 20
3667.5334380478
 30
0.0
 11
2443.1171558148
 21
3667.5334380478
 31
0.0
  0
LINE
  5
525
330
1F
100
AcDbEntity
  8
0
  6
Continuous
 62
     8
370
    25
100
AcDbLine
 10
1303.317128802
 20
3667.5334380478
 30
0.0
 11
1268.2171306855
 21
3667.5334380478
 31
0.0
  0
DIMENSION
  5
526
330
1F
100
AcDbEntity
  8
0
  6
Continuous
 62
     7
370
    18
100
AcDbDimension
  2
_D_11
 10
6008.2171294933
 20
4243.9897115031
 30
0.0
 11
3686.9821268225
 21
4243.9897115026
 31
0.0
 70
   160
  1
<>
 71
     2
 42
-1.0
  3
SLDDIMSTYLE0
100
AcDbAlignedDimension
 13
1268.2171294934
 23
3646.2596687023
 33
0.0
 14
6008.2171294934
 24
3646.2596687024
 34
0.0
 50
0.0
100
AcDbRotatedDimension
  0
ENDSEC
  0
SECTION
  2
OBJECTS
  0
DICTIONARY
  5
C
330
0
100
AcDbDictionary
281
     1
  3
ACAD_GROUP
350
D
  3
ACAD_LAYOUT
350
1A
  3
ACAD_MLINESTYLE
350
17
  3
ACAD_PLOTSETTINGS
350
19
  3
ACAD_PLOTSTYLENAME
350
E
  3
ACAD_SCALELIST
350
47
  0
DICTIONARY
  5
D
102
{ACAD_REACTORS
330
C
102
}
330
C
100
AcDbDictionary
281
     1
  0
DICTIONARY
  5
1A
102
{ACAD_REACTORS
330
C
102
}
330
C
100
AcDbDictionary
281
     1
  3
Layout1
350
1E
  3
Layout2
350
26
  3
Model
350
22
  0
DICTIONARY
  5
17
102
{ACAD_REACTORS
330
C
102
}
330
C
100
AcDbDictionary
281
     1
  3
Standard
350
18
  0
DICTIONARY
  5
19
102
{ACAD_REACTORS
330
C
102
}
330
C
100
AcDbDictionary
281
     1
  0
ACDBDICTIONARYWDFLT
  5
E
102
{ACAD_REACTORS
330
C
102
}
330
C
100
AcDbDictionary
281
     1
  3
Normal
350
F
100
AcDbDictionaryWithDefault
340
F
  0
DICTIONARY
  5
47
102
{ACAD_REACTORS
330
C
102
}
330
C
100
AcDbDictionary
281
     1
  3
A0
350
48
  3
A1
350
49
  3
A2
350
4A
  3
A3
350
4B
  3
A4
350
4C
  3
A5
350
4D
  3
A6
350
4E
  3
A7
350
4F
  3
A8
350
50
  3
A9
350
51
  3
B0
350
52
  3
B1
350
53
  3
B2
350
54
  3
B3
350
55
  3
B4
350
56
  3
B5
350
57
  3
B6
350
58
  3
B7
350
59
  3
B8
350
5A
  3
B9
350
5B
  3
C0
350
5C
  3
C1
350
5D
  3
C2
350
5E
  3
C3
350
5F
  3
C4
350
60
  3
C5
350
61
  3
C6
350
62
  3
C7
350
63
  3
C8
350
64
  3
C9
350
65
  3
D0
350
66
  3
D1
350
67
  3
D2
350
68
  0
LAYOUT
  5
1E
102
{ACAD_REACTORS
330
1A
102
}
330
1A
100
AcDbPlotSettings
  1

  2
none_device
  4

  6

 40
0.0
 41
0.0
 42
0.0
 43
0.0
 44
0.0
 45
0.0
 46
0.0
 47
0.0
 48
0.0
 49
0.0
140
0.0
141
0.0
142
1.0
143
1.0
 70
   688
 72
     1
 73
     0
 74
     5
  7

 75
    16
147
1.0
148
0.0
149
0.0
100
AcDbLayout
  1
Layout1
 70
     1
 71
     1
 10
0.0
 20
0.0
 11
420.0
 21
297.0
 12
0.0
 22
0.0
 32
0.0
 14
1.0000000000E+20
 24
1.0000000000E+20
 34
1.0000000000E+20
 15
-1.0000000000E+20
 25
-1.0000000000E+20
 35
-1.0000000000E+20
146
0.0
 13
0.0
 23
0.0
 33
0.0
 16
1.0
 26
0.0
 36
0.0
 17
0.0
 27
1.0
 37
0.0
 76
     0
330
1B
  0
LAYOUT
  5
26
102
{ACAD_REACTORS
330
1A
102
}
330
1A
100
AcDbPlotSettings
  1

  2
none_device
  4

  6

 40
0.0
 41
0.0
 42
0.0
 43
0.0
 44
0.0
 45
0.0
 46
0.0
 47
0.0
 48
0.0
 49
0.0
140
0.0
141
0.0
142
1.0
143
1.0
 70
   688
 72
     1
 73
     0
 74
     5
  7

 75
    16
147
1.0
148
0.0
149
0.0
100
AcDbLayout
  1
Layout2
 70
     1
 71
     2
 10
0.0
 20
0.0
 11
0.0
 21
0.0
 12
0.0
 22
0.0
 32
0.0
 14
0.0
 24
0.0
 34
0.0
 15
0.0
 25
0.0
 35
0.0
146
0.0
 13
0.0
 23
0.0
 33
0.0
 16
1.0
 26
0.0
 36
0.0
 17
0.0
 27
1.0
 37
0.0
 76
     0
330
23
  0
LAYOUT
  5
22
102
{ACAD_REACTORS
330
1A
102
}
330
1A
100
AcDbPlotSettings
  1

  2
none_device
  4
Letter_(8.50_x_11.00_Inches)
  6

 40
6.35
 41
6.35
 42
6.35000508
 43
6.35000508
 44
215.9
 45
279.4
 46
0.0
 47
0.0
 48
0.0
 49
0.0
140
0.0
141
0.0
142
1.0
143
1.0
 70
  1712
 72
     1
 73
     0
 74
     0
  7

 75
     0
147
1.0
148
0.0
149
0.0
100
AcDbLayout
  1
Model
 70
     1
 71
     0
 10
0.0
 20
0.0
 11
14850.0
 21
10500.0
 12
0.0
 22
0.0
 32
0.0
 14
0.0
 24
0.0
 34
0.0
 15
14850.0
 25
10500.0
 35
0.0
146
0.0
 13
0.0
 23
0.0
 33
0.0
 16
1.0
 26
0.0
 36
0.0
 17
0.0
 27
1.0
 37
0.0
 76
     0
330
1F
331
29
  0
MLINESTYLE
  5
18
102
{ACAD_REACTORS
330
17
102
}
330
17
100
AcDbMlineStyle
  2
Standard
 70
     0
  3

 62
   256
 51
90.0
 52
90.0
 71
     2
 49
0.5
 62
   256
  6
BYLAYER
 49
-0.5
 62
   256
  6
BYLAYER
  0
ACDBPLACEHOLDER
  5
F
102
{ACAD_REACTORS
330
E
102
}
330
E
  0
SCALE
  5
48
102
{ACAD_REACTORS
330
47
102
}
330
47
100
AcDbScale
 70
     0
300
1:1
140
1.0
141
1.0
290
     1
  0
SCALE
  5
49
102
{ACAD_REACTORS
330
47
102
}
330
47
100
AcDbScale
 70
     0
300
1:2
140
1.0
141
2.0
290
     0
  0
SCALE
  5
4A
102
{ACAD_REACTORS
330
47
102
}
330
47
100
AcDbScale
 70
     0
300
1:4
140
1.0
141
4.0
290
     0
  0
SCALE
  5
4B
102
{ACAD_REACTORS
330
47
102
}
330
47
100
AcDbScale
 70
     0
300
1:5
140
1.0
141
5.0
290
     0
  0
SCALE
  5
4C
102
{ACAD_REACTORS
330
47
102
}
330
47
100
AcDbScale
 70
     0
300
1:8
140
1.0
141
8.0
290
     0
  0
SCALE
  5
4D
102
{ACAD_REACTORS
330
47
102
}
330
47
100
AcDbScale
 70
     0
300
1:10
140
1.0
141
10.0
290
     0
  0
SCALE
  5
4E
102
{ACAD_REACTORS
330
47
102
}
330
47
100
AcDbScale
 70
     0
300
1:16
140
1.0
141
16.0
290
     0
  0
SCALE
  5
4F
102
{ACAD_REACTORS
330
47
102
}
330
47
100
AcDbScale
 70
     0
300
1:20
140
1.0
141
20.0
290
     0
  0
SCALE
  5
50
102
{ACAD_REACTORS
330
47
102
}
330
47
100
AcDbScale
 70
     0
300
1:30
140
1.0
141
30.0
290
     0
  0
SCALE
  5
51
102
{ACAD_REACTORS
330
47
102
}
330
47
100
AcDbScale
 70
     0
300
1:40
140
1.0
141
40.0
290
     0
  0
SCALE
  5
52
102
{ACAD_REACTORS
330
47
102
}
330
47
100
AcDbScale
 70
     0
300
1:50
140
1.0
141
50.0
290
     0
  0
SCALE
  5
53
102
{ACAD_REACTORS
330
47
102
}
330
47
100
AcDbScale
 70
     0
300
1:100
140
1.0
141
100.0
290
     0
  0
SCALE
  5
54
102
{ACAD_REACTORS
330
47
102
}
330
47
100
AcDbScale
 70
     0
300
2:1
140
2.0
141
1.0
290
     0
  0
SCALE
  5
55
102
{ACAD_REACTORS
330
47
102
}
330
47
100
AcDbScale
 70
     0
300
4:1
140
4.0
141
1.0
290
     0
  0
SCALE
  5
56
102
{ACAD_REACTORS
330
47
102
}
330
47
100
AcDbScale
 70
     0
300
8:1
140
8.0
141
1.0
290
     0
  0
SCALE
  5
57
102
{ACAD_REACTORS
330
47
102
}
330
47
100
AcDbScale
 70
     0
300
10:1
140
10.0
141
1.0
290
     0
  0
SCALE
  5
58
102
{ACAD_REACTORS
330
47
102
}
330
47
100
AcDbScale
 70
     0
300
100:1
140
100.0
141
1.0
290
     0
  0
SCALE
  5
59
102
{ACAD_REACTORS
330
47
102
}
330
47
100
AcDbScale
 70
     0
300
1/128" = 1'-0"
140
0.0078125
141
12.0
290
     0
  0
SCALE
  5
5A
102
{ACAD_REACTORS
330
47
102
}
330
47
100
AcDbScale
 70
     0
300
1/64" = 1'-0"
140
0.015625
141
12.0
290
     0
  0
SCALE
  5
5B
102
{ACAD_REACTORS
330
47
102
}
330
47
100
AcDbScale
 70
     0
300
1/32" = 1'-0"
140
0.03125
141
12.0
290
     0
  0
SCALE
  5
5C
102
{ACAD_REACTORS
330
47
102
}
330
47
100
AcDbScale
 70
     0
300
1/16" = 1'-0"
140
0.0625
141
12.0
290
     0
  0
SCALE
  5
5D
102
{ACAD_REACTORS
330
47
102
}
330
47
100
AcDbScale
 70
     0
300
3/32" = 1'-0"
140
0.09375
141
12.0
290
     0
  0
SCALE
  5
5E
102
{ACAD_REACTORS
330
47
102
}
330
47
100
AcDbScale
 70
     0
300
1/8" = 1'-0"
140
0.125
141
12.0
290
     0
  0
SCALE
  5
5F
102
{ACAD_REACTORS
330
47
102
}
330
47
100
AcDbScale
 70
     0
300
3/16" = 1'-0"
140
0.1875
141
12.0
290
     0
  0
SCALE
  5
60
102
{ACAD_REACTORS
330
47
102
}
330
47
100
AcDbScale
 70
     0
300
1/4" = 1'-0"
140
0.25
141
12.0
290
     0
  0
SCALE
  5
61
102
{ACAD_REACTORS
330
47
102
}
330
47
100
AcDbScale
 70
     0
300
3/8" = 1'-0"
140
0.375
141
12.0
290
     0
  0
SCALE
  5
62
102
{ACAD_REACTORS
330
47
102
}
330
47
100
AcDbScale
 70
     0
300
1/2" = 1'-0"
140
0.5
141
12.0
290
     0
  0
SCALE
  5
63
102
{ACAD_REACTORS
330
47
102
}
330
47
100
AcDbScale
 70
     0
300
3/4" = 1'-0"
140
0.75
141
12.0
290
     0
  0
SCALE
  5
64
102
{ACAD_REACTORS
330
47
102
}
330
47
100
AcDbScale
 70
     0
300
1" = 1'-0"
140
1.0
141
12.0
290
     0
  0
SCALE
  5
65
102
{ACAD_REACTORS
330
47
102
}
330
47
100
AcDbScale
 70
     0
300
1-1/2" = 1'-0"
140
1.5
141
12.0
290
     0
  0
SCALE
  5
66
102
{ACAD_REACTORS
330
47
102
}
330
47
100
AcDbScale
 70
     0
300
3" = 1'-0"
140
3.0
141
12.0
290
     0
  0
SCALE
  5
67
102
{ACAD_REACTORS
330
47
102
}
330
47
100
AcDbScale
 70
     0
300
6" = 1'-0"
140
6.0
141
12.0
290
     0
  0
SCALE
  5
68
102
{ACAD_REACTORS
330
47
102
}
330
47
100
AcDbScale
 70
     0
300
1'-0" = 1'-0"
140
12.0
141
12.0
290
     0
  0
ENDSEC
  0
EOF
