  0
SECTION
  2
HEADER
  9
$ACADVER
  1
AC1015
  9
$ACADMAINTVER
 70
     6
  9
$DWGCODEPAGE
  3
ANSI_1250
  9
$INSBASE
 10
0.0
 20
0.0
 30
0.0
  9
$EXTMIN
 10
0.0
 20
0.0
 30
0.0
  9
$EXTMAX
 10
14850.0
 20
10500.0
 30
0.0
  9
$LIMMIN
 10
0.0
 20
0.0
  9
$LIMMAX
 10
14850.0
 20
10500.0
  9
$ORTHOMODE
 70
     0
  9
$REGENMODE
 70
     1
  9
$FILLMODE
 70
     1
  9
$QTEXTMODE
 70
     0
  9
$MIRRTEXT
 70
     1
  9
$LTSCALE
 40
25.0
  9
$ATTMODE
 70
     1
  9
$TEXTSIZE
 40
112.5
  9
$TRACEWID
 40
1.0
  9
$TEXTSTYLE
  7
Standard
  9
$CLAYER
  8
0
  9
$CELTYPE
  6
ByLayer
  9
$CECOLOR
 62
   256
  9
$CELTSCALE
 40
1.0
  9
$DISPSILH
 70
     0
  9
$DIMSCALE
 40
1.0
  9
$DIMASZ
 40
82.55
  9
$DIMEXO
 40
25.0
  9
$DIMDLI
 40
3.75
  9
$DIMRND
 40
0.0
  9
$DIMDLE
 40
0.0
  9
$DIMEXE
 40
25.0
  9
$DIMTP
 40
0.0
  9
$DIMTM
 40
0.0
  9
$DIMTXT
 40
112.5
  9
$DIMCEN
 40
2.5
  9
$DIMTSZ
 40
0.0
  9
$DIMTOL
 70
     0
  9
$DIMLIM
 70
     0
  9
$DIMTIH
 70
     1
  9
$DIMTOH
 70
     1
  9
$DIMSE1
 70
     0
  9
$DIMSE2
 70
     0
  9
$DIMTAD
 70
     1
  9
$DIMZIN
 70
     1
  9
$DIMBLK
  1

  9
$DIMASO
 70
     1
  9
$DIMSHO
 70
     1
  9
$DIMPOST
  1

  9
$DIMAPOST
  1

  9
$DIMALT
 70
     0
  9
$DIMALTD
 70
     3
  9
$DIMALTF
 40
0.0393700787
  9
$DIMLFAC
 40
1.0
  9
$DIMTOFL
 70
     1
  9
$DIMTVP
 40
0.0
  9
$DIMTIX
 70
     0
  9
$DIMSOXD
 70
     0
  9
$DIMSAH
 70
     0
  9
$DIMBLK1
  1

  9
$DIMBLK2
  1

  9
$DIMSTYLE
  2
ISO-25
  9
$DIMCLRD
 70
     0
  9
$DIMCLRE
 70
     0
  9
$DIMCLRT
 70
     0
  9
$DIMTFAC
 40
1.0
  9
$DIMGAP
 40
38.1
  9
$DIMJUST
 70
     0
  9
$DIMSD1
 70
     0
  9
$DIMSD2
 70
     0
  9
$DIMTOLJ
 70
     0
  9
$DIMTZIN
 70
     1
  9
$DIMALTZ
 70
     0
  9
$DIMALTTZ
 70
     0
  9
$DIMUPT
 70
     0
  9
$DIMDEC
 70
     0
  9
$DIMTDEC
 70
     0
  9
$DIMALTU
 70
     2
  9
$DIMALTTD
 70
     3
  9
$DIMTXSTY
  7
Standard
  9
$DIMAUNIT
 70
     0
  9
$DIMADEC
 70
     2
  9
$DIMALTRND
 40
0.0
  9
$DIMAZIN
 70
     0
  9
$DIMDSEP
 70
    44
  9
$DIMATFIT
 70
     3
  9
$DIMFRAC
 70
     0
  9
$DIMLDRBLK
  1

  9
$DIMLUNIT
 70
     2
  9
$DIMLWD
 70
    -2
  9
$DIMLWE
 70
    -2
  9
$DIMTMOVE
 70
     0
  9
$LUNITS
 70
     2
  9
$LUPREC
 70
     2
  9
$SKETCHINC
 40
1.0
  9
$FILLETRAD
 40
10.0
  9
$AUNITS
 70
     0
  9
$AUPREC
 70
     2
  9
$MENU
  1
.
  9
$ELEVATION
 40
0.0
  9
$PELEVATION
 40
0.0
  9
$THICKNESS
 40
0.0
  9
$LIMCHECK
 70
     0
  9
$CHAMFERA
 40
0.0
  9
$CHAMFERB
 40
0.0
  9
$CHAMFERC
 40
0.0
  9
$CHAMFERD
 40
0.0
  9
$SKPOLY
 70
     0
  9
$TDCREATE
 40
2460695.896034283
  9
$TDUCREATE
 40
2460695.854367616
  9
$TDUPDATE
 40
2460695.89603522
  9
$TDUUPDATE
 40
2460695.854368553
  9
$TDINDWG
 40
0.0000000116
  9
$TDUSRTIMER
 40
0.0000000116
  9
$USRTIMER
 70
     1
  9
$ANGBASE
 50
0.0
  9
$ANGDIR
 70
     0
  9
$PDMODE
 70
     0
  9
$PDSIZE
 40
-1.0
  9
$PLINEWID
 40
0.0
  9
$SPLFRAME
 70
     0
  9
$SPLINETYPE
 70
     6
  9
$SPLINESEGS
 70
     8
  9
$HANDSEED
  5
533
  9
$SURFTAB1
 70
     6
  9
$SURFTAB2
 70
     6
  9
$SURFTYPE
 70
     6
  9
$SURFU
 70
     6
  9
$SURFV
 70
     6
  9
$UCSBASE
  2

  9
$UCSNAME
  2

  9
$UCSORG
 10
0.0
 20
0.0
 30
0.0
  9
$UCSXDIR
 10
1.0
 20
0.0
 30
0.0
  9
$UCSYDIR
 10
0.0
 20
1.0
 30
0.0
  9
$UCSORTHOREF
  2

  9
$UCSORTHOVIEW
 70
     0
  9
$UCSORGTOP
 10
0.0
 20
0.0
 30
0.0
  9
$UCSORGBOTTOM
 10
0.0
 20
0.0
 30
0.0
  9
$UCSORGLEFT
 10
0.0
 20
0.0
 30
0.0
  9
$UCSORGRIGHT
 10
0.0
 20
0.0
 30
0.0
  9
$UCSORGFRONT
 10
0.0
 20
0.0
 30
0.0
  9
$UCSORGBACK
 10
0.0
 20
0.0
 30
0.0
  9
$PUCSBASE
  2

  9
$PUCSNAME
  2

  9
$PUCSORG
 10
0.0
 20
0.0
 30
0.0
  9
$PUCSXDIR
 10
1.0
 20
0.0
 30
0.0
  9
$PUCSYDIR
 10
0.0
 20
1.0
 30
0.0
  9
$PUCSORTHOREF
  2

  9
$PUCSORTHOVIEW
 70
     0
  9
$PUCSORGTOP
 10
0.0
 20
0.0
 30
0.0
  9
$PUCSORGBOTTOM
 10
0.0
 20
0.0
 30
0.0
  9
$PUCSORGLEFT
 10
0.0
 20
0.0
 30
0.0
  9
$PUCSORGRIGHT
 10
0.0
 20
0.0
 30
0.0
  9
$PUCSORGFRONT
 10
0.0
 20
0.0
 30
0.0
  9
$PUCSORGBACK
 10
0.0
 20
0.0
 30
0.0
  9
$USERI1
 70
     0
  9
$USERI2
 70
     0
  9
$USERI3
 70
     0
  9
$USERI4
 70
     0
  9
$USERI5
 70
     0
  9
$USERR1
 40
0.0
  9
$USERR2
 40
0.0
  9
$USERR3
 40
0.0
  9
$USERR4
 40
0.0
  9
$USERR5
 40
0.0
  9
$WORLDVIEW
 70
     1
  9
$SHADEDGE
 70
     3
  9
$SHADEDIF
 70
    70
  9
$TILEMODE
 70
     1
  9
$MAXACTVP
 70
    64
  9
$PINSBASE
 10
0.0
 20
0.0
 30
0.0
  9
$PLIMCHECK
 70
     0
  9
$PEXTMIN
 10
1.0000000000E+20
 20
1.0000000000E+20
 30
1.0000000000E+20
  9
$PEXTMAX
 10
-1.0000000000E+20
 20
-1.0000000000E+20
 30
-1.0000000000E+20
  9
$PLIMMIN
 10
0.0
 20
0.0
  9
$PLIMMAX
 10
420.0
 20
297.0
  9
$UNITMODE
 70
     0
  9
$VISRETAIN
 70
     1
  9
$PLINEGEN
 70
     0
  9
$PSLTSCALE
 70
     1
  9
$TREEDEPTH
 70
  3020
  9
$CMLSTYLE
  2
Standard
  9
$CMLJUST
 70
     0
  9
$CMLSCALE
 40
20.0
  9
$PROXYGRAPHICS
 70
     1
  9
$MEASUREMENT
 70
     1
  9
$CELWEIGHT
370
    -1
  9
$ENDCAPS
280
     0
  9
$JOINSTYLE
280
     0
  9
$LWDISPLAY
290
     1
  9
$INSUNITS
 70
     4
  9
$HYPERLINKBASE
  1

  9
$STYLESHEET
  1

  9
$XEDIT
290
     1
  9
$CEPSNTYPE
380
     0
  9
$PSTYLEMODE
290
     1
  9
$FINGERPRINTGUID
  2
{3e566fce-638e-4c2d-bc8e-fef647dd48ed}
  9
$VERSIONGUID
  2
{FAEB1C32-E019-11D5-929B-00C0DF256EC4}
  9
$EXTNAMES
290
     1
  9
$PSVPSCALE
 40
0.0
  9
$OLESTARTUP
290
     0
  0
ENDSEC
  0
SECTION
  2
CLASSES
  0
CLASS
  1
ACDBDICTIONARYWDFLT
  2
AcDbDictionaryWithDefault
  3
ObjectDBX Classes
 90
        0
280
     0
281
     0
  0
CLASS
  1
VISUALSTYLE
  2
AcDbVisualStyle
  3
ObjectDBX Classes
 90
     4095
280
     0
281
     0
  0
CLASS
  1
MATERIAL
  2
AcDbMaterial
  3
ObjectDBX Classes
 90
     1153
280
     0
281
     0
  0
CLASS
  1
SCALE
  2
AcDbScale
  3
ObjectDBX Classes
 90
     1153
280
     0
281
     0
  0
CLASS
  1
TABLESTYLE
  2
AcDbTableStyle
  3
ObjectDBX Classes
 90
     4095
280
     0
281
     0
  0
CLASS
  1
MLEADERSTYLE
  2
AcDbMLeaderStyle
  3
ACDB_MLEADERSTYLE_CLASS
 90
     4095
280
     0
281
     0
  0
CLASS
  1
SUN
  2
AcDbSun
  3
SCENEOE
 90
     1153
280
     0
281
     0
  0
CLASS
  1
ACDBPLACEHOLDER
  2
AcDbPlaceHolder
  3
ObjectDBX Classes
 90
        0
280
     0
281
     0
  0
CLASS
  1
LAYOUT
  2
AcDbLayout
  3
ObjectDBX Classes
 90
        0
280
     0
281
     0
  0
ENDSEC
  0
SECTION
  2
TABLES
  0
TABLE
  2
VPORT
  5
8
330
0
100
AcDbSymbolTable
 70
     1
  0
VPORT
  5
29
330
8
100
AcDbSymbolTableRecord
100
AcDbViewportTableRecord
  2
*Active
 70
     0
 10
0.0
 20
0.0
 11
1.0
 21
1.0
 12
7425.0
 22
5250.0
 13
0.0
 23
0.0
 14
10.0
 24
10.0
 15
10.0
 25
10.0
 16
0.0
 26
0.0
 36
1.0
 17
0.0
 27
0.0
 37
0.0
 40
10500.0
 41
1.4142857143
 42
50.0
 43
0.0
 44
0.0
 50
0.0
 51
0.0
 71
     0
 72
  2000
 73
     1
 74
     3
 75
     0
 76
     0
 77
     0
 78
     0
281
     0
 65
     1
110
0.0
120
0.0
130
0.0
111
1.0
121
0.0
131
0.0
112
0.0
122
1.0
132
0.0
 79
     0
146
0.0
  0
ENDTAB
  0
TABLE
  2
LTYPE
  5
5
330
0
100
AcDbSymbolTable
 70
     6
  0
LTYPE
  5
14
330
5
100
AcDbSymbolTableRecord
100
AcDbLinetypeTableRecord
  2
ByBlock
 70
     0
  3

 72
    65
 73
     0
 40
0.0
  0
LTYPE
  5
15
330
5
100
AcDbSymbolTableRecord
100
AcDbLinetypeTableRecord
  2
ByLayer
 70
     0
  3

 72
    65
 73
     0
 40
0.0
  0
LTYPE
  5
16
330
5
100
AcDbSymbolTableRecord
100
AcDbLinetypeTableRecord
  2
Continuous
 70
     0
  3
Solid line
 72
    65
 73
     0
 40
0.0
  0
LTYPE
  5
6E
330
5
100
AcDbSymbolTableRecord
100
AcDbLinetypeTableRecord
  2
HIDDEN
 70
     0
  3
Hidden __ __ __ __ __ __ __ __ __ __ __ __ __ __
 72
    65
 73
     2
 40
1.905
 49
1.27
 74
     0
 49
-0.635
 74
     0
  0
LTYPE
  5
6F
330
5
100
AcDbSymbolTableRecord
100
AcDbLinetypeTableRecord
  2
PHANTOM
 70
     0
  3
Phantom ______  __  __  ______  __  __  ______
 72
    65
 73
     6
 40
12.7
 49
6.35
 74
     0
 49
-1.27
 74
     0
 49
1.27
 74
     0
 49
-1.27
 74
     0
 49
1.27
 74
     0
 49
-1.27
 74
     0
  0
LTYPE
  5
70
330
5
100
AcDbSymbolTableRecord
100
AcDbLinetypeTableRecord
  2
CENTER
 70
     0
  3
Center ____ _ ____ _ ____ _ ____ _ ____ _ ____
 72
    65
 73
     4
 40
10.16
 49
6.35
 74
     0
 49
-1.27
 74
     0
 49
1.27
 74
     0
 49
-1.27
 74
     0
  0
LTYPE
  5
71
330
5
100
AcDbSymbolTableRecord
100
AcDbLinetypeTableRecord
  2
CENTERX2
 70
     0
  3
Center (2x) ________  __  ________  __  _____
 72
    65
 73
     4
 40
20.32
 49
12.7
 74
     0
 49
-2.54
 74
     0
 49
2.54
 74
     0
 49
-2.54
 74
     0
  0
LTYPE
  5
72
330
5
100
AcDbSymbolTableRecord
100
AcDbLinetypeTableRecord
  2
DOT2
 70
     0
  3
Dot (.5x) ........................................
 72
    65
 73
     2
 40
0.635
 49
0.0
 74
     0
 49
-0.635
 74
     0
  0
ENDTAB
  0
TABLE
  2
LAYER
  5
2
330
0
100
AcDbSymbolTable
 70
     2
  0
LAYER
  5
10
330
2
100
AcDbSymbolTableRecord
100
AcDbLayerTableRecord
  2
0
 70
     0
 62
     7
  6
Continuous
370
    -3
390
F
  0
LAYER
  5
73
330
2
100
AcDbSymbolTableRecord
100
AcDbLayerTableRecord
  2
FORMAT
 70
     0
 62
     7
  6
Continuous
370
    -3
390
F
  0
ENDTAB
  0
TABLE
  2
STYLE
  5
3
330
0
100
AcDbSymbolTable
 70
     2
  0
STYLE
  5
11
330
3
100
AcDbSymbolTableRecord
100
AcDbTextStyleTableRecord
  2
Standard
 70
     0
 40
0.0
 41
1.0
 50
0.0
 71
     0
 42
112.5
  3
txt
  4

  0
STYLE
  5
147
330
3
100
AcDbSymbolTableRecord
100
AcDbTextStyleTableRecord
  2
SLDTEXTSTYLE0
 70
     0
 40
0.0
 41
0.75
 50
0.0
 71
     0
 42
112.5
  3
TXT
  4

  0
ENDTAB
  0
TABLE
  2
VIEW
  5
6
330
0
100
AcDbSymbolTable
 70
     0
  0
ENDTAB
  0
TABLE
  2
UCS
  5
7
330
0
100
AcDbSymbolTable
 70
     0
  0
ENDTAB
  0
TABLE
  2
APPID
  5
9
330
0
100
AcDbSymbolTable
 70
     1
  0
APPID
  5
12
330
9
100
AcDbSymbolTableRecord
100
AcDbRegAppTableRecord
  2
ACAD
 70
     0
  0
ENDTAB
  0
TABLE
  2
DIMSTYLE
  5
A
330
0
100
AcDbSymbolTable
 70
     3
100
AcDbDimStyleTable
  0
DIMSTYLE
105
27
330
A
100
AcDbSymbolTableRecord
100
AcDbDimStyleTableRecord
  2
ISO-25
 70
     0
 41
2.5
 42
0.625
 43
3.75
 44
1.25
 73
     0
 74
     0
 77
     1
 78
     8
140
2.5
141
2.5
143
0.0393700787
147
0.625
171
     3
172
     1
178
     0
271
     2
272
     2
274
     3
278
    44
283
     0
284
     8
340
11
  0
DIMSTYLE
105
148
102
{ACAD_REACTORS
330
146
330
151
330
15B
330
164
330
176
330
180
330
18A
330
3A7
330
3B1
330
3BB
330
529
102
}
330
A
100
AcDbSymbolTableRecord
100
AcDbDimStyleTableRecord
  2
SLDDIMSTYLE0
 70
     0
 41
82.55
 44
0.0
 45
0.000000001
 73
     0
 74
     0
 77
     1
 78
    12
 79
     3
140
112.5
147
28.125
173
     1
178
     0
271
     0
272
     0
276
     2
284
    12
340
147
  0
DIMSTYLE
105
16E
102
{ACAD_REACTORS
330
16D
102
}
330
A
100
AcDbSymbolTableRecord
100
AcDbDimStyleTableRecord
  2
SLDDIMSTYLE1
 70
     0
 41
82.55
 44
0.0
 73
     0
 74
     0
 77
     1
 78
    12
 79
     3
140
112.5
144
25.0
147
28.125
173
     1
178
     0
179
     2
272
     2
276
     2
284
    12
340
147
  0
ENDTAB
  0
TABLE
  2
BLOCK_RECORD
  5
1
330
0
100
AcDbSymbolTable
 70
    13
  0
BLOCK_RECORD
  5
1F
330
1
100
AcDbSymbolTableRecord
100
AcDbBlockTableRecord
  2
*Model_Space
340
22
  0
BLOCK_RECORD
  5
1B
330
1
100
AcDbSymbolTableRecord
100
AcDbBlockTableRecord
  2
*Paper_Space
340
1E
  0
BLOCK_RECORD
  5
23
330
1
100
AcDbSymbolTableRecord
100
AcDbBlockTableRecord
  2
*Paper_Space0
340
26
  0
BLOCK_RECORD
  5
149
330
1
100
AcDbSymbolTableRecord
100
AcDbBlockTableRecord
  2
_D
340
0
  0
BLOCK_RECORD
  5
152
330
1
100
AcDbSymbolTableRecord
100
AcDbBlockTableRecord
  2
_D_1
340
0
  0
BLOCK_RECORD
  5
15C
330
1
100
AcDbSymbolTableRecord
100
AcDbBlockTableRecord
  2
_D_2
340
0
  0
BLOCK_RECORD
  5
165
330
1
100
AcDbSymbolTableRecord
100
AcDbBlockTableRecord
  2
_D_3
340
0
  0
BLOCK_RECORD
  5
16F
330
1
100
AcDbSymbolTableRecord
100
AcDbBlockTableRecord
  2
_D_4
340
0
  0
BLOCK_RECORD
  5
177
330
1
100
AcDbSymbolTableRecord
100
AcDbBlockTableRecord
  2
_D_5
340
0
  0
BLOCK_RECORD
  5
181
330
1
100
AcDbSymbolTableRecord
100
AcDbBlockTableRecord
  2
_D_6
340
0
  0
BLOCK_RECORD
  5
18B
330
1
100
AcDbSymbolTableRecord
100
AcDbBlockTableRecord
  2
_D_7
340
0
  0
BLOCK_RECORD
  5
3A8
330
1
100
AcDbSymbolTableRecord
100
AcDbBlockTableRecord
  2
_D_8
340
0
  0
BLOCK_RECORD
  5
3B2
330
1
100
AcDbSymbolTableRecord
100
AcDbBlockTableRecord
  2
_D_9
340
0
  0
BLOCK_RECORD
  5
3BC
330
1
100
AcDbSymbolTableRecord
100
AcDbBlockTableRecord
  2
_D_10
340
0
  0
BLOCK_RECORD
  5
52A
330
1
100
AcDbSymbolTableRecord
100
AcDbBlockTableRecord
  2
_D_11
340
0
  0
ENDTAB
  0
ENDSEC
  0
SECTION
  2
BLOCKS
  0
BLOCK
  5
20
330
1F
100
AcDbEntity
  8
0
100
AcDbBlockBegin
  2
*Model_Space
 70
     0
 10
0.0
 20
0.0
 30
0.0
  3
*Model_Space
  1

  0
ENDBLK
  5
21
330
1F
100
AcDbEntity
  8
0
100
AcDbBlockEnd
  0
BLOCK
  5
1C
330
1B
100
AcDbEntity
 67
     1
  8
0
100
AcDbBlockBegin
  2
*Paper_Space
 70
     0
 10
0.0
 20
0.0
 30
0.0
  3
*Paper_Space
  1

  0
ENDBLK
  5
1D
330
1B
100
AcDbEntity
 67
     1
  8
0
100
AcDbBlockEnd
  0
BLOCK
  5
24
330
23
100
AcDbEntity
  8
0
100
AcDbBlockBegin
  2
*Paper_Space0
 70
     0
 10
0.0
 20
0.0
 30
0.0
  3
*Paper_Space0
  1

  0
ENDBLK
  5
25
330
23
100
AcDbEntity
  8
0
100
AcDbBlockEnd
  0
BLOCK
  5
14A
330
149
100
AcDbEntity
  8
0
100
AcDbBlockBegin
  2
_D
 70
     0
 10
0.0
 20
0.0
 30
0.0
  3
_D
  1

  0
SOLID
  5
14C
330
149
100
AcDbEntity
  8
0
  6
Continuous
 62
     7
370
    18
100
AcDbTrace
 10
9389.7071887248
 20
8291.59709438
 30
0.0
 11
9377.0071887248
 21
8209.04709438
 31
0.0
 12
9402.4071887248
 22
8209.04709438
 32
0.0
 13
9402.4071887248
 23
8209.04709438
 33
0.0
  0
SOLID
  5
14D
330
149
100
AcDbEntity
  8
0
  6
Continuous
 62
     7
370
    18
100
AcDbTrace
 10
9389.7071887248
 20
7744.0570771326
 30
0.0
 11
9402.4071887248
 21
7826.6070771326
 31
0.0
 12
9377.0071887248
 22
7826.6070771326
 32
0.0
 13
9377.0071887248
 23
7826.6070771326
 33
0.0
  0
LINE
  5
14E
330
149
100
AcDbEntity
  8
0
  6
Continuous
 62
     7
370
     0
100
AcDbLine
 10
9252.0197226734
 20
8291.59709438
 30
0.0
 11
9414.7071887248
 21
8291.59709438
 31
0.0
  0
LINE
  5
14F
330
149
100
AcDbEntity
  8
0
  6
Continuous
 62
     7
370
     0
100
AcDbLine
 10
9389.7071887248
 20
8291.59709438
 30
0.0
 11
9389.7071887248
 21
7744.0570771326
 31
0.0
  0
MTEXT
  5
150
330
149
100
AcDbEntity
  8
0
  6
Continuous
 62
     7
370
    18
100
AcDbMText
 10
9244.6870738212
 20
7891.2354474411
 30
0.0
 40
112.5
 41
0.0
 71
     1
 72
     1
  1
548
  7
SLDTEXTSTYLE0
 11
-3.491481338843133E-15
 21
1.0
 31
0.0
 73
     1
 44
1.0
  0
ENDBLK
  5
14B
330
149
100
AcDbEntity
  8
0
100
AcDbBlockEnd
  0
BLOCK
  5
153
330
152
100
AcDbEntity
  8
0
100
AcDbBlockBegin
  2
_D_1
 70
     0
 10
0.0
 20
0.0
 30
0.0
  3
_D_1
  1

  0
SOLID
  5
155
330
152
100
AcDbEntity
  8
0
  6
Continuous
 62
     7
370
    18
100
AcDbTrace
 10
9627.0197226735
 20
8426.2060782286
 30
0.0
 11
9614.3197226735
 21
8343.6560782286
 31
0.0
 12
9639.7197226735
 22
8343.6560782286
 32
0.0
 13
9639.7197226735
 23
8343.6560782286
 33
0.0
  0
SOLID
  5
156
330
152
100
AcDbEntity
  8
0
  6
Continuous
 62
     7
370
    18
100
AcDbTrace
 10
9627.0197226735
 20
7744.0570771326
 30
0.0
 11
9639.7197226735
 21
7826.6070771326
 31
0.0
 12
9614.3197226735
 22
7826.6070771326
 32
0.0
 13
9614.3197226735
 23
7826.6070771326
 33
0.0
  0
LINE
  5
157
330
152
100
AcDbEntity
  8
0
  6
Continuous
 62
     7
370
     0
100
AcDbLine
 10
8938.8701234924
 20
8426.2060782286
 30
0.0
 11
9652.0197226735
 21
8426.2060782286
 31
0.0
  0
LINE
  5
158
330
152
100
AcDbEntity
  8
0
  6
Continuous
 62
     7
370
     0
100
AcDbLine
 10
9425.226473656
 20
7744.0570771326
 30
0.0
 11
9652.0197226735
 21
7744.0570771326
 31
0.0
  0
LINE
  5
159
330
152
100
AcDbEntity
  8
0
  6
Continuous
 62
     7
370
     0
100
AcDbLine
 10
9627.0197226735
 20
8426.2060782286
 30
0.0
 11
9627.0197226735
 21
7744.0570771326
 31
0.0
  0
MTEXT
  5
15A
330
152
100
AcDbEntity
  8
0
  6
Continuous
 62
     7
370
    18
100
AcDbMText
 10
9481.9996077699
 20
7950.0720248382
 30
0.0
 40
112.5
 41
0.0
 71
     1
 72
     1
  1
682
  7
SLDTEXTSTYLE0
 11
-3.491481338843133E-15
 21
1.0
 31
0.0
 73
     1
 44
1.0
  0
ENDBLK
  5
154
330
152
100
AcDbEntity
  8
0
100
AcDbBlockEnd
  0
BLOCK
  5
15D
330
15C
100
AcDbEntity
  8
0
100
AcDbBlockBegin
  2
_D_2
 70
     0
 10
0.0
 20
0.0
 30
0.0
  3
_D_2
  1

  0
SOLID
  5
15F
330
15C
100
AcDbEntity
  8
0
  6
Continuous
 62
     7
370
    18
100
AcDbTrace
 10
7211.7800900169
 20
9184.7060782286
 30
0.0
 11
7199.0800900169
 21
9102.1560782286
 31
0.0
 12
7224.4800900169
 22
9102.1560782286
 32
0.0
 13
7224.4800900169
 23
9102.1560782286
 33
0.0
  0
SOLID
  5
160
330
15C
100
AcDbEntity
  8
0
  6
Continuous
 62
     7
370
    18
100
AcDbTrace
 10
7211.7800900169
 20
7744.0570771326
 30
0.0
 11
7224.4800900169
 21
7826.6070771326
 31
0.0
 12
7199.0800900169
 22
7826.6070771326
 32
0.0
 13
7199.0800900169
 23
7826.6070771326
 33
0.0
  0
LINE
  5
161
330
15C
100
AcDbEntity
  8
0
  6
Continuous
 62
     7
370
     0
100
AcDbLine
 10
7575.1095859514
 20
9184.7060782286
 30
0.0
 11
7186.7800900169
 21
9184.7060782286
 31
0.0
  0
LINE
  5
162
330
15C
100
AcDbEntity
  8
0
  6
Continuous
 62
     7
370
     0
100
AcDbLine
 10
7211.7800900169
 20
9184.7060782286
 30
0.0
 11
7211.7800900169
 21
7744.0570771326
 31
0.0
  0
MTEXT
  5
163
330
15C
100
AcDbEntity
  8
0
  6
Continuous
 62
     7
370
    18
100
AcDbMText
 10
7066.7599751133
 20
8302.0297383657
 30
0.0
 40
112.5
 41
0.0
 71
     1
 72
     1
  1
1441
  7
SLDTEXTSTYLE0
 11
-3.491481338843133E-15
 21
1.0
 31
0.0
 73
     1
 44
1.0
  0
ENDBLK
  5
15E
330
15C
100
AcDbEntity
  8
0
100
AcDbBlockEnd
  0
BLOCK
  5
166
330
165
100
AcDbEntity
  8
0
100
AcDbBlockBegin
  2
_D_3
 70
     0
 10
0.0
 20
0.0
 30
0.0
  3
_D_3
  1

  0
SOLID
  5
168
330
165
100
AcDbEntity
  8
0
  6
Continuous
 62
     7
370
    18
100
AcDbTrace
 10
6887.9753461309
 20
9431.59709438
 30
0.0
 11
6875.2753461309
 21
9349.04709438
 31
0.0
 12
6900.6753461309
 22
9349.04709438
 32
0.0
 13
6900.6753461309
 23
9349.04709438
 33
0.0
  0
SOLID
  5
169
330
165
100
AcDbEntity
  8
0
  6
Continuous
 62
     7
370
    18
100
AcDbTrace
 10
6887.9753461309
 20
7744.0570771326
 30
0.0
 11
6900.6753461309
 21
7826.6070771326
 31
0.0
 12
6875.2753461309
 22
7826.6070771326
 32
0.0
 13
6875.2753461309
 23
7826.6070771326
 33
0.0
  0
LINE
  5
16A
330
165
100
AcDbEntity
  8
0
  6
Continuous
 62
     7
370
     0
100
AcDbLine
 10
7227.4818020449
 20
9431.59709438
 30
0.0
 11
6862.9753461309
 21
9431.59709438
 31
0.0
  0
LINE
  5
16B
330
165
100
AcDbEntity
  8
0
  6
Continuous
 62
     7
370
     0
100
AcDbLine
 10
6887.9753461309
 20
9431.59709438
 30
0.0
 11
6887.9753461309
 21
7744.0570771326
 31
0.0
  0
MTEXT
  5
16C
330
165
100
AcDbEntity
  8
0
  6
Continuous
 62
     7
370
    18
100
AcDbMText
 10
6742.9552312274
 20
8261.1111335563
 30
0.0
 40
112.5
 41
0.0
 71
     1
 72
     1
  1
1688
  7
SLDTEXTSTYLE0
 11
-3.491481338843133E-15
 21
1.0
 31
0.0
 73
     1
 44
1.0
  0
ENDBLK
  5
167
330
165
100
AcDbEntity
  8
0
100
AcDbBlockEnd
  0
BLOCK
  5
170
330
16F
100
AcDbEntity
  8
0
100
AcDbBlockBegin
  2
_D_4
 70
     0
 10
0.0
 20
0.0
 30
0.0
  3
_D_4
  1

  0
ARC
  5
172
330
16F
100
AcDbEntity
  8
0
  6
Continuous
 62
     7
370
    18
100
AcDbCircle
 10
9674.3868517231
 20
7744.0570771326
 30
0.0
 40
2133.59763723355
100
AcDbArc
 50
150.0
 51
180.0
  0
SOLID
  5
173
330
16F
100
AcDbEntity
  8
0
  6
Continuous
 62
     7
370
    18
100
AcDbTrace
 10
7826.6370964244
 20
8810.8558957494
 30
0.0
 11
7775.632796308
 21
8744.7169974395
 31
0.0
 12
7797.8712767302
 22
8732.4446713148
 32
0.0
 13
7797.8712767302
 23
8732.4446713148
 33
0.0
  0
SOLID
  5
174
330
16F
100
AcDbEntity
  8
0
  6
Continuous
 62
     7
370
    18
100
AcDbTrace
 10
7540.7892144896
 20
7744.0570771326
 30
0.0
 11
7555.082896091
 21
7826.3460992818
 31
0.0
 12
7529.6876440415
 22
7826.8371933054
 32
0.0
 13
7529.6876440415
 23
7826.8371933054
 33
0.0
  0
MTEXT
  5
175
330
16F
100
AcDbEntity
  8
0
  6
Continuous
 62
     7
370
    18
100
AcDbMText
 10
7448.1799030138
 20
8242.9546104959
 30
0.0
 40
112.5
 41
0.0
 71
     1
 72
     1
  1
30°
  7
SLDTEXTSTYLE0
 11
0.2667942675331984
 21
0.9637535052135604
 31
0.0
 73
     1
 44
1.0
  0
ENDBLK
  5
171
330
16F
100
AcDbEntity
  8
0
100
AcDbBlockEnd
  0
BLOCK
  5
178
330
177
100
AcDbEntity
  8
0
100
AcDbBlockBegin
  2
_D_5
 70
     0
 10
0.0
 20
0.0
 30
0.0
  3
_D_5
  1

  0
SOLID
  5
17A
330
177
100
AcDbEntity
  8
0
  6
Continuous
 62
     7
370
    18
100
AcDbTrace
 10
7344.3334397804
 20
9590.6887976961
 30
0.0
 11
7409.4738368628
 21
9538.415275068
 31
0.0
 12
7422.1738368628
 22
9560.4123203241
 32
0.0
 13
7422.1738368628
 23
9560.4123203241
 33
0.0
  0
SOLID
  5
17B
330
177
100
AcDbEntity
  8
0
  6
Continuous
 62
     7
370
    18
100
AcDbTrace
 10
9318.8713604088
 20
8450.6887976958
 30
0.0
 11
9253.7309633264
 21
8502.9623203239
 31
0.0
 12
9241.0309633264
 22
8480.9652750678
 32
0.0
 13
9241.0309633264
 23
8480.9652750678
 33
0.0
  0
LINE
  5
17C
330
177
100
AcDbEntity
  8
0
  6
Continuous
 62
     7
370
     0
100
AcDbLine
 10
7264.981802045
 20
9453.2477294745
 30
0.0
 11
7356.8334397804
 21
9612.3394327907
 31
0.0
  0
LINE
  5
17D
330
177
100
AcDbEntity
  8
0
  6
Continuous
 62
     7
370
     0
100
AcDbLine
 10
9239.5197226735
 20
8313.2477294745
 30
0.0
 11
9331.3713604088
 21
8472.3394327904
 31
0.0
  0
LINE
  5
17E
330
177
100
AcDbEntity
  8
0
  6
Continuous
 62
     7
370
     0
100
AcDbLine
 10
7344.3334397804
 20
9590.6887976961
 30
0.0
 11
9318.8713604088
 21
8450.6887976958
 31
0.0
  0
MTEXT
  5
17F
330
177
100
AcDbEntity
  8
0
  6
Continuous
 62
     7
370
    18
100
AcDbMText
 10
8369.9442331585
 20
9166.0069348103
 30
0.0
 40
112.5
 41
0.0
 71
     1
 72
     1
  1
2280
  7
SLDTEXTSTYLE0
 11
0.8660254037843877
 21
-0.5000000000000882
 31
0.0
 73
     1
 44
1.0
  0
ENDBLK
  5
179
330
177
100
AcDbEntity
  8
0
100
AcDbBlockEnd
  0
BLOCK
  5
182
330
181
100
AcDbEntity
  8
0
100
AcDbBlockBegin
  2
_D_6
 70
     0
 10
0.0
 20
0.0
 30
0.0
  3
_D_6
  1

  0
SOLID
  5
184
330
181
100
AcDbEntity
  8
0
  6
Continuous
 62
     7
370
    18
100
AcDbTrace
 10
7252.481802045
 20
10024.6401199658
 30
0.0
 11
7335.031802045
 21
10011.9401199658
 31
0.0
 12
7335.031802045
 22
10037.3401199658
 32
0.0
 13
7335.031802045
 23
10037.3401199658
 33
0.0
  0
SOLID
  5
185
330
181
100
AcDbEntity
  8
0
  6
Continuous
 62
     7
370
    18
100
AcDbTrace
 10
9227.0197226735
 20
10024.6401199658
 30
0.0
 11
9144.4697226735
 21
10037.3401199658
 31
0.0
 12
9144.4697226735
 22
10011.9401199658
 32
0.0
 13
9144.4697226735
 23
10011.9401199658
 33
0.0
  0
LINE
  5
186
330
181
100
AcDbEntity
  8
0
  6
Continuous
 62
     7
370
     0
100
AcDbLine
 10
7252.481802045
 20
9456.5970943799
 30
0.0
 11
7252.481802045
 21
10049.6401199658
 31
0.0
  0
LINE
  5
187
330
181
100
AcDbEntity
  8
0
  6
Continuous
 62
     7
370
     0
100
AcDbLine
 10
9227.0197226735
 20
8316.5970943799
 30
0.0
 11
9227.0197226735
 21
10049.6401199658
 31
0.0
  0
LINE
  5
188
330
181
100
AcDbEntity
  8
0
  6
Continuous
 62
     7
370
     0
100
AcDbLine
 10
7252.481802045
 20
10024.6401199658
 30
0.0
 11
9227.0197226735
 21
10024.6401199658
 31
0.0
  0
MTEXT
  5
189
330
181
100
AcDbEntity
  8
0
  6
Continuous
 62
     7
370
    18
100
AcDbMText
 10
8012.2553058694
 20
10169.6602348694
 30
0.0
 40
112.5
 41
0.0
 71
     1
 72
     1
  1
1975
  7
SLDTEXTSTYLE0
 73
     1
 44
1.0
  0
ENDBLK
  5
183
330
181
100
AcDbEntity
  8
0
100
AcDbBlockEnd
  0
BLOCK
  5
18C
330
18B
100
AcDbEntity
  8
0
100
AcDbBlockBegin
  2
_D_7
 70
     0
 10
0.0
 20
0.0
 30
0.0
  3
_D_7
  1

  0
SOLID
  5
18E
330
18B
100
AcDbEntity
  8
0
  6
Continuous
 62
     7
370
    18
100
AcDbTrace
 10
7436.2272453538
 20
9751.738019913
 30
0.0
 11
7518.7772453538
 21
9739.038019913
 31
0.0
 12
7518.7772453538
 22
9764.438019913
 32
0.0
 13
7518.7772453538
 23
9764.438019913
 33
0.0
  0
SOLID
  5
18F
330
18B
100
AcDbEntity
  8
0
  6
Continuous
 62
     7
370
    18
100
AcDbTrace
 10
8977.7524640901
 20
9751.738019913
 30
0.0
 11
8895.2024640901
 21
9764.438019913
 31
0.0
 12
8895.2024640901
 22
9739.038019913
 32
0.0
 13
8895.2024640901
 23
9739.038019913
 33
0.0
  0
LINE
  5
190
330
18B
100
AcDbEntity
  8
0
  6
Continuous
 62
     7
370
     0
100
AcDbLine
 10
7436.2272453538
 20
9188.8535378501
 30
0.0
 11
7436.2272453538
 21
9776.738019913
 31
0.0
  0
LINE
  5
191
330
18B
100
AcDbEntity
  8
0
  6
Continuous
 62
     7
370
     0
100
AcDbLine
 10
8977.7524640901
 20
8298.8535378501
 30
0.0
 11
8977.7524640901
 21
9776.738019913
 31
0.0
  0
LINE
  5
192
330
18B
100
AcDbEntity
  8
0
  6
Continuous
 62
     7
370
     0
100
AcDbLine
 10
7436.2272453538
 20
9751.738019913
 30
0.0
 11
8977.7524640901
 21
9751.738019913
 31
0.0
  0
MTEXT
  5
193
330
18B
100
AcDbEntity
  8
0
  6
Continuous
 62
     7
370
    18
100
AcDbMText
 10
7946.3416082472
 20
9896.7581348166
 30
0.0
 40
112.5
 41
0.0
 71
     1
 72
     1
  1
1542
  7
SLDTEXTSTYLE0
 73
     1
 44
1.0
  0
ENDBLK
  5
18D
330
18B
100
AcDbEntity
  8
0
100
AcDbBlockEnd
  0
BLOCK
  5
3A9
330
3A8
100
AcDbEntity
  8
0
100
AcDbBlockBegin
  2
_D_8
 70
     0
 10
0.0
 20
0.0
 30
0.0
  3
_D_8
  1

  0
SOLID
  5
3AB
330
3A8
100
AcDbEntity
  8
0
  6
Continuous
 62
     7
370
    18
100
AcDbTrace
 10
1326.9408402341
 20
6094.0570769655
 30
0.0
 11
1409.4908402341
 21
6081.3570769655
 31
0.0
 12
1409.4908402341
 22
6106.7570769655
 32
0.0
 13
1409.4908402341
 23
6106.7570769655
 33
0.0
  0
SOLID
  5
3AC
330
3A8
100
AcDbEntity
  8
0
  6
Continuous
 62
     7
370
    18
100
AcDbTrace
 10
3196.9408402341
 20
6094.0570769655
 30
0.0
 11
3114.3908402341
 21
6106.7570769655
 31
0.0
 12
3114.3908402341
 22
6081.3570769655
 32
0.0
 13
3114.3908402341
 23
6081.3570769655
 33
0.0
  0
LINE
  5
3AD
330
3A8
100
AcDbEntity
  8
0
  6
Continuous
 62
     7
370
     0
100
AcDbLine
 10
1326.9408402341
 20
6319.0570769656
 30
0.0
 11
1326.9408402341
 21
6069.0570769655
 31
0.0
  0
LINE
  5
3AE
330
3A8
100
AcDbEntity
  8
0
  6
Continuous
 62
     7
370
     0
100
AcDbLine
 10
3196.9408402341
 20
6319.0570769656
 30
0.0
 11
3196.9408402341
 21
6069.0570769655
 31
0.0
  0
LINE
  5
3AF
330
3A8
100
AcDbEntity
  8
0
  6
Continuous
 62
     7
370
     0
100
AcDbLine
 10
1326.9408402341
 20
6094.0570769655
 30
0.0
 11
3196.9408402341
 21
6094.0570769655
 31
0.0
  0
MTEXT
  5
3B0
330
3A8
100
AcDbEntity
  8
0
  6
Continuous
 62
     7
370
    18
100
AcDbMText
 10
2059.7432161373
 20
6239.0771918691
 30
0.0
 40
112.5
 41
0.0
 71
     1
 72
     1
  1
1870
  7
SLDTEXTSTYLE0
 73
     1
 44
1.0
  0
ENDBLK
  5
3AA
330
3A8
100
AcDbEntity
  8
0
100
AcDbBlockEnd
  0
BLOCK
  5
3B3
330
3B2
100
AcDbEntity
  8
0
100
AcDbBlockBegin
  2
_D_9
 70
     0
 10
0.0
 20
0.0
 30
0.0
  3
_D_9
  1

  0
SOLID
  5
3B5
330
3B2
100
AcDbEntity
  8
0
  6
Continuous
 62
     7
370
    18
100
AcDbTrace
 10
3196.9408402341
 20
6094.0570769655
 30
0.0
 11
3279.4908402341
 21
6081.3570769655
 31
0.0
 12
3279.4908402341
 22
6106.7570769655
 32
0.0
 13
3279.4908402341
 23
6106.7570769655
 33
0.0
  0
SOLID
  5
3B6
330
3B2
100
AcDbEntity
  8
0
  6
Continuous
 62
     7
370
    18
100
AcDbTrace
 10
5566.9408402341
 20
6094.0570769655
 30
0.0
 11
5484.3908402341
 21
6106.7570769655
 31
0.0
 12
5484.3908402341
 22
6081.3570769655
 32
0.0
 13
5484.3908402341
 23
6081.3570769655
 33
0.0
  0
LINE
  5
3B7
330
3B2
100
AcDbEntity
  8
0
  6
Continuous
 62
     7
370
     0
100
AcDbLine
 10
3196.9408402341
 20
6319.0570769656
 30
0.0
 11
3196.9408402341
 21
6069.0570769655
 31
0.0
  0
LINE
  5
3B8
330
3B2
100
AcDbEntity
  8
0
  6
Continuous
 62
     7
370
     0
100
AcDbLine
 10
5566.9408402341
 20
6319.0570769656
 30
0.0
 11
5566.9408402341
 21
6069.0570769655
 31
0.0
  0
LINE
  5
3B9
330
3B2
100
AcDbEntity
  8
0
  6
Continuous
 62
     7
370
     0
100
AcDbLine
 10
3196.9408402341
 20
6094.0570769655
 30
0.0
 11
5566.9408402341
 21
6094.0570769655
 31
0.0
  0
MTEXT
  5
3BA
330
3B2
100
AcDbEntity
  8
0
  6
Continuous
 62
     7
370
    18
100
AcDbMText
 10
4315.9638687406
 20
6239.0771918691
 30
0.0
 40
112.5
 41
0.0
 71
     1
 72
     1
  1
2370
  7
SLDTEXTSTYLE0
 73
     1
 44
1.0
  0
ENDBLK
  5
3B4
330
3B2
100
AcDbEntity
  8
0
100
AcDbBlockEnd
  0
BLOCK
  5
3BD
330
3BC
100
AcDbEntity
  8
0
100
AcDbBlockBegin
  2
_D_10
 70
     0
 10
0.0
 20
0.0
 30
0.0
  3
_D_10
  1

  0
SOLID
  5
3BF
330
3BC
100
AcDbEntity
  8
0
  6
Continuous
 62
     7
370
    18
100
AcDbTrace
 10
1171.940840234
 20
9681.597094213
 30
0.0
 11
1254.490840234
 21
9668.897094213
 31
0.0
 12
1254.490840234
 22
9694.297094213
 32
0.0
 13
1254.490840234
 23
9694.297094213
 33
0.0
  0
SOLID
  5
3C0
330
3BC
100
AcDbEntity
  8
0
  6
Continuous
 62
     7
370
    18
100
AcDbTrace
 10
2311.940840234
 20
9681.5970942131
 30
0.0
 11
2229.390840234
 21
9694.2970942131
 31
0.0
 12
2229.390840234
 22
9668.8970942131
 32
0.0
 13
2229.390840234
 23
9668.8970942131
 33
0.0
  0
LINE
  5
3C1
330
3BC
100
AcDbEntity
  8
0
  6
Continuous
 62
     7
370
     0
100
AcDbLine
 10
1171.940840234
 20
9373.0102685446
 30
0.0
 11
1171.940840234
 21
9706.597094213
 31
0.0
  0
LINE
  5
3C2
330
3BC
100
AcDbEntity
  8
0
  6
Continuous
 62
     7
370
     0
100
AcDbLine
 10
2311.940840234
 20
9373.0102685446
 30
0.0
 11
2311.940840234
 21
9706.5970942131
 31
0.0
  0
LINE
  5
3C3
330
3BC
100
AcDbEntity
  8
0
  6
Continuous
 62
     7
370
     0
100
AcDbLine
 10
1171.940840234
 20
9681.597094213
 30
0.0
 11
2311.940840234
 21
9681.5970942131
 31
0.0
  0
MTEXT
  5
3C4
330
3BC
100
AcDbEntity
  8
0
  6
Continuous
 62
     7
370
    18
100
AcDbMText
 10
1619.316987186
 20
9826.6172091166
 30
0.0
 40
112.5
 41
0.0
 71
     1
 72
     1
  1
1140
  7
SLDTEXTSTYLE0
 73
     1
 44
1.0
  0
ENDBLK
  5
3BE
330
3BC
100
AcDbEntity
  8
0
100
AcDbBlockEnd
  0
BLOCK
  5
52B
330
52A
100
AcDbEntity
  8
0
100
AcDbBlockBegin
  2
_D_11
 70
     0
 10
0.0
 20
0.0
 30
0.0
  3
_D_11
  1

  0
SOLID
  5
52D
330
52A
100
AcDbEntity
  8
0
  6
Continuous
 62
     7
370
    18
100
AcDbTrace
 10
1136.940840234
 20
5402.4822953708
 30
0.0
 11
1219.490840234
 21
5389.7822953708
 31
0.0
 12
1219.490840234
 22
5415.1822953708
 32
0.0
 13
1219.490840234
 23
5415.1822953708
 33
0.0
  0
SOLID
  5
52E
330
52A
100
AcDbEntity
  8
0
  6
Continuous
 62
     7
370
    18
100
AcDbTrace
 10
5876.940840234
 20
5402.4822953712
 30
0.0
 11
5794.390840234
 21
5415.1822953712
 31
0.0
 12
5794.390840234
 22
5389.7822953712
 32
0.0
 13
5794.390840234
 23
5389.7822953712
 33
0.0
  0
LINE
  5
52F
330
52A
100
AcDbEntity
  8
0
  6
Continuous
 62
     7
370
     0
100
AcDbLine
 10
1136.9408402341
 20
4659.8545114646
 30
0.0
 11
1136.940840234
 21
5427.4822953708
 31
0.0
  0
LINE
  5
530
330
52A
100
AcDbEntity
  8
0
  6
Continuous
 62
     7
370
     0
100
AcDbLine
 10
5876.940840234
 20
4659.8545114646
 30
0.0
 11
5876.940840234
 21
5427.4822953712
 31
0.0
  0
LINE
  5
531
330
52A
100
AcDbEntity
  8
0
  6
Continuous
 62
     7
370
     0
100
AcDbLine
 10
1136.940840234
 20
5402.4822953708
 30
0.0
 11
5876.940840234
 21
5402.4822953712
 31
0.0
  0
MTEXT
  5
532
330
52A
100
AcDbEntity
  8
0
  6
Continuous
 62
     7
370
    18
100
AcDbMText
 10
3343.4519855475
 20
5547.5024102746
 30
0.0
 40
112.5
 41
0.0
 71
     1
 72
     1
  1
4740
  7
SLDTEXTSTYLE0
 73
     1
 44
1.0
  0
ENDBLK
  5
52C
330
52A
100
AcDbEntity
  8
0
100
AcDbBlockEnd
  0
ENDSEC
  0
SECTION
  2
ENTITIES
  0
LINE
  5
74
330
1F
100
AcDbEntity
  8
0
  6
Continuous
 62
     7
370
    25
100
AcDbLine
 10
7459.7570269305
 20
9065.4444620084
 30
0.0
 11
7840.6628665859
 21
8463.9008299114
 31
0.0
  0
LINE
  5
75
330
1F
100
AcDbEntity
  8
0
  6
Continuous
 62
     7
370
    25
100
AcDbLine
 10
7839.3955696082
 20
8463.0983597436
 30
0.0
 11
7840.6628665859
 21
8463.9008299114
 31
0.0
  0
LINE
  5
76
330
1F
100
AcDbEntity
  8
0
  6
Continuous
 62
     7
370
    25
100
AcDbLine
 10
7458.4897299528
 20
9064.6419918406
 30
0.0
 11
7459.7570269305
 21
9065.4444620084
 31
0.0
  0
LINE
  5
77
330
1F
100
AcDbEntity
  8
0
  6
Continuous
 62
     7
370
    25
100
AcDbLine
 10
7458.4897299528
 20
9064.6419918406
 30
0.0
 11
7839.3955696082
 21
8463.0983597436
 31
0.0
  0
LINE
  5
78
330
1F
100
AcDbEntity
  8
0
  6
Continuous
 62
     7
370
    25
100
AcDbLine
 10
7507.9143120844
 20
9095.9383283853
 30
0.0
 11
7888.8201517398
 21
8494.3946962883
 31
0.0
  0
LINE
  5
79
330
1F
100
AcDbEntity
  8
0
  6
Continuous
 62
     7
370
    25
100
AcDbLine
 10
7507.9143120844
 20
9095.9383283853
 30
0.0
 11
7509.1816090621
 21
9096.7407985531
 31
0.0
  0
LINE
  5
7A
330
1F
100
AcDbEntity
  8
0
  6
Continuous
 62
     7
370
    25
100
AcDbLine
 10
7509.1816090621
 20
9096.7407985531
 30
0.0
 11
7890.0874487175
 21
8495.1971664561
 31
0.0
  0
LINE
  5
7B
330
1F
100
AcDbEntity
  8
0
  6
Continuous
 62
     7
370
    25
100
AcDbLine
 10
7888.8201517398
 20
8494.3946962883
 30
0.0
 11
7890.0874487175
 21
8495.1971664561
 31
0.0
  0
LINE
  5
7C
330
1F
100
AcDbEntity
  8
0
  6
Continuous
 62
     7
370
    25
100
AcDbLine
 10
7461.4467562342
 20
9066.5144222321
 30
0.0
 11
7842.3525958896
 21
8464.9707901352
 31
0.0
  0
LINE
  5
7D
330
1F
100
AcDbEntity
  8
0
  6
Continuous
 62
     7
370
    25
100
AcDbLine
 10
7840.6628665859
 20
8463.9008299114
 30
0.0
 11
7842.3525958896
 21
8464.9707901352
 31
0.0
  0
LINE
  5
7E
330
1F
100
AcDbEntity
  8
0
  6
Continuous
 62
     7
370
    25
100
AcDbLine
 10
7459.7570269305
 20
9065.4444620084
 30
0.0
 11
7461.4467562342
 21
9066.5144222321
 31
0.0
  0
LINE
  5
7F
330
1F
100
AcDbEntity
  8
0
  6
Continuous
 62
     7
370
    25
100
AcDbLine
 10
7506.2245827807
 20
9094.8683681615
 30
0.0
 11
7887.1304224361
 21
8493.3247360646
 31
0.0
  0
LINE
  5
80
330
1F
100
AcDbEntity
  8
0
  6
Continuous
 62
     7
370
    25
100
AcDbLine
 10
7887.1304224361
 20
8493.3247360646
 30
0.0
 11
7888.8201517398
 21
8494.3946962883
 31
0.0
  0
LINE
  5
81
330
1F
100
AcDbEntity
  8
0
  6
Continuous
 62
     7
370
    25
100
AcDbLine
 10
7506.2245827807
 20
9094.8683681615
 30
0.0
 11
7507.9143120844
 21
9095.9383283853
 31
0.0
  0
LINE
  5
82
330
1F
100
AcDbEntity
  8
0
  6
Continuous
 62
     7
370
    25
100
AcDbLine
 10
7461.4467562342
 20
9066.5144222321
 30
0.0
 11
7506.2245827807
 21
9094.8683681615
 31
0.0
  0
LINE
  5
83
330
1F
100
AcDbEntity
  8
0
  6
Continuous
 62
     7
370
    25
100
AcDbLine
 10
7842.3525958896
 20
8464.9707901352
 30
0.0
 11
7887.1304224361
 21
8493.3247360646
 31
0.0
  0
CIRCLE
  5
84
330
1F
100
AcDbEntity
  8
0
  6
Continuous
 62
     7
370
    25
100
AcDbCircle
 10
7529.8439591287
 20
9008.0330351402
 30
0.0
 40
6.500000000000279
  0
CIRCLE
  5
85
330
1F
100
AcDbEntity
  8
0
  6
Continuous
 62
     7
370
    25
100
AcDbCircle
 10
7512.1896154369
 20
9035.9135686503
 30
0.0
 40
6.499999999999793
  0
CIRCLE
  5
86
330
1F
100
AcDbEntity
  8
0
  6
Continuous
 62
     7
370
    25
100
AcDbCircle
 10
7494.535271745
 20
9063.7941021604
 30
0.0
 40
6.499999999999793
  0
CIRCLE
  5
87
330
1F
100
AcDbEntity
  8
0
  6
Continuous
 62
     7
370
    25
100
AcDbCircle
 10
7836.3875632334
 20
8523.9255896464
 30
0.0
 40
6.500000000000279
  0
CIRCLE
  5
88
330
1F
100
AcDbEntity
  8
0
  6
Continuous
 62
     7
370
    25
100
AcDbCircle
 10
7818.7332195416
 20
8551.8061231565
 30
0.0
 40
6.499999999999793
  0
CIRCLE
  5
89
330
1F
100
AcDbEntity
  8
0
  6
Continuous
 62
     7
370
    25
100
AcDbCircle
 10
7854.0419069253
 20
8496.0450561363
 30
0.0
 40
6.499999999999793
  0
LINE
  5
8A
330
1F
100
AcDbEntity
  8
0
  6
Continuous
 62
     7
370
    25
100
AcDbLine
 10
7890.0874487175
 20
8495.1971664561
 30
0.0
 11
8120.739854722
 21
8130.9405139844
 31
0.0
  0
CIRCLE
  5
8B
330
1F
100
AcDbEntity
  8
0
  6
Continuous
 62
     7
370
    25
100
AcDbCircle
 10
8178.239854722
 20
7984.0570771324
 30
0.0
 40
6.500000000000766
  0
LINE
  5
8C
330
1F
100
AcDbEntity
  8
0
  6
Continuous
 62
     7
370
    25
100
AcDbLine
 10
7839.3955696082
 20
8463.0983597436
 30
0.0
 11
8120.739854722
 21
8018.7868120652
 31
0.0
  0
LINE
  5
8D
330
1F
100
AcDbEntity
  8
0
  6
Continuous
 62
     7
370
    25
100
AcDbLine
 10
8894.8086691724
 20
8257.244175021
 30
0.0
 11
8465.184062536
 21
8032.1937420675
 31
0.0
  0
LINE
  5
8E
330
1F
100
AcDbEntity
  8
0
  6
Continuous
 62
     7
370
    25
100
AcDbLine
 10
8894.8086691724
 20
8257.244175021
 30
0.0
 11
8895.5047014392
 21
8255.9154391242
 31
0.0
  0
LINE
  5
8F
330
1F
100
AcDbEntity
  8
0
  6
Continuous
 62
     7
370
    25
100
AcDbLine
 10
8895.5047014392
 20
8255.9154391242
 30
0.0
 11
8465.8800948029
 21
8030.8650061707
 31
0.0
  0
LINE
  5
90
330
1F
100
AcDbEntity
  8
0
  6
Continuous
 62
     7
370
    25
100
AcDbLine
 10
8465.184062536
 20
8032.1937420675
 30
0.0
 11
8465.8800948029
 21
8030.8650061707
 31
0.0
  0
LINE
  5
91
330
1F
100
AcDbEntity
  8
0
  6
Continuous
 62
     7
370
    25
100
AcDbLine
 10
8867.6634107646
 20
8309.0648749967
 30
0.0
 11
8868.3594430314
 21
8307.7361390999
 31
0.0
  0
LINE
  5
92
330
1F
100
AcDbEntity
  8
0
  6
Continuous
 62
     7
370
    25
100
AcDbLine
 10
8868.3594430314
 20
8307.7361390999
 30
0.0
 11
8438.7348363951
 21
8082.6857061464
 31
0.0
  0
LINE
  5
93
330
1F
100
AcDbEntity
  8
0
  6
Continuous
 62
     7
370
    25
100
AcDbLine
 10
8438.0388041282
 20
8084.0144420432
 30
0.0
 11
8438.7348363951
 21
8082.6857061464
 31
0.0
  0
LINE
  5
94
330
1F
100
AcDbEntity
  8
0
  6
Continuous
 62
     7
370
    25
100
AcDbLine
 10
8867.6634107646
 20
8309.0648749967
 30
0.0
 11
8438.0388041282
 21
8084.0144420432
 31
0.0
  0
LINE
  5
95
330
1F
100
AcDbEntity
  8
0
  6
Continuous
 62
     7
370
    25
100
AcDbLine
 10
8868.3594430314
 20
8307.7361390999
 30
0.0
 11
8869.2874860539
 21
8305.9644912375
 31
0.0
  0
LINE
  5
96
330
1F
100
AcDbEntity
  8
0
  6
Continuous
 62
     7
370
    25
100
AcDbLine
 10
8869.2874860539
 20
8305.9644912375
 30
0.0
 11
8439.6628794176
 21
8080.914058284
 31
0.0
  0
LINE
  5
97
330
1F
100
AcDbEntity
  8
0
  6
Continuous
 62
     7
370
    25
100
AcDbLine
 10
8438.7348363951
 20
8082.6857061464
 30
0.0
 11
8439.6628794176
 21
8080.914058284
 31
0.0
  0
LINE
  5
98
330
1F
100
AcDbEntity
  8
0
  6
Continuous
 62
     7
370
    25
100
AcDbLine
 10
8893.8806261499
 20
8259.0158228834
 30
0.0
 11
8464.2560195135
 21
8033.9653899299
 31
0.0
  0
LINE
  5
99
330
1F
100
AcDbEntity
  8
0
  6
Continuous
 62
     7
370
    25
100
AcDbLine
 10
8893.8806261499
 20
8259.0158228834
 30
0.0
 11
8894.8086691724
 21
8257.244175021
 31
0.0
  0
LINE
  5
9A
330
1F
100
AcDbEntity
  8
0
  6
Continuous
 62
     7
370
    25
100
AcDbLine
 10
8464.2560195135
 20
8033.9653899299
 30
0.0
 11
8465.184062536
 21
8032.1937420675
 31
0.0
  0
LINE
  5
9B
330
1F
100
AcDbEntity
  8
0
  6
Continuous
 62
     7
370
    25
100
AcDbLine
 10
8869.2874860539
 20
8305.9644912375
 30
0.0
 11
8893.8806261499
 21
8259.0158228834
 31
0.0
  0
LINE
  5
9C
330
1F
100
AcDbEntity
  8
0
  6
Continuous
 62
     7
370
    25
100
AcDbLine
 10
8439.6628794176
 20
8080.914058284
 30
0.0
 11
8464.2560195135
 21
8033.9653899299
 31
0.0
  0
CIRCLE
  5
9D
330
1F
100
AcDbEntity
  8
0
  6
Continuous
 62
     7
370
    25
100
AcDbCircle
 10
8761.1120014575
 20
8219.3832315312
 30
0.0
 40
6.500000000001454
  0
CIRCLE
  5
9E
330
1F
100
AcDbEntity
  8
0
  6
Continuous
 62
     7
370
    25
100
AcDbCircle
 10
8812.4897894676
 20
8246.2964791834
 30
0.0
 40
6.500000000000687
  0
CIRCLE
  5
9F
330
1F
100
AcDbEntity
  8
0
  6
Continuous
 62
     7
370
    25
100
AcDbCircle
 10
8863.8675774777
 20
8273.2097268356
 30
0.0
 40
6.500000000001454
  0
CIRCLE
  5
A0
330
1F
100
AcDbEntity
  8
0
  6
Continuous
 62
     7
370
    25
100
AcDbCircle
 10
8521.0537160998
 20
8093.633401984
 30
0.0
 40
6.500000000000265
  0
CIRCLE
  5
A1
330
1F
100
AcDbEntity
  8
0
  6
Continuous
 62
     7
370
    25
100
AcDbCircle
 10
8572.43150411
 20
8120.5466496362
 30
0.0
 40
6.500000000000265
  0
CIRCLE
  5
A2
330
1F
100
AcDbEntity
  8
0
  6
Continuous
 62
     7
370
    25
100
AcDbCircle
 10
8469.6759280897
 20
8066.7201543318
 30
0.0
 40
6.500000000001876
  0
LINE
  5
A3
330
1F
100
AcDbEntity
  8
0
  6
Continuous
 62
     7
370
    25
100
AcDbLine
 10
8438.0388041282
 20
8084.0144420432
 30
0.0
 11
8235.739854722
 21
7978.0441008508
 31
0.0
  0
LINE
  5
A4
330
1F
100
AcDbEntity
  8
0
  6
Continuous
 62
     7
370
    25
100
AcDbLine
 10
8465.8800948029
 20
8030.8650061707
 30
0.0
 11
8235.739854722
 21
7910.3105503267
 31
0.0
  0
ARC
  5
A5
330
1F
100
AcDbEntity
  8
0
  6
Continuous
 62
     7
370
    25
100
AcDbCircle
 10
8229.6176427321
 20
7940.9703247846
 30
0.0
 40
6.500000000001322
100
AcDbArc
 50
340.3695030275
 51
19.6304969725
  0
CIRCLE
  5
A6
330
1F
100
AcDbEntity
  8
0
  6
Continuous
 62
     7
370
    25
100
AcDbCircle
 10
8280.9954307422
 20
7967.8835724368
 30
0.0
 40
6.499999999999421
  0
CIRCLE
  5
A7
330
1F
100
AcDbEntity
  8
0
  6
Continuous
 62
     7
370
    25
100
AcDbCircle
 10
8178.239854722
 20
7914.0570771324
 30
0.0
 40
6.500000000000226
  0
LINE
  5
A8
330
1F
100
AcDbEntity
  8
0
  6
Continuous
 62
     7
370
    25
100
AcDbLine
 10
7726.1162822021
 20
9111.9560782285
 30
0.0
 11
8713.3852425164
 21
8541.9560782285
 31
0.0
  0
LINE
  5
A9
330
1F
100
AcDbEntity
  8
0
  6
Continuous
 62
     7
370
    25
100
AcDbLine
 10
7726.1162822021
 20
9111.9560782285
 30
0.0
 11
7746.1162822021
 21
9146.5970943799
 31
0.0
  0
LINE
  5
AA
330
1F
100
AcDbEntity
  8
0
  6
Continuous
 62
     7
370
    25
100
AcDbLine
 10
7746.1162822021
 20
9146.5970943799
 30
0.0
 11
8733.3852425164
 21
8576.5970943799
 31
0.0
  0
LINE
  5
AB
330
1F
100
AcDbEntity
  8
0
  6
Continuous
 62
     7
370
    25
100
AcDbLine
 10
8733.3852425164
 20
8576.5970943799
 30
0.0
 11
8713.3852425164
 21
8541.9560782285
 31
0.0
  0
LINE
  5
AC
330
1F
100
AcDbEntity
  8
0
  6
Continuous
 62
     7
370
    25
100
AcDbLine
 10
8960.2024825949
 20
8399.4560782285
 30
0.0
 11
9207.0197226735
 21
8256.9560782285
 31
0.0
  0
LINE
  5
AD
330
1F
100
AcDbEntity
  8
0
  6
Continuous
 62
     7
370
    25
100
AcDbLine
 10
8960.2024825949
 20
8399.4560782285
 30
0.0
 11
8980.2024825949
 21
8434.0970943799
 31
0.0
  0
LINE
  5
AE
330
1F
100
AcDbEntity
  8
0
  6
Continuous
 62
     7
370
    25
100
AcDbLine
 10
9207.0197226735
 20
8256.9560782285
 30
0.0
 11
9227.0197226735
 21
8291.5970943799
 31
0.0
  0
LINE
  5
AF
330
1F
100
AcDbEntity
  8
0
  6
Continuous
 62
     7
370
    25
100
AcDbLine
 10
8980.2024825949
 20
8434.0970943799
 30
0.0
 11
9227.0197226735
 21
8291.5970943799
 31
0.0
  0
LINE
  5
B0
330
1F
100
AcDbEntity
  8
0
  6
Continuous
 62
     7
370
    25
100
AcDbLine
 10
7232.481802045
 20
9396.9560782285
 30
0.0
 11
7252.481802045
 21
9431.5970943799
 31
0.0
  0
LINE
  5
B1
330
1F
100
AcDbEntity
  8
0
  6
Continuous
 62
     7
370
    25
100
AcDbLine
 10
7499.2990421235
 20
9289.0970943799
 30
0.0
 11
7479.2990421235
 21
9254.4560782285
 31
0.0
  0
LINE
  5
B2
330
1F
100
AcDbEntity
  8
0
  6
Continuous
 62
     7
370
    25
100
AcDbLine
 10
7232.481802045
 20
9396.9560782285
 30
0.0
 11
7479.2990421235
 21
9254.4560782285
 31
0.0
  0
LINE
  5
B3
330
1F
100
AcDbEntity
  8
0
  6
Continuous
 62
     7
370
    25
100
AcDbLine
 10
7252.481802045
 20
9431.5970943799
 30
0.0
 11
7499.2990421235
 21
9289.0970943799
 31
0.0
  0
LINE
  5
B4
330
1F
100
AcDbEntity
  8
0
  6
Continuous
 62
     7
370
    25
100
AcDbLine
 10
8713.3852425164
 20
8541.9560782285
 30
0.0
 11
8876.6310311297
 21
8447.7060782285
 31
0.0
  0
LINE
  5
B5
330
1F
100
AcDbEntity
  8
0
  6
Continuous
 62
     7
370
    25
100
AcDbLine
 10
8913.8701234925
 20
8426.2060782285
 30
0.0
 11
8960.2024825949
 21
8399.4560782285
 31
0.0
  0
LINE
  5
B6
330
1F
100
AcDbEntity
  8
0
  6
Continuous
 62
     7
370
    25
100
AcDbLine
 10
8980.2024825949
 20
8434.0970943799
 30
0.0
 11
8733.3852425164
 21
8576.5970943799
 31
0.0
  0
LINE
  5
B7
330
1F
100
AcDbEntity
  8
0
  6
Continuous
 62
     7
370
    25
100
AcDbLine
 10
7479.2990421235
 20
9254.4560782285
 30
0.0
 11
7600.1095859515
 21
9184.7060782285
 31
0.0
  0
LINE
  5
B8
330
1F
100
AcDbEntity
  8
0
  6
Continuous
 62
     7
370
    25
100
AcDbLine
 10
7637.3486783142
 20
9163.2060782285
 30
0.0
 11
7726.1162822021
 21
9111.9560782285
 31
0.0
  0
LINE
  5
B9
330
1F
100
AcDbEntity
  8
0
  6
Continuous
 62
     7
370
    25
100
AcDbLine
 10
7746.1162822021
 20
9146.5970943799
 30
0.0
 11
7499.2990421235
 21
9289.0970943799
 31
0.0
  0
LINE
  5
BA
330
1F
100
AcDbEntity
  8
0
  6
Continuous
 62
     7
370
    25
100
AcDbLine
 10
8833.5999422165
 20
8380.1740459258
 30
0.0
 11
8834.8989803222
 21
8379.4240459258
 31
0.0
  0
LINE
  5
BB
330
1F
100
AcDbEntity
  8
0
  6
Continuous
 62
     7
370
    25
100
AcDbLine
 10
8825.3499422165
 20
8365.8846267633
 30
0.0
 11
8826.6489803222
 21
8365.1346267633
 31
0.0
  0
LINE
  5
BC
330
1F
100
AcDbEntity
  8
0
  6
Continuous
 62
     7
370
    25
100
AcDbLine
 10
8833.5999422165
 20
8380.1740459258
 30
0.0
 11
8825.3499422165
 21
8365.8846267633
 31
0.0
  0
LINE
  5
BD
330
1F
100
AcDbEntity
  8
0
  6
Continuous
 62
     7
370
    25
100
AcDbLine
 10
8834.8989803222
 20
8379.4240459258
 30
0.0
 11
8826.6489803222
 21
8365.1346267633
 31
0.0
  0
LINE
  5
BE
330
1F
100
AcDbEntity
  8
0
  6
Continuous
 62
     7
370
    25
100
AcDbLine
 10
8827.3810311297
 20
8362.4025759557
 30
0.0
 11
8826.6310311297
 21
8361.1035378501
 31
0.0
  0
LINE
  5
BF
330
1F
100
AcDbEntity
  8
0
  6
Continuous
 62
     7
370
    25
100
AcDbLine
 10
8863.8701234925
 20
8339.6035378501
 30
0.0
 11
8864.6201234925
 21
8340.9025759557
 31
0.0
  0
LINE
  5
C0
330
1F
100
AcDbEntity
  8
0
  6
Continuous
 62
     7
370
    25
100
AcDbLine
 10
8827.3810311297
 20
8362.4025759557
 30
0.0
 11
8864.6201234925
 21
8340.9025759557
 31
0.0
  0
LINE
  5
C1
330
1F
100
AcDbEntity
  8
0
  6
Continuous
 62
     7
370
    25
100
AcDbLine
 10
8826.6310311297
 20
8361.1035378501
 30
0.0
 11
8863.8701234925
 21
8339.6035378501
 31
0.0
  0
ARC
  5
C2
330
1F
100
AcDbEntity
  8
0
  6
Continuous
 62
     7
370
    25
100
AcDbCircle
 10
8828.3810311297
 20
8364.1346267633
 30
0.0
 40
3.500000000003091
100
AcDbArc
 50
150.0
 51
240.0
  0
ARC
  5
C3
330
1F
100
AcDbEntity
  8
0
  6
Continuous
 62
     7
370
    25
100
AcDbCircle
 10
8828.3810311297
 20
8364.1346267633
 30
0.0
 40
2.000000000000708
100
AcDbArc
 50
150.0000000001
 51
239.9999999999
  0
LINE
  5
C4
330
1F
100
AcDbEntity
  8
0
  6
Continuous
 62
     7
370
    25
100
AcDbLine
 10
8867.3521743
 20
8341.6346267633
 30
0.0
 11
8868.6512124057
 21
8340.8846267633
 31
0.0
  0
ARC
  5
C5
330
1F
100
AcDbEntity
  8
0
  6
Continuous
 62
     7
370
    25
100
AcDbCircle
 10
8865.6201234925
 20
8342.6346267633
 30
0.0
 40
1.999999999997135
100
AcDbArc
 50
239.9999999999
 51
330.0000000001
  0
ARC
  5
C6
330
1F
100
AcDbEntity
  8
0
  6
Continuous
 62
     7
370
    25
100
AcDbCircle
 10
8865.6201234925
 20
8342.6346267633
 30
0.0
 40
3.499999999999697
100
AcDbArc
 50
240.0
 51
330.0
  0
ARC
  5
C7
330
1F
100
AcDbEntity
  8
0
  6
Continuous
 62
     7
370
    25
100
AcDbCircle
 10
8874.8810311297
 20
8444.6749893153
 30
0.0
 40
2.000000000002527
100
AcDbArc
 50
60.0000000001
 51
150.0
  0
LINE
  5
C8
330
1F
100
AcDbEntity
  8
0
  6
Continuous
 62
     7
370
    25
100
AcDbLine
 10
8873.1489803222
 20
8445.6749893153
 30
0.0
 11
8871.8499422165
 21
8446.4249893153
 31
0.0
  0
ARC
  5
C9
330
1F
100
AcDbEntity
  8
0
  6
Continuous
 62
     7
370
    25
100
AcDbCircle
 10
8874.8810311297
 20
8444.6749893153
 30
0.0
 40
3.499999999998543
100
AcDbArc
 50
60.0000000001
 51
150.0
  0
LINE
  5
CA
330
1F
100
AcDbEntity
  8
0
  6
Continuous
 62
     7
370
    25
100
AcDbLine
 10
8876.6310311297
 20
8447.7060782285
 30
0.0
 11
8875.8810311297
 21
8446.4070401228
 31
0.0
  0
LINE
  5
CB
330
1F
100
AcDbEntity
  8
0
  6
Continuous
 62
     7
370
    25
100
AcDbLine
 10
8913.1201234925
 20
8424.9070401228
 30
0.0
 11
8913.8701234925
 21
8426.2060782285
 31
0.0
  0
LINE
  5
CC
330
1F
100
AcDbEntity
  8
0
  6
Continuous
 62
     7
370
    25
100
AcDbLine
 10
8913.1201234925
 20
8424.9070401228
 30
0.0
 11
8875.8810311297
 21
8446.4070401228
 31
0.0
  0
LINE
  5
CD
330
1F
100
AcDbEntity
  8
0
  6
Continuous
 62
     7
370
    25
100
AcDbLine
 10
8913.8701234925
 20
8426.2060782285
 30
0.0
 11
8876.6310311297
 21
8447.7060782285
 31
0.0
  0
LINE
  5
CE
330
1F
100
AcDbEntity
  8
0
  6
Continuous
 62
     7
370
    25
100
AcDbLine
 10
8873.1489803222
 20
8445.6749893153
 30
0.0
 11
8864.8989803222
 21
8431.3855701528
 31
0.0
  0
LINE
  5
CF
330
1F
100
AcDbEntity
  8
0
  6
Continuous
 62
     7
370
    25
100
AcDbLine
 10
8864.8989803222
 20
8431.3855701528
 30
0.0
 11
8863.5999422165
 21
8432.1355701528
 31
0.0
  0
LINE
  5
D0
330
1F
100
AcDbEntity
  8
0
  6
Continuous
 62
     7
370
    25
100
AcDbLine
 10
8871.8499422165
 20
8446.4249893153
 30
0.0
 11
8863.5999422165
 21
8432.1355701528
 31
0.0
  0
LINE
  5
D1
330
1F
100
AcDbEntity
  8
0
  6
Continuous
 62
     7
370
    25
100
AcDbLine
 10
8915.1512124057
 20
8421.4249893153
 30
0.0
 11
8913.8521743
 21
8422.1749893153
 31
0.0
  0
LINE
  5
D2
330
1F
100
AcDbEntity
  8
0
  6
Continuous
 62
     7
370
    25
100
AcDbLine
 10
8867.3521743
 20
8341.6346267633
 30
0.0
 11
8913.8521743
 21
8422.1749893153
 31
0.0
  0
LINE
  5
D3
330
1F
100
AcDbEntity
  8
0
  6
Continuous
 62
     7
370
    25
100
AcDbLine
 10
8868.6512124057
 20
8340.8846267633
 30
0.0
 11
8915.1512124057
 21
8421.4249893153
 31
0.0
  0
ARC
  5
D4
330
1F
100
AcDbEntity
  8
0
  6
Continuous
 62
     7
370
    25
100
AcDbCircle
 10
8912.1201234925
 20
8423.1749893153
 30
0.0
 40
3.499999999998543
100
AcDbArc
 50
330.0
 51
60.0000000001
  0
ARC
  5
D5
330
1F
100
AcDbEntity
  8
0
  6
Continuous
 62
     7
370
    25
100
AcDbCircle
 10
8912.1201234925
 20
8423.1749893153
 30
0.0
 40
1.999999999999799
100
AcDbArc
 50
330.0
 51
60.0000000002
  0
LINE
  5
D6
330
1F
100
AcDbEntity
  8
0
  6
Continuous
 62
     7
370
    25
100
AcDbLine
 10
7557.0784970382
 20
9117.1740459258
 30
0.0
 11
7558.3775351439
 21
9116.4240459258
 31
0.0
  0
LINE
  5
D7
330
1F
100
AcDbEntity
  8
0
  6
Continuous
 62
     7
370
    25
100
AcDbLine
 10
7558.3775351439
 20
9116.4240459258
 30
0.0
 11
7550.1275351439
 21
9102.1346267633
 31
0.0
  0
LINE
  5
D8
330
1F
100
AcDbEntity
  8
0
  6
Continuous
 62
     7
370
    25
100
AcDbLine
 10
7548.8284970382
 20
9102.8846267633
 30
0.0
 11
7550.1275351439
 21
9102.1346267633
 31
0.0
  0
LINE
  5
D9
330
1F
100
AcDbEntity
  8
0
  6
Continuous
 62
     7
370
    25
100
AcDbLine
 10
7557.0784970382
 20
9117.1740459258
 30
0.0
 11
7548.8284970382
 21
9102.8846267633
 31
0.0
  0
LINE
  5
DA
330
1F
100
AcDbEntity
  8
0
  6
Continuous
 62
     7
370
    25
100
AcDbLine
 10
7550.8595859515
 20
9099.4025759557
 30
0.0
 11
7550.1095859515
 21
9098.1035378501
 31
0.0
  0
LINE
  5
DB
330
1F
100
AcDbEntity
  8
0
  6
Continuous
 62
     7
370
    25
100
AcDbLine
 10
7587.3486783142
 20
9076.6035378501
 30
0.0
 11
7588.0986783142
 21
9077.9025759557
 31
0.0
  0
LINE
  5
DC
330
1F
100
AcDbEntity
  8
0
  6
Continuous
 62
     7
370
    25
100
AcDbLine
 10
7550.8595859515
 20
9099.4025759557
 30
0.0
 11
7588.0986783142
 21
9077.9025759557
 31
0.0
  0
LINE
  5
DD
330
1F
100
AcDbEntity
  8
0
  6
Continuous
 62
     7
370
    25
100
AcDbLine
 10
7550.1095859515
 20
9098.1035378501
 30
0.0
 11
7587.3486783142
 21
9076.6035378501
 31
0.0
  0
ARC
  5
DE
330
1F
100
AcDbEntity
  8
0
  6
Continuous
 62
     7
370
    25
100
AcDbCircle
 10
7551.8595859515
 20
9101.1346267633
 30
0.0
 40
3.500000000001516
100
AcDbArc
 50
150.0
 51
239.9999999999
  0
ARC
  5
DF
330
1F
100
AcDbEntity
  8
0
  6
Continuous
 62
     7
370
    25
100
AcDbCircle
 10
7551.8595859515
 20
9101.1346267633
 30
0.0
 40
2.000000000002405
100
AcDbArc
 50
150.0000000001
 51
239.9999999999
  0
LINE
  5
E0
330
1F
100
AcDbEntity
  8
0
  6
Continuous
 62
     7
370
    25
100
AcDbLine
 10
7590.8307291218
 20
9078.6346267633
 30
0.0
 11
7592.1297672274
 21
9077.8846267633
 31
0.0
  0
ARC
  5
E1
330
1F
100
AcDbEntity
  8
0
  6
Continuous
 62
     7
370
    25
100
AcDbCircle
 10
7589.0986783142
 20
9079.6346267633
 30
0.0
 40
1.999999999999165
100
AcDbArc
 50
239.9999999999
 51
330.0000000001
  0
ARC
  5
E2
330
1F
100
AcDbEntity
  8
0
  6
Continuous
 62
     7
370
    25
100
AcDbCircle
 10
7589.0986783142
 20
9079.6346267633
 30
0.0
 40
3.500000000001272
100
AcDbArc
 50
240.0
 51
330.0
  0
LINE
  5
E3
330
1F
100
AcDbEntity
  8
0
  6
Continuous
 62
     7
370
    25
100
AcDbLine
 10
7636.5986783142
 20
9161.9070401228
 30
0.0
 11
7637.3486783142
 21
9163.2060782285
 31
0.0
  0
LINE
  5
E4
330
1F
100
AcDbEntity
  8
0
  6
Continuous
 62
     7
370
    25
100
AcDbLine
 10
7600.1095859515
 20
9184.7060782285
 30
0.0
 11
7599.3595859515
 21
9183.4070401228
 31
0.0
  0
LINE
  5
E5
330
1F
100
AcDbEntity
  8
0
  6
Continuous
 62
     7
370
    25
100
AcDbLine
 10
7636.5986783142
 20
9161.9070401228
 30
0.0
 11
7599.3595859515
 21
9183.4070401228
 31
0.0
  0
LINE
  5
E6
330
1F
100
AcDbEntity
  8
0
  6
Continuous
 62
     7
370
    25
100
AcDbLine
 10
7637.3486783142
 20
9163.2060782285
 30
0.0
 11
7600.1095859515
 21
9184.7060782285
 31
0.0
  0
LINE
  5
E7
330
1F
100
AcDbEntity
  8
0
  6
Continuous
 62
     7
370
    25
100
AcDbLine
 10
7596.6275351439
 20
9182.6749893153
 30
0.0
 11
7595.3284970382
 21
9183.4249893153
 31
0.0
  0
ARC
  5
E8
330
1F
100
AcDbEntity
  8
0
  6
Continuous
 62
     7
370
    25
100
AcDbCircle
 10
7598.3595859515
 20
9181.6749893153
 30
0.0
 40
2.000000000003436
100
AcDbArc
 50
60.0000000001
 51
150.0
  0
ARC
  5
E9
330
1F
100
AcDbEntity
  8
0
  6
Continuous
 62
     7
370
    25
100
AcDbCircle
 10
7598.3595859515
 20
9181.6749893153
 30
0.0
 40
3.499999999998089
100
AcDbArc
 50
60.0000000001
 51
150.0
  0
LINE
  5
EA
330
1F
100
AcDbEntity
  8
0
  6
Continuous
 62
     7
370
    25
100
AcDbLine
 10
7588.3775351439
 20
9168.3855701528
 30
0.0
 11
7587.0784970382
 21
9169.1355701528
 31
0.0
  0
LINE
  5
EB
330
1F
100
AcDbEntity
  8
0
  6
Continuous
 62
     7
370
    25
100
AcDbLine
 10
7595.3284970382
 20
9183.4249893153
 30
0.0
 11
7587.0784970382
 21
9169.1355701528
 31
0.0
  0
LINE
  5
EC
330
1F
100
AcDbEntity
  8
0
  6
Continuous
 62
     7
370
    25
100
AcDbLine
 10
7596.6275351439
 20
9182.6749893153
 30
0.0
 11
7588.3775351439
 21
9168.3855701528
 31
0.0
  0
LINE
  5
ED
330
1F
100
AcDbEntity
  8
0
  6
Continuous
 62
     7
370
    25
100
AcDbLine
 10
7638.6297672274
 20
9158.4249893153
 30
0.0
 11
7637.3307291218
 21
9159.1749893153
 31
0.0
  0
LINE
  5
EE
330
1F
100
AcDbEntity
  8
0
  6
Continuous
 62
     7
370
    25
100
AcDbLine
 10
7590.8307291218
 20
9078.6346267633
 30
0.0
 11
7637.3307291218
 21
9159.1749893153
 31
0.0
  0
LINE
  5
EF
330
1F
100
AcDbEntity
  8
0
  6
Continuous
 62
     7
370
    25
100
AcDbLine
 10
7592.1297672274
 20
9077.8846267633
 30
0.0
 11
7638.6297672274
 21
9158.4249893153
 31
0.0
  0
ARC
  5
F0
330
1F
100
AcDbEntity
  8
0
  6
Continuous
 62
     7
370
    25
100
AcDbCircle
 10
7635.5986783142
 20
9160.1749893153
 30
0.0
 40
3.499999999998089
100
AcDbArc
 50
329.9999999999
 51
60.0000000001
  0
ARC
  5
F1
330
1F
100
AcDbEntity
  8
0
  6
Continuous
 62
     7
370
    25
100
AcDbCircle
 10
7635.5986783142
 20
9160.1749893153
 30
0.0
 40
1.999999999999344
100
AcDbArc
 50
330.0
 51
60.0000000002
  0
LINE
  5
F2
330
1F
100
AcDbEntity
  8
0
  6
Continuous
 62
     7
370
    25
100
AcDbLine
 10
8977.7524640901
 20
8273.8535378501
 30
0.0
 11
8863.8701234925
 21
8339.6035378501
 31
0.0
  0
LINE
  5
F3
330
1F
100
AcDbEntity
  8
0
  6
Continuous
 62
     7
370
    25
100
AcDbLine
 10
8826.6310311297
 20
8361.1035378501
 30
0.0
 11
8235.739854722
 21
8702.2547176109
 31
0.0
  0
LINE
  5
F4
330
1F
100
AcDbEntity
  8
0
  6
Continuous
 62
     7
370
    25
100
AcDbLine
 10
8215.2975683814
 20
8714.0570771325
 30
0.0
 11
7587.3486783142
 21
9076.6035378501
 31
0.0
  0
LINE
  5
F5
330
1F
100
AcDbEntity
  8
0
  6
Continuous
 62
     7
370
    25
100
AcDbLine
 10
7550.1095859514
 20
9098.1035378501
 30
0.0
 11
7436.2272453538
 21
9163.8535378501
 31
0.0
  0
LINE
  5
F6
330
1F
100
AcDbEntity
  8
0
  6
Continuous
 62
     7
370
    25
100
AcDbLine
 10
8975.5024640901
 20
8269.956423533
 30
0.0
 11
8977.7524640901
 21
8273.8535378501
 31
0.0
  0
LINE
  5
F7
330
1F
100
AcDbEntity
  8
0
  6
Continuous
 62
     7
370
    25
100
AcDbLine
 10
7433.9772453538
 20
9159.956423533
 30
0.0
 11
7436.2272453538
 21
9163.8535378501
 31
0.0
  0
LINE
  5
F8
330
1F
100
AcDbEntity
  8
0
  6
Continuous
 62
     7
370
    25
100
AcDbLine
 10
8922.5024640901
 20
8178.1577307319
 30
0.0
 11
8975.5024640901
 21
8269.956423533
 31
0.0
  0
LINE
  5
F9
330
1F
100
AcDbEntity
  8
0
  6
Continuous
 62
     7
370
    25
100
AcDbLine
 10
7380.9772453538
 20
9068.1577307319
 30
0.0
 11
7433.9772453538
 21
9159.956423533
 31
0.0
  0
LINE
  5
FA
330
1F
100
AcDbEntity
  8
0
  6
Continuous
 62
     7
370
    25
100
AcDbLine
 10
8600.2131374517
 20
8432.9362422571
 30
0.0
 11
8524.8689273225
 21
8476.4362422571
 31
0.0
  0
ARC
  5
FB
330
1F
100
AcDbEntity
  8
0
  6
Continuous
 62
     7
370
    25
100
AcDbCircle
 10
8521.6189273225
 20
8470.8070771325
 30
0.0
 40
6.500000000001246
100
AcDbArc
 50
60.0
 51
240.0
  0
LINE
  5
FC
330
1F
100
AcDbEntity
  8
0
  6
Continuous
 62
     7
370
    25
100
AcDbLine
 10
8518.3689273225
 20
8465.1779120079
 30
0.0
 11
8593.7131374517
 21
8421.6779120079
 31
0.0
  0
ARC
  5
FD
330
1F
100
AcDbEntity
  8
0
  6
Continuous
 62
     7
370
    25
100
AcDbCircle
 10
8596.9631374517
 20
8427.3070771325
 30
0.0
 40
6.500000000001246
100
AcDbArc
 50
240.0
 51
60.0
  0
CIRCLE
  5
FE
330
1F
100
AcDbEntity
  8
0
  6
Continuous
 62
     7
370
    25
100
AcDbCircle
 10
7441.6278804484
 20
9123.2077122271
 30
0.0
 40
6.500000000000337
  0
CIRCLE
  5
FF
330
1F
100
AcDbEntity
  8
0
  6
Continuous
 62
     7
370
    25
100
AcDbCircle
 10
7416.6278804484
 20
9079.9064420379
 30
0.0
 40
6.500000000000458
  0
CIRCLE
  5
100
330
1F
100
AcDbEntity
  8
0
  6
Continuous
 62
     7
370
    25
100
AcDbCircle
 10
7571.5316910161
 20
9048.2077122271
 30
0.0
 40
6.499999999998639
  0
LINE
  5
101
330
1F
100
AcDbEntity
  8
0
  6
Continuous
 62
     7
370
    25
100
AcDbLine
 10
8184.739854722
 20
8672.8098538822
 30
0.0
 11
8171.739854722
 21
8680.3154073817
 31
0.0
  0
LINE
  5
102
330
1F
100
AcDbEntity
  8
0
  6
Continuous
 62
     7
370
    25
100
AcDbLine
 10
8171.739854722
 20
8665.3043003827
 30
0.0
 11
8184.739854722
 21
8657.7987468833
 31
0.0
  0
LINE
  5
103
330
1F
100
AcDbEntity
  8
0
  6
Continuous
 62
     7
370
    25
100
AcDbLine
 10
7756.2665719922
 20
8905.1779120079
 30
0.0
 11
7831.6107821214
 21
8861.6779120079
 31
0.0
  0
ARC
  5
104
330
1F
100
AcDbEntity
  8
0
  6
Continuous
 62
     7
370
    25
100
AcDbCircle
 10
7834.8607821214
 20
8867.3070771325
 30
0.0
 40
6.500000000001246
100
AcDbArc
 50
240.0
 51
60.0
  0
LINE
  5
105
330
1F
100
AcDbEntity
  8
0
  6
Continuous
 62
     7
370
    25
100
AcDbLine
 10
7838.1107821214
 20
8872.9362422571
 30
0.0
 11
7762.7665719922
 21
8916.4362422571
 31
0.0
  0
ARC
  5
106
330
1F
100
AcDbEntity
  8
0
  6
Continuous
 62
     7
370
    25
100
AcDbCircle
 10
7759.5165719922
 20
8910.8070771325
 30
0.0
 40
6.500000000000581
100
AcDbArc
 50
60.0
 51
240.0000000001
  0
ARC
  5
107
330
1F
100
AcDbEntity
  8
0
  6
Continuous
 62
     7
370
    25
100
AcDbCircle
 10
7478.0583157622
 20
9073.3070771325
 30
0.0
 40
6.499999999999103
100
AcDbArc
 50
61.3094849751
 51
183.3756403445
  0
CIRCLE
  5
108
330
1F
100
AcDbEntity
  8
0
  6
Continuous
 62
     7
370
    25
100
AcDbCircle
 10
8914.8518289955
 20
8214.9064420378
 30
0.0
 40
6.500000000001912
  0
CIRCLE
  5
109
330
1F
100
AcDbEntity
  8
0
  6
Continuous
 62
     7
370
    25
100
AcDbCircle
 10
8939.8518289955
 20
8258.2077122271
 30
0.0
 40
6.500000000000337
  0
CIRCLE
  5
10A
330
1F
100
AcDbEntity
  8
0
  6
Continuous
 62
     7
370
    25
100
AcDbCircle
 10
8809.9480184278
 20
8333.2077122271
 30
0.0
 40
6.499999999997852
  0
CIRCLE
  5
10B
330
1F
100
AcDbEntity
  8
0
  6
Continuous
 62
     7
370
    25
100
AcDbCircle
 10
8784.9480184278
 20
8289.9064420378
 30
0.0
 40
6.499999999997852
  0
LINE
  5
10C
330
1F
100
AcDbEntity
  8
0
  6
Continuous
 62
     7
370
    25
100
AcDbLine
 10
8920.2524640901
 20
8174.2606164149
 30
0.0
 11
8922.5024640901
 21
8178.1577307319
 31
0.0
  0
LINE
  5
10D
330
1F
100
AcDbEntity
  8
0
  6
Continuous
 62
     7
370
    25
100
AcDbLine
 10
8920.2524640901
 20
8174.2606164149
 30
0.0
 11
8834.3279148497
 21
8223.8691780488
 31
0.0
  0
LINE
  5
10E
330
1F
100
AcDbEntity
  8
0
  6
Continuous
 62
     7
370
    25
100
AcDbLine
 10
8772.8179810749
 20
8259.3819548715
 30
0.0
 11
8235.739854722
 21
8569.4641556973
 31
0.0
  0
LINE
  5
10F
330
1F
100
AcDbEntity
  8
0
  6
Continuous
 62
     7
370
    25
100
AcDbLine
 10
8120.739854722
 20
8635.8594366541
 30
0.0
 11
7616.7757941949
 21
8926.8232226613
 31
0.0
  0
LINE
  5
110
330
1F
100
AcDbEntity
  8
0
  6
Continuous
 62
     7
370
    25
100
AcDbLine
 10
7504.8341883555
 20
8991.4527389262
 30
0.0
 11
7378.7272453538
 21
9064.2606164149
 31
0.0
  0
LINE
  5
111
330
1F
100
AcDbEntity
  8
0
  6
Continuous
 62
     7
370
    25
100
AcDbLine
 10
7378.7272453538
 20
9064.2606164149
 30
0.0
 11
7380.9772453538
 21
9068.1577307319
 31
0.0
  0
LINE
  5
112
330
1F
100
AcDbEntity
  8
0
  6
Continuous
 62
     7
370
    25
100
AcDbLine
 10
8125.239854722
 20
8714.0570771325
 30
0.0
 11
8125.239854722
 21
6344.0570771325
 31
0.0
  0
LINE
  5
113
330
1F
100
AcDbEntity
  8
0
  6
Continuous
 62
     7
370
    25
100
AcDbLine
 10
8140.739854722
 20
8714.0570771325
 30
0.0
 11
8125.239854722
 21
8714.0570771325
 31
0.0
  0
LINE
  5
114
330
1F
100
AcDbEntity
  8
0
  6
Continuous
 62
     7
370
    25
100
AcDbLine
 10
8140.739854722
 20
8714.0570771325
 30
0.0
 11
8140.739854722
 21
6344.0570771325
 31
0.0
  0
LINE
  5
115
330
1F
100
AcDbEntity
  8
0
  6
Continuous
 62
     7
370
    25
100
AcDbLine
 10
8140.739854722
 20
6344.0570771325
 30
0.0
 11
8125.239854722
 21
6344.0570771325
 31
0.0
  0
LINE
  5
116
330
1F
100
AcDbEntity
  8
0
  6
Continuous
 62
     7
370
    25
100
AcDbLine
 10
8120.739854722
 20
8714.0570771325
 30
0.0
 11
8120.739854722
 21
6344.0570771325
 31
0.0
  0
LINE
  5
117
330
1F
100
AcDbEntity
  8
0
  6
Continuous
 62
     7
370
    25
100
AcDbLine
 10
8125.239854722
 20
6344.0570771325
 30
0.0
 11
8120.739854722
 21
6344.0570771325
 31
0.0
  0
LINE
  5
118
330
1F
100
AcDbEntity
  8
0
  6
Continuous
 62
     7
370
    25
100
AcDbLine
 10
8125.239854722
 20
8714.0570771325
 30
0.0
 11
8120.739854722
 21
8714.0570771325
 31
0.0
  0
LINE
  5
119
330
1F
100
AcDbEntity
  8
0
  6
Continuous
 62
     7
370
    25
100
AcDbLine
 10
8231.239854722
 20
8714.0570771325
 30
0.0
 11
8231.239854722
 21
6344.0570771325
 31
0.0
  0
LINE
  5
11A
330
1F
100
AcDbEntity
  8
0
  6
Continuous
 62
     7
370
    25
100
AcDbLine
 10
8235.739854722
 20
8714.0570771325
 30
0.0
 11
8231.239854722
 21
8714.0570771325
 31
0.0
  0
LINE
  5
11B
330
1F
100
AcDbEntity
  8
0
  6
Continuous
 62
     7
370
    25
100
AcDbLine
 10
8235.739854722
 20
8714.0570771325
 30
0.0
 11
8235.739854722
 21
6344.0570771325
 31
0.0
  0
LINE
  5
11C
330
1F
100
AcDbEntity
  8
0
  6
Continuous
 62
     7
370
    25
100
AcDbLine
 10
8235.739854722
 20
6344.0570771325
 30
0.0
 11
8231.239854722
 21
6344.0570771325
 31
0.0
  0
LINE
  5
11D
330
1F
100
AcDbEntity
  8
0
  6
Continuous
 62
     7
370
    25
100
AcDbLine
 10
8231.239854722
 20
8714.0570771325
 30
0.0
 11
8215.739854722
 21
8714.0570771325
 31
0.0
  0
LINE
  5
11E
330
1F
100
AcDbEntity
  8
0
  6
Continuous
 62
     7
370
    25
100
AcDbLine
 10
8215.739854722
 20
8714.0570771325
 30
0.0
 11
8215.739854722
 21
6344.0570771325
 31
0.0
  0
LINE
  5
11F
330
1F
100
AcDbEntity
  8
0
  6
Continuous
 62
     7
370
    25
100
AcDbLine
 10
8231.239854722
 20
6344.0570771325
 30
0.0
 11
8215.739854722
 21
6344.0570771325
 31
0.0
  0
ARC
  5
120
330
1F
100
AcDbEntity
  8
0
  6
Continuous
 62
     7
370
    25
100
AcDbCircle
 10
8175.739854722
 20
8584.0570771325
 30
0.0
 40
6.5
100
AcDbArc
 50
90.0
 51
270.0
  0
LINE
  5
121
330
1F
100
AcDbEntity
  8
0
  6
Continuous
 62
     7
370
    25
100
AcDbLine
 10
8180.739854722
 20
8577.5570771325
 30
0.0
 11
8175.739854722
 21
8577.5570771325
 31
0.0
  0
ARC
  5
122
330
1F
100
AcDbEntity
  8
0
  6
Continuous
 62
     7
370
    25
100
AcDbCircle
 10
8180.739854722
 20
8584.0570771325
 30
0.0
 40
6.5
100
AcDbArc
 50
270.0
 51
90.0
  0
LINE
  5
123
330
1F
100
AcDbEntity
  8
0
  6
Continuous
 62
     7
370
    25
100
AcDbLine
 10
8175.739854722
 20
8590.5570771325
 30
0.0
 11
8180.739854722
 21
8590.5570771325
 31
0.0
  0
ARC
  5
124
330
1F
100
AcDbEntity
  8
0
  6
Continuous
 62
     7
370
    25
100
AcDbCircle
 10
8180.739854722
 20
7844.0570771324
 30
0.0
 40
6.5
100
AcDbArc
 50
270.0
 51
90.0
  0
LINE
  5
125
330
1F
100
AcDbEntity
  8
0
  6
Continuous
 62
     7
370
    25
100
AcDbLine
 10
8175.739854722
 20
7850.5570771324
 30
0.0
 11
8180.739854722
 21
7850.5570771324
 31
0.0
  0
ARC
  5
126
330
1F
100
AcDbEntity
  8
0
  6
Continuous
 62
     7
370
    25
100
AcDbCircle
 10
8175.739854722
 20
7844.0570771324
 30
0.0
 40
6.5
100
AcDbArc
 50
90.0
 51
270.0
  0
LINE
  5
127
330
1F
100
AcDbEntity
  8
0
  6
Continuous
 62
     7
370
    25
100
AcDbLine
 10
8180.739854722
 20
7837.5570771324
 30
0.0
 11
8175.739854722
 21
7837.5570771324
 31
0.0
  0
ARC
  5
128
330
1F
100
AcDbEntity
  8
0
  6
Continuous
 62
     7
370
    25
100
AcDbCircle
 10
8180.739854722
 20
7984.0570771324
 30
0.0
 40
6.500000000000909
100
AcDbArc
 50
270.0
 51
90.0
  0
LINE
  5
129
330
1F
100
AcDbEntity
  8
0
  6
Continuous
 62
     7
370
    25
100
AcDbLine
 10
8175.739854722
 20
7990.5570771324
 30
0.0
 11
8180.739854722
 21
7990.5570771324
 31
0.0
  0
ARC
  5
12A
330
1F
100
AcDbEntity
  8
0
  6
Continuous
 62
     7
370
    25
100
AcDbCircle
 10
8175.739854722
 20
7984.0570771324
 30
0.0
 40
6.500000000000909
100
AcDbArc
 50
90.0
 51
270.0
  0
LINE
  5
12B
330
1F
100
AcDbEntity
  8
0
  6
Continuous
 62
     7
370
    25
100
AcDbLine
 10
8180.739854722
 20
7977.5570771324
 30
0.0
 11
8175.739854722
 21
7977.5570771324
 31
0.0
  0
ARC
  5
12C
330
1F
100
AcDbEntity
  8
0
  6
Continuous
 62
     7
370
    25
100
AcDbCircle
 10
8175.739854722
 20
7914.0570771324
 30
0.0
 40
6.500000000000909
100
AcDbArc
 50
90.0
 51
270.0
  0
LINE
  5
12D
330
1F
100
AcDbEntity
  8
0
  6
Continuous
 62
     7
370
    25
100
AcDbLine
 10
8180.739854722
 20
7907.5570771324
 30
0.0
 11
8175.739854722
 21
7907.5570771324
 31
0.0
  0
ARC
  5
12E
330
1F
100
AcDbEntity
  8
0
  6
Continuous
 62
     7
370
    25
100
AcDbCircle
 10
8180.739854722
 20
7914.0570771324
 30
0.0
 40
6.500000000000909
100
AcDbArc
 50
270.0
 51
90.0
  0
LINE
  5
12F
330
1F
100
AcDbEntity
  8
0
  6
Continuous
 62
     7
370
    25
100
AcDbLine
 10
8175.739854722
 20
7920.5570771324
 30
0.0
 11
8180.739854722
 21
7920.5570771324
 31
0.0
  0
ARC
  5
130
330
1F
100
AcDbEntity
  8
0
  6
Continuous
 62
     7
370
    25
100
AcDbCircle
 10
8175.739854722
 20
8534.0570771325
 30
0.0
 40
6.5
100
AcDbArc
 50
90.0
 51
270.0
  0
LINE
  5
131
330
1F
100
AcDbEntity
  8
0
  6
Continuous
 62
     7
370
    25
100
AcDbLine
 10
8180.739854722
 20
8527.5570771325
 30
0.0
 11
8175.739854722
 21
8527.5570771325
 31
0.0
  0
ARC
  5
132
330
1F
100
AcDbEntity
  8
0
  6
Continuous
 62
     7
370
    25
100
AcDbCircle
 10
8180.739854722
 20
8534.0570771325
 30
0.0
 40
6.5
100
AcDbArc
 50
270.0
 51
90.0
  0
LINE
  5
133
330
1F
100
AcDbEntity
  8
0
  6
Continuous
 62
     7
370
    25
100
AcDbLine
 10
8175.739854722
 20
8540.5570771325
 30
0.0
 11
8180.739854722
 21
8540.5570771325
 31
0.0
  0
ARC
  5
134
330
1F
100
AcDbEntity
  8
0
  6
Continuous
 62
     7
370
    25
100
AcDbCircle
 10
8178.239854722
 20
8645.5570771325
 30
0.0
 40
6.500000000000909
100
AcDbArc
 50
180.0
 51
0.0
  0
LINE
  5
135
330
1F
100
AcDbEntity
  8
0
  6
Continuous
 62
     7
370
    25
100
AcDbLine
 10
8184.739854722
 20
8692.5570771325
 30
0.0
 11
8184.739854722
 21
8645.5570771325
 31
0.0
  0
ARC
  5
136
330
1F
100
AcDbEntity
  8
0
  6
Continuous
 62
     7
370
    25
100
AcDbCircle
 10
8178.239854722
 20
8692.5570771325
 30
0.0
 40
6.500000000000909
100
AcDbArc
 50
0.0
 51
180.0
  0
LINE
  5
137
330
1F
100
AcDbEntity
  8
0
  6
Continuous
 62
     7
370
    25
100
AcDbLine
 10
8171.739854722
 20
8645.5570771325
 30
0.0
 11
8171.739854722
 21
8692.5570771325
 31
0.0
  0
LINE
  5
138
330
1F
100
AcDbEntity
  8
0
  6
Continuous
 62
     7
370
    25
100
AcDbLine
 10
8140.739854722
 20
8714.0570771325
 30
0.0
 11
8215.739854722
 21
8714.0570771325
 31
0.0
  0
LINE
  5
139
330
1F
100
AcDbEntity
  8
0
  6
Continuous
 62
     7
370
    25
100
AcDbLine
 10
8140.739854722
 20
6344.0570771325
 30
0.0
 11
8215.739854722
 21
6344.0570771325
 31
0.0
  0
LINE
  5
13A
330
1F
100
AcDbEntity
  8
0
  6
Continuous
 62
     8
370
    25
100
AcDbLine
 10
7887.1304224361
 20
8493.3247360646
 30
0.0
 11
8120.739854722
 21
8124.3982147058
 31
0.0
  0
LINE
  5
13B
330
1F
100
AcDbEntity
  8
0
  6
Continuous
 62
     8
370
    25
100
AcDbLine
 10
7842.3525958896
 20
8464.9707901352
 30
0.0
 11
8120.739854722
 21
8025.3291113438
 31
0.0
  0
LINE
  5
13C
330
1F
100
AcDbEntity
  8
0
  6
Continuous
 62
     8
370
    25
100
AcDbLine
 10
8439.6628794176
 20
8080.914058284
 30
0.0
 11
8235.739854722
 21
7974.0929770702
 31
0.0
  0
LINE
  5
13D
330
1F
100
AcDbEntity
  8
0
  6
Continuous
 62
     8
370
    25
100
AcDbLine
 10
8464.2560195135
 20
8033.9653899299
 30
0.0
 11
8235.739854722
 21
7914.2616741073
 31
0.0
  0
LINE
  5
13E
330
1F
100
AcDbEntity
  8
0
  6
Continuous
 62
     8
370
    25
100
AcDbLine
 10
8975.5024640901
 20
8269.956423533
 30
0.0
 11
8235.739854722
 21
8697.0585651882
 31
0.0
  0
LINE
  5
13F
330
1F
100
AcDbEntity
  8
0
  6
Continuous
 62
     8
370
    25
100
AcDbLine
 10
8206.2975683814
 20
8714.0570771325
 30
0.0
 11
7433.9772453538
 21
9159.956423533
 31
0.0
  0
LINE
  5
140
330
1F
100
AcDbEntity
  8
0
  6
Continuous
 62
     8
370
    25
100
AcDbLine
 10
8922.5024640901
 20
8178.1577307319
 30
0.0
 11
8839.0466249857
 21
8226.3409819043
 31
0.0
  0
LINE
  5
141
330
1F
100
AcDbEntity
  8
0
  6
Continuous
 62
     8
370
    25
100
AcDbLine
 10
8814.9226725519
 20
8240.2689523358
 30
0.0
 11
8806.0533565535
 21
8245.3896543151
 31
0.0
  0
LINE
  5
142
330
1F
100
AcDbEntity
  8
0
  6
Continuous
 62
     8
370
    25
100
AcDbLine
 10
8777.5366912109
 20
8261.853758727
 30
0.0
 11
8235.739854722
 21
8574.66030812
 31
0.0
  0
LINE
  5
143
330
1F
100
AcDbEntity
  8
0
  6
Continuous
 62
     8
370
    25
100
AcDbLine
 10
8120.739854722
 20
8641.0555890768
 30
0.0
 11
7611.5894683186
 21
8935.0137017247
 31
0.0
  0
LINE
  5
144
330
1F
100
AcDbEntity
  8
0
  6
Continuous
 62
     8
370
    25
100
AcDbLine
 10
7499.6478624792
 20
8999.6432179896
 30
0.0
 11
7380.9772453538
 21
9068.1577307319
 31
0.0
  0
LINE
  5
145
330
1F
100
AcDbEntity
  8
0
  6
Continuous
 62
     7
370
    18
100
AcDbLine
 10
641.4070080204
 20
7744.0570771325
 30
0.0
 11
9400.2264736561
 21
7744.0570771324
 31
0.0
  0
DIMENSION
  5
146
330
1F
100
AcDbEntity
  8
0
  6
Continuous
 62
     7
370
    18
100
AcDbDimension
  2
_D
 10
9389.7071887248
 20
7744.0570771326
 30
0.0
 11
9389.7071887248
 21
8015.9229393572
 31
0.0
 70
   160
  1
<>
 71
     2
 42
-1.0
  3
SLDDIMSTYLE0
100
AcDbAlignedDimension
 13
9227.0197226734
 23
8291.59709438
 33
0.0
 14
9400.226473656
 24
7744.0570771326
 34
0.0
 50
90.0
100
AcDbRotatedDimension
  0
DIMENSION
  5
151
330
1F
100
AcDbEntity
  8
0
  6
Continuous
 62
     7
370
    18
100
AcDbDimension
  2
_D_1
 10
9627.0197226735
 20
7744.0570771326
 30
0.0
 11
9627.0197226735
 21
8074.7595167543
 31
0.0
 70
   160
  1
<>
 71
     2
 42
-1.0
  3
SLDDIMSTYLE0
100
AcDbAlignedDimension
 13
8913.8701234924
 23
8426.2060782286
 33
0.0
 14
9400.226473656
 24
7744.0570771326
 34
0.0
 50
90.0
100
AcDbRotatedDimension
  0
DIMENSION
  5
15B
330
1F
100
AcDbEntity
  8
0
  6
Continuous
 62
     7
370
    18
100
AcDbDimension
  2
_D_2
 10
7211.7800900169
 20
7744.0570771326
 30
0.0
 11
7211.7800900169
 21
8468.2797353482
 31
0.0
 70
   160
  1
<>
 71
     2
 42
-1.0
  3
SLDDIMSTYLE0
100
AcDbAlignedDimension
 13
7600.1095859514
 23
9184.7060782286
 33
0.0
 14
9400.226473656
 24
7744.0570771326
 34
0.0
 50
90.0
100
AcDbRotatedDimension
  0
DIMENSION
  5
164
330
1F
100
AcDbEntity
  8
0
  6
Continuous
 62
     7
370
    18
100
AcDbDimension
  2
_D_3
 10
6887.9753461309
 20
7744.0570771326
 30
0.0
 11
6887.9753461309
 21
8427.3611305388
 31
0.0
 70
   160
  1
<>
 71
     2
 42
-1.0
  3
SLDDIMSTYLE0
100
AcDbAlignedDimension
 13
7252.4818020449
 23
9431.59709438
 33
0.0
 14
9400.226473656
 24
7744.0570771326
 34
0.0
 50
90.0
100
AcDbRotatedDimension
  0
DIMENSION
  5
16D
330
1F
100
AcDbEntity
  8
0
  6
Continuous
 62
     7
370
    18
100
AcDbDimension
  2
_D_4
 10
641.4070080203
 20
7744.0570771326
 30
0.0
 11
7618.1246501239
 21
8313.2886959689
 31
0.0
 70
   162
  1
<>
 71
     1
 42
-1.0
  3
SLDDIMSTYLE1
100
AcDb2LineAngularDimension
 13
8922.50246409
 23
8178.157730732
 33
0.0
 14
7380.9772453537
 24
9068.157730732
 34
0.0
 15
9400.226473656
 25
7744.0570771326
 35
0.0
 16
7613.4897910099
 26
8296.2727802344
 36
0.0
  0
DIMENSION
  5
176
330
1F
100
AcDbEntity
  8
0
  6
Continuous
 62
     7
370
    18
100
AcDbDimension
  2
_D_5
 10
9318.8713604088
 20
8450.6887976958
 30
0.0
 11
8441.4108964727
 21
8957.2908327528
 31
0.0
 70
   160
  1
<>
 71
     2
 42
-1.0
  3
SLDDIMSTYLE0
100
AcDbAlignedDimension
 13
7252.481802045
 23
9431.5970943799
 33
0.0
 14
9227.0197226735
 24
8291.5970943799
 34
0.0
 50
-30.0
100
AcDbRotatedDimension
  0
DIMENSION
  5
180
330
1F
100
AcDbEntity
  8
0
  6
Continuous
 62
     7
370
    18
100
AcDbDimension
  2
_D_6
 10
9227.0197226735
 20
10024.6401199658
 30
0.0
 11
8178.5053028519
 21
10024.6401199658
 31
0.0
 70
   160
  1
<>
 71
     2
 42
-1.0
  3
SLDDIMSTYLE0
100
AcDbAlignedDimension
 13
7252.481802045
 23
9431.5970943799
 33
0.0
 14
9227.0197226735
 24
8291.5970943799
 34
0.0
100
AcDbRotatedDimension
  0
DIMENSION
  5
18A
330
1F
100
AcDbEntity
  8
0
  6
Continuous
 62
     7
370
    18
100
AcDbDimension
  2
_D_7
 10
8977.7524640901
 20
9751.738019913
 30
0.0
 11
8112.5916052298
 21
9751.738019913
 31
0.0
 70
   160
  1
<>
 71
     2
 42
-1.0
  3
SLDDIMSTYLE0
100
AcDbAlignedDimension
 13
7436.2272453538
 23
9163.8535378501
 33
0.0
 14
8977.7524640901
 24
8273.8535378501
 34
0.0
100
AcDbRotatedDimension
  0
LINE
  5
194
330
1F
100
AcDbEntity
  8
0
  6
Continuous
 62
     7
370
    25
100
AcDbLine
 10
5876.9408211606
 20
8448.1749711383
 30
0.0
 11
5841.8408379452
 21
8448.1749711383
 31
0.0
  0
LINE
  5
195
330
1F
100
AcDbEntity
  8
0
  6
Continuous
 62
     7
370
    25
100
AcDbLine
 10
4702.0407662289
 20
8448.1749711383
 30
0.0
 11
4681.8407521146
 21
8448.1749711383
 31
0.0
  0
LINE
  5
196
330
1F
100
AcDbEntity
  8
0
  6
Continuous
 62
     7
370
    25
100
AcDbLine
 10
3542.0409188168
 20
8448.1749711383
 30
0.0
 11
3506.9409356015
 21
8448.1749711383
 31
0.0
  0
LINE
  5
197
330
1F
100
AcDbEntity
  8
0
  6
Continuous
 62
     7
370
    25
100
AcDbLine
 10
5841.9409737485
 20
8339.1346512187
 30
0.0
 11
5876.9408211606
 21
8339.1346512187
 31
0.0
  0
LINE
  5
198
330
1F
100
AcDbEntity
  8
0
  6
Continuous
 62
     7
370
    25
100
AcDbLine
 10
4681.9408879178
 20
8339.1346512187
 30
0.0
 11
4701.9408688443
 21
8339.1346512187
 31
0.0
  0
LINE
  5
199
330
1F
100
AcDbEntity
  8
0
  6
Continuous
 62
     7
370
    25
100
AcDbLine
 10
3506.9409356015
 20
8339.1346512187
 30
0.0
 11
3541.9407830136
 21
8339.1346512187
 31
0.0
  0
LINE
  5
19A
330
1F
100
AcDbEntity
  8
0
  6
Continuous
 62
     7
370
    25
100
AcDbLine
 10
5876.9408211606
 20
9185.1749596942
 30
0.0
 11
5841.8408379452
 21
9185.1749596942
 31
0.0
  0
LINE
  5
19B
330
1F
100
AcDbEntity
  8
0
  6
Continuous
 62
     7
370
    25
100
AcDbLine
 10
4702.0407662289
 20
9185.1749596942
 30
0.0
 11
4681.8407521146
 21
9185.1749596942
 31
0.0
  0
LINE
  5
19C
330
1F
100
AcDbEntity
  8
0
  6
Continuous
 62
     7
370
    25
100
AcDbLine
 10
3542.0409188168
 20
9185.1749596942
 30
0.0
 11
3506.9409356015
 21
9185.1749596942
 31
0.0
  0
LINE
  5
19D
330
1F
100
AcDbEntity
  8
0
  6
Continuous
 62
     7
370
    25
100
AcDbLine
 10
5841.9409737485
 20
9076.13458017
 30
0.0
 11
5876.9408211606
 21
9076.13458017
 31
0.0
  0
LINE
  5
19E
330
1F
100
AcDbEntity
  8
0
  6
Continuous
 62
     7
370
    25
100
AcDbLine
 10
4681.9408879178
 20
9076.13458017
 30
0.0
 11
4701.9408688443
 21
9076.13458017
 31
0.0
  0
LINE
  5
19F
330
1F
100
AcDbEntity
  8
0
  6
Continuous
 62
     7
370
    25
100
AcDbLine
 10
3506.9409356015
 20
9076.13458017
 30
0.0
 11
3541.9407830136
 21
9076.13458017
 31
0.0
  0
LINE
  5
1A0
330
1F
100
AcDbEntity
  8
0
  6
Continuous
 62
     7
370
    25
100
AcDbLine
 10
3506.9409356015
 20
8448.1749711383
 30
0.0
 11
3471.8409523862
 21
8448.1749711383
 31
0.0
  0
LINE
  5
1A1
330
1F
100
AcDbEntity
  8
0
  6
Continuous
 62
     7
370
    25
100
AcDbLine
 10
2332.0408210652
 20
8448.1749711383
 30
0.0
 11
2311.8408665555
 21
8448.1749711383
 31
0.0
  0
LINE
  5
1A2
330
1F
100
AcDbEntity
  8
0
  6
Continuous
 62
     7
370
    25
100
AcDbLine
 10
1172.0408395426
 20
8448.1749711383
 30
0.0
 11
1136.9408414262
 21
8448.1749711383
 31
0.0
  0
LINE
  5
1A3
330
1F
100
AcDbEntity
  8
0
  6
Continuous
 62
     7
370
    25
100
AcDbLine
 10
3471.9408497708
 20
8339.1346512187
 30
0.0
 11
3506.9409356015
 21
8339.1346512187
 31
0.0
  0
LINE
  5
1A4
330
1F
100
AcDbEntity
  8
0
  6
Continuous
 62
     7
370
    25
100
AcDbLine
 10
2311.9408235448
 20
8339.1346512187
 30
0.0
 11
2331.9408640759
 21
8339.1346512187
 31
0.0
  0
LINE
  5
1A5
330
1F
100
AcDbEntity
  8
0
  6
Continuous
 62
     7
370
    25
100
AcDbLine
 10
1136.9408414262
 20
8339.1346512187
 30
0.0
 11
1171.9408378499
 21
8339.1346512187
 31
0.0
  0
LINE
  5
1A6
330
1F
100
AcDbEntity
  8
0
  6
Continuous
 62
     7
370
    25
100
AcDbLine
 10
3506.9409356015
 20
9185.1749596942
 30
0.0
 11
3471.8409523862
 21
9185.1749596942
 31
0.0
  0
LINE
  5
1A7
330
1F
100
AcDbEntity
  8
0
  6
Continuous
 62
     7
370
    25
100
AcDbLine
 10
2332.0408210652
 20
9185.1749596942
 30
0.0
 11
2311.8408665555
 21
9185.1749596942
 31
0.0
  0
LINE
  5
1A8
330
1F
100
AcDbEntity
  8
0
  6
Continuous
 62
     7
370
    25
100
AcDbLine
 10
1172.0408395426
 20
9185.1749596942
 30
0.0
 11
1136.9408414262
 21
9185.1749596942
 31
0.0
  0
LINE
  5
1A9
330
1F
100
AcDbEntity
  8
0
  6
Continuous
 62
     7
370
    25
100
AcDbLine
 10
3471.9408497708
 20
9076.13458017
 30
0.0
 11
3506.9409356015
 21
9076.13458017
 31
0.0
  0
LINE
  5
1AA
330
1F
100
AcDbEntity
  8
0
  6
Continuous
 62
     7
370
    25
100
AcDbLine
 10
2311.9408235448
 20
9076.13458017
 30
0.0
 11
2331.9408640759
 21
9076.13458017
 31
0.0
  0
LINE
  5
1AB
330
1F
100
AcDbEntity
  8
0
  6
Continuous
 62
     7
370
    25
100
AcDbLine
 10
1136.9408414262
 20
9076.13458017
 30
0.0
 11
1171.9408378499
 21
9076.13458017
 31
0.0
  0
LINE
  5
1AC
330
1F
100
AcDbEntity
  8
0
  6
Continuous
 62
     7
370
    25
100
AcDbLine
 10
5636.9410500424
 20
8174.2606041778
 30
0.0
 11
5636.9410500424
 21
8156.4018009055
 31
0.0
  0
LINE
  5
1AD
330
1F
100
AcDbEntity
  8
0
  6
Continuous
 62
     7
370
    25
100
AcDbLine
 10
3266.9408068555
 20
8174.2606041778
 30
0.0
 11
3266.9408068555
 21
8156.4018009055
 31
0.0
  0
LINE
  5
1AE
330
1F
100
AcDbEntity
  8
0
  6
Continuous
 62
     7
370
    25
100
AcDbLine
 10
1396.94083934
 20
8174.2606041778
 30
0.0
 11
1396.94083934
 21
8156.4018009055
 31
0.0
  0
ARC
  5
1AF
330
1F
100
AcDbEntity
  8
0
  6
Continuous
 62
     7
370
    25
100
AcDbCircle
 10
1353.486038319
 20
8259.610154714
 30
0.0
 40
3.695010117861194
100
AcDbArc
 50
269.2991276876
 51
314.0863564315
  0
LINE
  5
1B0
330
1F
100
AcDbEntity
  8
0
  6
Continuous
 62
     7
370
    25
100
AcDbLine
 10
1353.440840126
 20
8255.9154210437
 30
0.0
 11
1353.440840126
 21
8030.8650014747
 31
0.0
  0
LINE
  5
1B1
330
1F
100
AcDbEntity
  8
0
  6
Continuous
 62
     7
370
    25
100
AcDbLine
 10
1356.9408402341
 20
8178.1577346671
 30
0.0
 11
1356.9408402341
 21
8033.9653966773
 31
0.0
  0
ARC
  5
1B2
330
1F
100
AcDbEntity
  8
0
  6
Continuous
 62
     7
370
    25
100
AcDbCircle
 10
1353.629236075
 20
8034.1780757995
 30
0.0
 40
3.318426512001496
100
AcDbArc
 50
266.7454154193
 51
356.3253747747
  0
LINE
  5
1B3
330
1F
100
AcDbEntity
  8
0
  6
Continuous
 62
     7
370
    25
100
AcDbLine
 10
1316.9408411281
 20
8255.9154210437
 30
0.0
 11
1316.9408411281
 21
8030.8650014747
 31
0.0
  0
LINE
  5
1B4
330
1F
100
AcDbEntity
  8
0
  6
Continuous
 62
     7
370
    25
100
AcDbLine
 10
1353.440840126
 20
8255.9154210437
 30
0.0
 11
1316.9408411281
 21
8255.9154210437
 31
0.0
  0
LINE
  5
1B5
330
1F
100
AcDbEntity
  8
0
  6
Continuous
 62
     7
370
    25
100
AcDbLine
 10
1353.440840126
 20
8030.8650014747
 30
0.0
 11
1316.9408411281
 21
8030.8650014747
 31
0.0
  0
LINE
  5
1B6
330
1F
100
AcDbEntity
  8
0
  6
Continuous
 62
     7
370
    25
100
AcDbLine
 10
1316.9408411281
 20
8256.9560585368
 30
0.0
 11
1316.9408411281
 21
8255.9154210437
 31
0.0
  0
LINE
  5
1B7
330
1F
100
AcDbEntity
  8
0
  6
Continuous
 62
     7
370
    25
100
AcDbLine
 10
1396.94083934
 20
8103.2523689616
 30
0.0
 11
1396.94083934
 21
8104.5811055053
 31
0.0
  0
LINE
  5
1B8
330
1F
100
AcDbEntity
  8
0
  6
Continuous
 62
     7
370
    25
100
AcDbLine
 10
1396.94083934
 20
8103.2523689616
 30
0.0
 11
1360.4408403421
 21
8103.2523689616
 31
0.0
  0
LINE
  5
1B9
330
1F
100
AcDbEntity
  8
0
  6
Continuous
 62
     7
370
    25
100
AcDbLine
 10
1360.4408403421
 20
8104.5811055053
 30
0.0
 11
1360.4408403421
 21
8103.2523689616
 31
0.0
  0
LINE
  5
1BA
330
1F
100
AcDbEntity
  8
0
  6
Continuous
 62
     7
370
    25
100
AcDbLine
 10
1396.94083934
 20
8104.5811055053
 30
0.0
 11
1360.4408403421
 21
8104.5811055053
 31
0.0
  0
LINE
  5
1BB
330
1F
100
AcDbEntity
  8
0
  6
Continuous
 62
     7
370
    25
100
AcDbLine
 10
1360.4408403421
 20
8103.2523689616
 30
0.0
 11
1360.4408403421
 21
7878.2019344914
 31
0.0
  0
LINE
  5
1BC
330
1F
100
AcDbEntity
  8
0
  6
Continuous
 62
     7
370
    25
100
AcDbLine
 10
1396.94083934
 20
8103.2523689616
 30
0.0
 11
1396.94083934
 21
7878.2019344914
 31
0.0
  0
LINE
  5
1BD
330
1F
100
AcDbEntity
  8
0
  6
Continuous
 62
     7
370
    25
100
AcDbLine
 10
1396.94083934
 20
7878.2019344914
 30
0.0
 11
1360.4408403421
 21
7878.2019344914
 31
0.0
  0
ARC
  5
1BE
330
1F
100
AcDbEntity
  8
0
  6
Continuous
 62
     7
370
    25
100
AcDbCircle
 10
1360.3331668018
 20
8106.4742714974
 30
0.0
 40
1.896225478386707
100
AcDbArc
 50
183.674848605
 51
273.2551822453
  0
ARC
  5
1BF
330
1F
100
AcDbEntity
  8
0
  6
Continuous
 62
     7
370
    25
100
AcDbCircle
 10
1360.2524337204
 20
8106.5654332825
 30
0.0
 40
3.318417130097588
100
AcDbArc
 50
183.6749781709
 51
273.2547783661
  0
LINE
  5
1C0
330
1F
100
AcDbEntity
  8
0
  6
Continuous
 62
     7
370
    25
100
AcDbLine
 10
1356.9408402341
 20
8106.3527343619
 30
0.0
 11
1358.4408402471
 21
8106.3527343619
 31
0.0
  0
LINE
  5
1C1
330
1F
100
AcDbEntity
  8
0
  6
Continuous
 62
     7
370
    25
100
AcDbLine
 10
1356.9408402341
 20
8106.3527343619
 30
0.0
 11
1356.9408402341
 21
7911.9044421065
 31
0.0
  0
ARC
  5
1C2
330
1F
100
AcDbEntity
  8
0
  6
Continuous
 62
     7
370
    25
100
AcDbCircle
 10
1360.2524183353
 20
7881.514980422
 30
0.0
 40
3.318399643009589
100
AcDbArc
 50
183.6744215663
 51
273.2550616047
  0
LINE
  5
1C3
330
1F
100
AcDbEntity
  8
0
  6
Continuous
 62
     7
370
    25
100
AcDbLine
 10
1358.4408402471
 20
8153.3014057029
 30
0.0
 11
1356.9408402341
 21
8153.3014057029
 31
0.0
  0
LINE
  5
1C4
330
1F
100
AcDbEntity
  8
0
  6
Continuous
 62
     7
370
    25
100
AcDbLine
 10
1358.4408402471
 20
8106.3527343619
 30
0.0
 11
1358.4408402471
 21
8153.3014057029
 31
0.0
  0
ARC
  5
1C5
330
1F
100
AcDbEntity
  8
0
  6
Continuous
 62
     7
370
    25
100
AcDbCircle
 10
1360.333182066
 20
8153.1798831824
 30
0.0
 40
1.89623977459078
100
AcDbArc
 50
86.7453042848
 51
176.3256216454
  0
ARC
  5
1C6
330
1F
100
AcDbEntity
  8
0
  6
Continuous
 62
     7
370
    25
100
AcDbCircle
 10
1360.2524443932
 20
8153.0887265807
 30
0.0
 40
3.31842651199939
100
AcDbArc
 50
86.7454154193
 51
176.3253747748
  0
LINE
  5
1C7
330
1F
100
AcDbEntity
  8
0
  6
Continuous
 62
     7
370
    25
100
AcDbLine
 10
1360.4408403421
 20
8156.4018009055
 30
0.0
 11
1360.4408403421
 21
8155.0730643619
 31
0.0
  0
LINE
  5
1C8
330
1F
100
AcDbEntity
  8
0
  6
Continuous
 62
     7
370
    25
100
AcDbLine
 10
1360.4408403421
 20
8155.0730643619
 30
0.0
 11
1396.94083934
 21
8155.0730643619
 31
0.0
  0
LINE
  5
1C9
330
1F
100
AcDbEntity
  8
0
  6
Continuous
 62
     7
370
    25
100
AcDbLine
 10
1396.94083934
 20
8155.0730643619
 30
0.0
 11
1396.94083934
 21
8104.5811055053
 31
0.0
  0
LINE
  5
1CA
330
1F
100
AcDbEntity
  8
0
  6
Continuous
 62
     7
370
    25
100
AcDbLine
 10
1360.4408403421
 20
8156.4018009055
 30
0.0
 11
1396.94083934
 21
8156.4018009055
 31
0.0
  0
LINE
  5
1CB
330
1F
100
AcDbEntity
  8
0
  6
Continuous
 62
     7
370
    25
100
AcDbLine
 10
1396.94083934
 20
8155.0730643619
 30
0.0
 11
1396.94083934
 21
8156.4018009055
 31
0.0
  0
LINE
  5
1CC
330
1F
100
AcDbEntity
  8
0
  6
Continuous
 62
     7
370
    25
100
AcDbLine
 10
3230.4408297436
 20
8103.2523689616
 30
0.0
 11
3230.4408297436
 21
7878.2019344914
 31
0.0
  0
LINE
  5
1CD
330
1F
100
AcDbEntity
  8
0
  6
Continuous
 62
     7
370
    25
100
AcDbLine
 10
3266.9408068555
 20
8103.2523689616
 30
0.0
 11
3230.4408297436
 21
8103.2523689616
 31
0.0
  0
LINE
  5
1CE
330
1F
100
AcDbEntity
  8
0
  6
Continuous
 62
     7
370
    25
100
AcDbLine
 10
3266.9408068555
 20
8103.2523689616
 30
0.0
 11
3266.9408068555
 21
7878.2019344914
 31
0.0
  0
LINE
  5
1CF
330
1F
100
AcDbEntity
  8
0
  6
Continuous
 62
     7
370
    25
100
AcDbLine
 10
3266.9408068555
 20
7878.2019344914
 30
0.0
 11
3230.4408297436
 21
7878.2019344914
 31
0.0
  0
LINE
  5
1D0
330
1F
100
AcDbEntity
  8
0
  6
Continuous
 62
     7
370
    25
100
AcDbLine
 10
3266.9408068555
 20
8103.2523689616
 30
0.0
 11
3266.9408068555
 21
8104.5811055053
 31
0.0
  0
LINE
  5
1D1
330
1F
100
AcDbEntity
  8
0
  6
Continuous
 62
     7
370
    25
100
AcDbLine
 10
3230.4408297436
 20
8104.5811055053
 30
0.0
 11
3230.4408297436
 21
8103.2523689616
 31
0.0
  0
LINE
  5
1D2
330
1F
100
AcDbEntity
  8
0
  6
Continuous
 62
     7
370
    25
100
AcDbLine
 10
3266.9408068555
 20
8104.5811055053
 30
0.0
 11
3230.4408297436
 21
8104.5811055053
 31
0.0
  0
ARC
  5
1D3
330
1F
100
AcDbEntity
  8
0
  6
Continuous
 62
     7
370
    25
100
AcDbCircle
 10
3230.3331808888
 20
8106.4742717598
 30
0.0
 40
1.89622433881914
100
AcDbArc
 50
183.6748587617
 51
273.2544371105
  0
ARC
  5
1D4
330
1F
100
AcDbEntity
  8
0
  6
Continuous
 62
     7
370
    25
100
AcDbCircle
 10
3230.2524003525
 20
8106.5653911645
 30
0.0
 40
3.318376372859784
100
AcDbArc
 50
183.6742946531
 51
273.2552121627
  0
LINE
  5
1D5
330
1F
100
AcDbEntity
  8
0
  6
Continuous
 62
     7
370
    25
100
AcDbLine
 10
3226.9408450024
 20
8106.3527343619
 30
0.0
 11
3228.4408554928
 21
8106.3527343619
 31
0.0
  0
LINE
  5
1D6
330
1F
100
AcDbEntity
  8
0
  6
Continuous
 62
     7
370
    25
100
AcDbLine
 10
3226.9408450024
 20
8106.3527343619
 30
0.0
 11
3226.9408450024
 21
7911.9044421065
 31
0.0
  0
ARC
  5
1D7
330
1F
100
AcDbEntity
  8
0
  6
Continuous
 62
     7
370
    25
100
AcDbCircle
 10
3230.2523849684
 20
7881.5149383054
 30
0.0
 40
3.318358887238714
100
AcDbArc
 50
183.6737380611
 51
273.2554953885
  0
LINE
  5
1D8
330
1F
100
AcDbEntity
  8
0
  6
Continuous
 62
     7
370
    25
100
AcDbLine
 10
3228.4408554928
 20
8153.3014057029
 30
0.0
 11
3226.9408450024
 21
8153.3014057029
 31
0.0
  0
LINE
  5
1D9
330
1F
100
AcDbEntity
  8
0
  6
Continuous
 62
     7
370
    25
100
AcDbLine
 10
3228.4408554928
 20
8106.3527343619
 30
0.0
 11
3228.4408554928
 21
8153.3014057029
 31
0.0
  0
ARC
  5
1DA
330
1F
100
AcDbEntity
  8
0
  6
Continuous
 62
     7
370
    25
100
AcDbCircle
 10
3230.3331961539
 20
8153.1798829192
 30
0.0
 40
1.896238635984538
100
AcDbArc
 50
86.7460494432
 51
176.3256114666
  0
ARC
  5
1DB
330
1F
100
AcDbEntity
  8
0
  6
Continuous
 62
     7
370
    25
100
AcDbCircle
 10
3230.2524110258
 20
8153.0887686977
 30
0.0
 40
3.318385755607714
100
AcDbArc
 50
86.7449816366
 51
176.326058279
  0
LINE
  5
1DC
330
1F
100
AcDbEntity
  8
0
  6
Continuous
 62
     7
370
    25
100
AcDbLine
 10
3230.4408297436
 20
8156.4018009055
 30
0.0
 11
3230.4408297436
 21
8155.0730643619
 31
0.0
  0
LINE
  5
1DD
330
1F
100
AcDbEntity
  8
0
  6
Continuous
 62
     7
370
    25
100
AcDbLine
 10
3266.9408068555
 20
8155.0730643619
 30
0.0
 11
3266.9408068555
 21
8156.4018009055
 31
0.0
  0
LINE
  5
1DE
330
1F
100
AcDbEntity
  8
0
  6
Continuous
 62
     7
370
    25
100
AcDbLine
 10
3230.4408297436
 20
8155.0730643619
 30
0.0
 11
3266.9408068555
 21
8155.0730643619
 31
0.0
  0
LINE
  5
1DF
330
1F
100
AcDbEntity
  8
0
  6
Continuous
 62
     7
370
    25
100
AcDbLine
 10
3230.4408297436
 20
8156.4018009055
 30
0.0
 11
3266.9408068555
 21
8156.4018009055
 31
0.0
  0
LINE
  5
1E0
330
1F
100
AcDbEntity
  8
0
  6
Continuous
 62
     7
370
    25
100
AcDbLine
 10
3266.9408068555
 20
8155.0730643619
 30
0.0
 11
3266.9408068555
 21
8104.5811055053
 31
0.0
  0
LINE
  5
1E1
330
1F
100
AcDbEntity
  8
0
  6
Continuous
 62
     7
370
    25
100
AcDbLine
 10
5600.4410729306
 20
8103.2523689616
 30
0.0
 11
5600.4410729306
 21
7878.2019344914
 31
0.0
  0
LINE
  5
1E2
330
1F
100
AcDbEntity
  8
0
  6
Continuous
 62
     7
370
    25
100
AcDbLine
 10
5636.9410500424
 20
8103.2523689616
 30
0.0
 11
5600.4410729306
 21
8103.2523689616
 31
0.0
  0
LINE
  5
1E3
330
1F
100
AcDbEntity
  8
0
  6
Continuous
 62
     7
370
    25
100
AcDbLine
 10
5636.9410500424
 20
8103.2523689616
 30
0.0
 11
5636.9410500424
 21
7878.2019344914
 31
0.0
  0
LINE
  5
1E4
330
1F
100
AcDbEntity
  8
0
  6
Continuous
 62
     7
370
    25
100
AcDbLine
 10
5636.9410500424
 20
7878.2019344914
 30
0.0
 11
5600.4410729306
 21
7878.2019344914
 31
0.0
  0
LINE
  5
1E5
330
1F
100
AcDbEntity
  8
0
  6
Continuous
 62
     7
370
    25
100
AcDbLine
 10
5636.9410500424
 20
8103.2523689616
 30
0.0
 11
5636.9410500424
 21
8104.5811055053
 31
0.0
  0
LINE
  5
1E6
330
1F
100
AcDbEntity
  8
0
  6
Continuous
 62
     7
370
    25
100
AcDbLine
 10
5600.4410729306
 20
8104.5811055053
 30
0.0
 11
5600.4410729306
 21
8103.2523689616
 31
0.0
  0
LINE
  5
1E7
330
1F
100
AcDbEntity
  8
0
  6
Continuous
 62
     7
370
    25
100
AcDbLine
 10
5636.9410500424
 20
8104.5811055053
 30
0.0
 11
5600.4410729306
 21
8104.5811055053
 31
0.0
  0
ARC
  5
1E8
330
1F
100
AcDbEntity
  8
0
  6
Continuous
 62
     7
370
    25
100
AcDbCircle
 10
5600.3330686646
 20
8106.4742524962
 30
0.0
 40
1.896225316452025
100
AcDbArc
 50
183.6742736032
 51
273.2651918309
  0
ARC
  5
1E9
330
1F
100
AcDbEntity
  8
0
  6
Continuous
 62
     7
370
    25
100
AcDbCircle
 10
5600.2525668898
 20
8106.5658139782
 30
0.0
 40
3.318802857278635
100
AcDbArc
 50
183.6811363518
 51
273.2561188171
  0
LINE
  5
1EA
330
1F
100
AcDbEntity
  8
0
  6
Continuous
 62
     7
370
    25
100
AcDbLine
 10
5596.9406113522
 20
8106.3527343619
 30
0.0
 11
5598.4407410519
 21
8106.3527343619
 31
0.0
  0
LINE
  5
1EB
330
1F
100
AcDbEntity
  8
0
  6
Continuous
 62
     7
370
    25
100
AcDbLine
 10
5596.9406113522
 20
8106.3527343619
 30
0.0
 11
5596.9406113522
 21
7911.9044421065
 31
0.0
  0
ARC
  5
1EC
330
1F
100
AcDbEntity
  8
0
  6
Continuous
 62
     7
370
    25
100
AcDbCircle
 10
5600.2525515007
 20
7881.5153611091
 30
0.0
 40
3.318785362131031
100
AcDbArc
 50
183.6805796991
 51
273.2564021081
  0
LINE
  5
1ED
330
1F
100
AcDbEntity
  8
0
  6
Continuous
 62
     7
370
    25
100
AcDbLine
 10
5598.4407410519
 20
8153.3014057029
 30
0.0
 11
5596.9406113522
 21
8153.3014057029
 31
0.0
  0
LINE
  5
1EE
330
1F
100
AcDbEntity
  8
0
  6
Continuous
 62
     7
370
    25
100
AcDbLine
 10
5598.4407410519
 20
8106.3527343619
 30
0.0
 11
5598.4407410519
 21
8153.3014057029
 31
0.0
  0
ARC
  5
1EF
330
1F
100
AcDbEntity
  8
0
  6
Continuous
 62
     7
370
    25
100
AcDbCircle
 10
5600.3330839374
 20
8153.1799021707
 30
0.0
 40
1.896239622157442
100
AcDbArc
 50
86.7352950544
 51
176.3261962728
  0
ARC
  5
1F0
330
1F
100
AcDbEntity
  8
0
  6
Continuous
 62
     7
370
    25
100
AcDbCircle
 10
5600.2525775629
 20
8153.0883458866
 30
0.0
 40
3.318812237221909
100
AcDbArc
 50
86.7440749539
 51
176.3192165996
  0
LINE
  5
1F1
330
1F
100
AcDbEntity
  8
0
  6
Continuous
 62
     7
370
    25
100
AcDbLine
 10
5600.4410729306
 20
8156.4018009055
 30
0.0
 11
5600.4410729306
 21
8155.0730643619
 31
0.0
  0
LINE
  5
1F2
330
1F
100
AcDbEntity
  8
0
  6
Continuous
 62
     7
370
    25
100
AcDbLine
 10
5600.4410729306
 20
8155.0730643619
 30
0.0
 11
5636.9410500424
 21
8155.0730643619
 31
0.0
  0
LINE
  5
1F3
330
1F
100
AcDbEntity
  8
0
  6
Continuous
 62
     7
370
    25
100
AcDbLine
 10
5636.9410500424
 20
8155.0730643619
 30
0.0
 11
5636.9410500424
 21
8104.5811055053
 31
0.0
  0
LINE
  5
1F4
330
1F
100
AcDbEntity
  8
0
  6
Continuous
 62
     7
370
    25
100
AcDbLine
 10
5636.9410500424
 20
8155.0730643619
 30
0.0
 11
5636.9410500424
 21
8156.4018009055
 31
0.0
  0
LINE
  5
1F5
330
1F
100
AcDbEntity
  8
0
  6
Continuous
 62
     7
370
    25
100
AcDbLine
 10
5600.4410729306
 20
8156.4018009055
 30
0.0
 11
5636.9410500424
 21
8156.4018009055
 31
0.0
  0
LINE
  5
1F6
330
1F
100
AcDbEntity
  8
0
  6
Continuous
 62
     7
370
    25
100
AcDbLine
 10
5593.440626611
 20
8255.9154210437
 30
0.0
 11
5593.440626611
 21
8030.8650014747
 31
0.0
  0
ARC
  5
1F7
330
1F
100
AcDbEntity
  8
0
  6
Continuous
 62
     7
370
    25
100
AcDbCircle
 10
5593.4856459689
 20
8259.6116775813
 30
0.0
 40
3.696530688983396
100
AcDbArc
 50
269.3021881348
 51
314.0767614192
  0
LINE
  5
1F8
330
1F
100
AcDbEntity
  8
0
  6
Continuous
 62
     7
370
    25
100
AcDbLine
 10
5596.9406113522
 20
8178.1577346671
 30
0.0
 11
5596.9406113522
 21
8033.9653966773
 31
0.0
  0
ARC
  5
1F9
330
1F
100
AcDbEntity
  8
0
  6
Continuous
 62
     7
370
    25
100
AcDbCircle
 10
5593.6295602207
 20
8034.1774524296
 30
0.0
 40
3.317834721290876
100
AcDbArc
 50
266.7355343592
 51
356.3355055563
  0
LINE
  5
1FA
330
1F
100
AcDbEntity
  8
0
  6
Continuous
 62
     7
370
    25
100
AcDbLine
 10
5593.440626611
 20
8255.9154210437
 30
0.0
 11
5556.9406494992
 21
8255.9154210437
 31
0.0
  0
LINE
  5
1FB
330
1F
100
AcDbEntity
  8
0
  6
Continuous
 62
     7
370
    25
100
AcDbLine
 10
5593.440626611
 20
8030.8650014747
 30
0.0
 11
5556.9406494992
 21
8030.8650014747
 31
0.0
  0
LINE
  5
1FC
330
1F
100
AcDbEntity
  8
0
  6
Continuous
 62
     7
370
    25
100
AcDbLine
 10
5556.9406494992
 20
8255.9154210437
 30
0.0
 11
5556.9406494992
 21
8030.8650014747
 31
0.0
  0
LINE
  5
1FD
330
1F
100
AcDbEntity
  8
0
  6
Continuous
 62
     7
370
    25
100
AcDbLine
 10
5556.9406494992
 20
8256.9560585368
 30
0.0
 11
5556.9406494992
 21
8255.9154210437
 31
0.0
  0
LINE
  5
1FE
330
1F
100
AcDbEntity
  8
0
  6
Continuous
 62
     7
370
    25
100
AcDbLine
 10
3223.4408602612
 20
8255.9154210437
 30
0.0
 11
3223.4408602612
 21
8030.8650014747
 31
0.0
  0
ARC
  5
1FF
330
1F
100
AcDbEntity
  8
0
  6
Continuous
 62
     7
370
    25
100
AcDbCircle
 10
3223.4863233903
 20
8259.6093838984
 30
0.0
 40
3.694242610899978
100
AcDbArc
 50
269.2948727387
 51
314.0912497896
  0
LINE
  5
200
330
1F
100
AcDbEntity
  8
0
  6
Continuous
 62
     7
370
    25
100
AcDbLine
 10
3226.9408450024
 20
8178.1577346671
 30
0.0
 11
3226.9408450024
 21
8033.9653966773
 31
0.0
  0
ARC
  5
201
330
1F
100
AcDbEntity
  8
0
  6
Continuous
 62
     7
370
    25
100
AcDbCircle
 10
3223.6292325763
 20
8034.1780860658
 30
0.0
 40
3.318435420011407
100
AcDbArc
 50
266.7458328841
 51
356.3252070314
  0
LINE
  5
202
330
1F
100
AcDbEntity
  8
0
  6
Continuous
 62
     7
370
    25
100
AcDbLine
 10
3186.9408831494
 20
8256.9560585368
 30
0.0
 11
3186.9408831494
 21
8255.9154210437
 31
0.0
  0
LINE
  5
203
330
1F
100
AcDbEntity
  8
0
  6
Continuous
 62
     7
370
    25
100
AcDbLine
 10
3223.4408602612
 20
8255.9154210437
 30
0.0
 11
3186.9408831494
 21
8255.9154210437
 31
0.0
  0
LINE
  5
204
330
1F
100
AcDbEntity
  8
0
  6
Continuous
 62
     7
370
    25
100
AcDbLine
 10
3186.9408831494
 20
8255.9154210437
 30
0.0
 11
3186.9408831494
 21
8030.8650014747
 31
0.0
  0
LINE
  5
205
330
1F
100
AcDbEntity
  8
0
  6
Continuous
 62
     7
370
    25
100
AcDbLine
 10
3223.4408602612
 20
8030.8650014747
 30
0.0
 11
3186.9408831494
 21
8030.8650014747
 31
0.0
  0
LINE
  5
206
330
1F
100
AcDbEntity
  8
0
  6
Continuous
 62
     7
370
    25
100
AcDbLine
 10
1171.9408378499
 20
8291.5970859874
 30
0.0
 11
2311.9408235448
 21
8291.5970859874
 31
0.0
  0
LINE
  5
207
330
1F
100
AcDbEntity
  8
0
  6
Continuous
 62
     7
370
    25
100
AcDbLine
 10
1171.9408378499
 20
8434.0970692981
 30
0.0
 11
1171.9408378499
 21
8291.5970859874
 31
0.0
  0
LINE
  5
208
330
1F
100
AcDbEntity
  8
0
  6
Continuous
 62
     7
370
    25
100
AcDbLine
 10
1172.0408395426
 20
8434.0970692981
 30
0.0
 11
1171.9408378499
 21
8434.0970692981
 31
0.0
  0
LINE
  5
209
330
1F
100
AcDbEntity
  8
0
  6
Continuous
 62
     7
370
    25
100
AcDbLine
 10
1172.0408395426
 20
8434.0970692981
 30
0.0
 11
1172.0408395426
 21
8576.5971122134
 31
0.0
  0
LINE
  5
20A
330
1F
100
AcDbEntity
  8
0
  6
Continuous
 62
     7
370
    25
100
AcDbLine
 10
1172.0408395426
 20
8576.5971122134
 30
0.0
 11
1171.9408378499
 21
8576.5971122134
 31
0.0
  0
LINE
  5
20B
330
1F
100
AcDbEntity
  8
0
  6
Continuous
 62
     7
370
    25
100
AcDbLine
 10
1171.9408378499
 20
9146.5970454562
 30
0.0
 11
1171.9408378499
 21
8576.5971122134
 31
0.0
  0
LINE
  5
20C
330
1F
100
AcDbEntity
  8
0
  6
Continuous
 62
     7
370
    25
100
AcDbLine
 10
1172.0408395426
 20
9146.5970454562
 30
0.0
 11
1171.9408378499
 21
9146.5970454562
 31
0.0
  0
LINE
  5
20D
330
1F
100
AcDbEntity
  8
0
  6
Continuous
 62
     7
370
    25
100
AcDbLine
 10
1172.0408395426
 20
9146.5970454562
 30
0.0
 11
1172.0408395426
 21
9289.0970883716
 31
0.0
  0
LINE
  5
20E
330
1F
100
AcDbEntity
  8
0
  6
Continuous
 62
     7
370
    25
100
AcDbLine
 10
1172.0408395426
 20
9289.0970883716
 30
0.0
 11
1171.9408378499
 21
9289.0970883716
 31
0.0
  0
LINE
  5
20F
330
1F
100
AcDbEntity
  8
0
  6
Continuous
 62
     7
370
    25
100
AcDbLine
 10
1171.9408378499
 20
9431.5971312869
 30
0.0
 11
1171.9408378499
 21
9289.0970883716
 31
0.0
  0
LINE
  5
210
330
1F
100
AcDbEntity
  8
0
  6
Continuous
 62
     7
370
    25
100
AcDbLine
 10
2311.9408235448
 20
9431.5971312869
 30
0.0
 11
1171.9408378499
 21
9431.5971312869
 31
0.0
  0
LINE
  5
211
330
1F
100
AcDbEntity
  8
0
  6
Continuous
 62
     7
370
    25
100
AcDbLine
 10
2311.9408235448
 20
9289.0970883716
 30
0.0
 11
2311.9408235448
 21
9431.5971312869
 31
0.0
  0
LINE
  5
212
330
1F
100
AcDbEntity
  8
0
  6
Continuous
 62
     7
370
    25
100
AcDbLine
 10
2311.8408665555
 20
9289.0970883716
 30
0.0
 11
2311.9408235448
 21
9289.0970883716
 31
0.0
  0
LINE
  5
213
330
1F
100
AcDbEntity
  8
0
  6
Continuous
 62
     7
370
    25
100
AcDbLine
 10
2311.8408665555
 20
9146.5970454562
 30
0.0
 11
2311.8408665555
 21
9289.0970883716
 31
0.0
  0
LINE
  5
214
330
1F
100
AcDbEntity
  8
0
  6
Continuous
 62
     7
370
    25
100
AcDbLine
 10
2311.8408665555
 20
9146.5970454562
 30
0.0
 11
2311.9408235448
 21
9146.5970454562
 31
0.0
  0
LINE
  5
215
330
1F
100
AcDbEntity
  8
0
  6
Continuous
 62
     7
370
    25
100
AcDbLine
 10
2311.9408235448
 20
8576.5971122134
 30
0.0
 11
2311.9408235448
 21
9146.5970454562
 31
0.0
  0
LINE
  5
216
330
1F
100
AcDbEntity
  8
0
  6
Continuous
 62
     7
370
    25
100
AcDbLine
 10
2311.8408665555
 20
8576.5971122134
 30
0.0
 11
2311.9408235448
 21
8576.5971122134
 31
0.0
  0
LINE
  5
217
330
1F
100
AcDbEntity
  8
0
  6
Continuous
 62
     7
370
    25
100
AcDbLine
 10
2311.8408665555
 20
8434.0970692981
 30
0.0
 11
2311.8408665555
 21
8576.5971122134
 31
0.0
  0
LINE
  5
218
330
1F
100
AcDbEntity
  8
0
  6
Continuous
 62
     7
370
    25
100
AcDbLine
 10
2311.8408665555
 20
8434.0970692981
 30
0.0
 11
2311.9408235448
 21
8434.0970692981
 31
0.0
  0
LINE
  5
219
330
1F
100
AcDbEntity
  8
0
  6
Continuous
 62
     7
370
    25
100
AcDbLine
 10
2311.9408235448
 20
8291.5970859874
 30
0.0
 11
2311.9408235448
 21
8434.0970692981
 31
0.0
  0
LINE
  5
21A
330
1F
100
AcDbEntity
  8
0
  6
Continuous
 62
     7
370
    25
100
AcDbLine
 10
1180.9408411877
 20
9427.0970998157
 30
0.0
 11
2302.9408202069
 21
9427.0970998157
 31
0.0
  0
LINE
  5
21B
330
1F
100
AcDbEntity
  8
0
  6
Continuous
 62
     7
370
    25
100
AcDbLine
 10
1180.9408411877
 20
8296.0971174586
 30
0.0
 11
1180.9408411877
 21
9427.0970998157
 31
0.0
  0
LINE
  5
21C
330
1F
100
AcDbEntity
  8
0
  6
Continuous
 62
     7
370
    25
100
AcDbLine
 10
2302.9408202069
 20
8296.0971174586
 30
0.0
 11
1180.9408411877
 21
8296.0971174586
 31
0.0
  0
LINE
  5
21D
330
1F
100
AcDbEntity
  8
0
  6
Continuous
 62
     7
370
    25
100
AcDbLine
 10
2302.9408202069
 20
9427.0970998157
 30
0.0
 11
2302.9408202069
 21
8296.0971174586
 31
0.0
  0
LINE
  5
21E
330
1F
100
AcDbEntity
  8
0
  6
Continuous
 62
     7
370
    25
100
AcDbLine
 10
2311.9408235448
 20
8256.9560585368
 30
0.0
 11
2311.9408235448
 21
8291.5970859874
 31
0.0
  0
LINE
  5
21F
330
1F
100
AcDbEntity
  8
0
  6
Continuous
 62
     7
370
    25
100
AcDbLine
 10
1171.9408378499
 20
8256.9560585368
 30
0.0
 11
2311.9408235448
 21
8256.9560585368
 31
0.0
  0
LINE
  5
220
330
1F
100
AcDbEntity
  8
0
  6
Continuous
 62
     7
370
    25
100
AcDbLine
 10
1171.9408378499
 20
8256.9560585368
 30
0.0
 11
1171.9408378499
 21
8291.5970859874
 31
0.0
  0
LINE
  5
221
330
1F
100
AcDbEntity
  8
0
  6
Continuous
 62
     7
370
    25
100
AcDbLine
 10
1181.9408432143
 20
9426.0970530856
 30
0.0
 11
1181.9408432143
 21
8296.0971174586
 31
0.0
  0
LINE
  5
222
330
1F
100
AcDbEntity
  8
0
  6
Continuous
 62
     7
370
    25
100
AcDbLine
 10
1181.9408432143
 20
9426.0970530856
 30
0.0
 11
1180.9408411877
 21
9427.0970998157
 31
0.0
  0
LINE
  5
223
330
1F
100
AcDbEntity
  8
0
  6
Continuous
 62
     7
370
    25
100
AcDbLine
 10
2301.9408330815
 20
8296.0971174586
 30
0.0
 11
2301.9408330815
 21
9426.0970530856
 31
0.0
  0
LINE
  5
224
330
1F
100
AcDbEntity
  8
0
  6
Continuous
 62
     7
370
    25
100
AcDbLine
 10
2302.9408202069
 20
9427.0970998157
 30
0.0
 11
2301.9408330815
 21
9426.0970530856
 31
0.0
  0
LINE
  5
225
330
1F
100
AcDbEntity
  8
0
  6
Continuous
 62
     7
370
    25
100
AcDbLine
 10
2301.9408330815
 20
9425.298112427
 30
0.0
 11
1181.9408432143
 21
9425.298112427
 31
0.0
  0
LINE
  5
226
330
1F
100
AcDbEntity
  8
0
  6
Continuous
 62
     7
370
    25
100
AcDbLine
 10
2311.9408235448
 20
8576.5971122134
 30
0.0
 11
2311.9408235448
 21
8541.9560847629
 31
0.0
  0
LINE
  5
227
330
1F
100
AcDbEntity
  8
0
  6
Continuous
 62
     7
370
    25
100
AcDbLine
 10
2311.8408665555
 20
8541.9560847629
 30
0.0
 11
2311.9408235448
 21
8541.9560847629
 31
0.0
  0
LINE
  5
228
330
1F
100
AcDbEntity
  8
0
  6
Continuous
 62
     7
370
    25
100
AcDbLine
 10
1171.9408378499
 20
8576.5971122134
 30
0.0
 11
1171.9408378499
 21
8541.9560847629
 31
0.0
  0
LINE
  5
229
330
1F
100
AcDbEntity
  8
0
  6
Continuous
 62
     7
370
    25
100
AcDbLine
 10
1172.0408395426
 20
8541.9560847629
 30
0.0
 11
1171.9408378499
 21
8541.9560847629
 31
0.0
  0
LINE
  5
22A
330
1F
100
AcDbEntity
  8
0
  6
Continuous
 62
     7
370
    25
100
AcDbLine
 10
1171.9408378499
 20
9289.0970883716
 30
0.0
 11
1171.9408378499
 21
9254.456060921
 31
0.0
  0
LINE
  5
22B
330
1F
100
AcDbEntity
  8
0
  6
Continuous
 62
     7
370
    25
100
AcDbLine
 10
1172.0408395426
 20
9254.456060921
 30
0.0
 11
1171.9408378499
 21
9254.456060921
 31
0.0
  0
LINE
  5
22C
330
1F
100
AcDbEntity
  8
0
  6
Continuous
 62
     7
370
    25
100
AcDbLine
 10
2311.9408235448
 20
9289.0970883716
 30
0.0
 11
2311.9408235448
 21
9254.456060921
 31
0.0
  0
LINE
  5
22D
330
1F
100
AcDbEntity
  8
0
  6
Continuous
 62
     7
370
    25
100
AcDbLine
 10
2311.8408665555
 20
9254.456060921
 30
0.0
 11
2311.9408235448
 21
9254.456060921
 31
0.0
  0
LINE
  5
22E
330
1F
100
AcDbEntity
  8
0
  6
Continuous
 62
     7
370
    25
100
AcDbLine
 10
2301.9408330815
 20
9426.0970530856
 30
0.0
 11
1181.9408432143
 21
9426.0970530856
 31
0.0
  0
LINE
  5
22F
330
1F
100
AcDbEntity
  8
0
  6
Continuous
 62
     7
370
    25
100
AcDbLine
 10
2331.9408640759
 20
8291.5970859874
 30
0.0
 11
3471.9408497708
 21
8291.5970859874
 31
0.0
  0
LINE
  5
230
330
1F
100
AcDbEntity
  8
0
  6
Continuous
 62
     7
370
    25
100
AcDbLine
 10
2331.9408640759
 20
8434.0970692981
 30
0.0
 11
2331.9408640759
 21
8291.5970859874
 31
0.0
  0
LINE
  5
231
330
1F
100
AcDbEntity
  8
0
  6
Continuous
 62
     7
370
    25
100
AcDbLine
 10
2332.0408210652
 20
8434.0970692981
 30
0.0
 11
2331.9408640759
 21
8434.0970692981
 31
0.0
  0
LINE
  5
232
330
1F
100
AcDbEntity
  8
0
  6
Continuous
 62
     7
370
    25
100
AcDbLine
 10
2332.0408210652
 20
8434.0970692981
 30
0.0
 11
2332.0408210652
 21
8576.5971122134
 31
0.0
  0
LINE
  5
233
330
1F
100
AcDbEntity
  8
0
  6
Continuous
 62
     7
370
    25
100
AcDbLine
 10
2332.0408210652
 20
8576.5971122134
 30
0.0
 11
2331.9408640759
 21
8576.5971122134
 31
0.0
  0
LINE
  5
234
330
1F
100
AcDbEntity
  8
0
  6
Continuous
 62
     7
370
    25
100
AcDbLine
 10
2331.9408640759
 20
9146.5970454562
 30
0.0
 11
2331.9408640759
 21
8576.5971122134
 31
0.0
  0
LINE
  5
235
330
1F
100
AcDbEntity
  8
0
  6
Continuous
 62
     7
370
    25
100
AcDbLine
 10
2332.0408210652
 20
9146.5970454562
 30
0.0
 11
2331.9408640759
 21
9146.5970454562
 31
0.0
  0
LINE
  5
236
330
1F
100
AcDbEntity
  8
0
  6
Continuous
 62
     7
370
    25
100
AcDbLine
 10
2332.0408210652
 20
9146.5970454562
 30
0.0
 11
2332.0408210652
 21
9289.0970883716
 31
0.0
  0
LINE
  5
237
330
1F
100
AcDbEntity
  8
0
  6
Continuous
 62
     7
370
    25
100
AcDbLine
 10
2332.0408210652
 20
9289.0970883716
 30
0.0
 11
2331.9408640759
 21
9289.0970883716
 31
0.0
  0
LINE
  5
238
330
1F
100
AcDbEntity
  8
0
  6
Continuous
 62
     7
370
    25
100
AcDbLine
 10
2331.9408640759
 20
9431.5971312869
 30
0.0
 11
2331.9408640759
 21
9289.0970883716
 31
0.0
  0
LINE
  5
239
330
1F
100
AcDbEntity
  8
0
  6
Continuous
 62
     7
370
    25
100
AcDbLine
 10
3471.9408497708
 20
9431.5971312869
 30
0.0
 11
2331.9408640759
 21
9431.5971312869
 31
0.0
  0
LINE
  5
23A
330
1F
100
AcDbEntity
  8
0
  6
Continuous
 62
     7
370
    25
100
AcDbLine
 10
3471.9408497708
 20
9289.0970883716
 30
0.0
 11
3471.9408497708
 21
9431.5971312869
 31
0.0
  0
LINE
  5
23B
330
1F
100
AcDbEntity
  8
0
  6
Continuous
 62
     7
370
    25
100
AcDbLine
 10
3471.8409523862
 20
9289.0970883716
 30
0.0
 11
3471.9408497708
 21
9289.0970883716
 31
0.0
  0
LINE
  5
23C
330
1F
100
AcDbEntity
  8
0
  6
Continuous
 62
     7
370
    25
100
AcDbLine
 10
3471.8409523862
 20
9146.5970454562
 30
0.0
 11
3471.8409523862
 21
9289.0970883716
 31
0.0
  0
LINE
  5
23D
330
1F
100
AcDbEntity
  8
0
  6
Continuous
 62
     7
370
    25
100
AcDbLine
 10
3471.8409523862
 20
9146.5970454562
 30
0.0
 11
3471.9408497708
 21
9146.5970454562
 31
0.0
  0
LINE
  5
23E
330
1F
100
AcDbEntity
  8
0
  6
Continuous
 62
     7
370
    25
100
AcDbLine
 10
3471.9408497708
 20
8576.5971122134
 30
0.0
 11
3471.9408497708
 21
9146.5970454562
 31
0.0
  0
LINE
  5
23F
330
1F
100
AcDbEntity
  8
0
  6
Continuous
 62
     7
370
    25
100
AcDbLine
 10
3471.8409523862
 20
8576.5971122134
 30
0.0
 11
3471.9408497708
 21
8576.5971122134
 31
0.0
  0
LINE
  5
240
330
1F
100
AcDbEntity
  8
0
  6
Continuous
 62
     7
370
    25
100
AcDbLine
 10
3471.8409523862
 20
8434.0970692981
 30
0.0
 11
3471.8409523862
 21
8576.5971122134
 31
0.0
  0
LINE
  5
241
330
1F
100
AcDbEntity
  8
0
  6
Continuous
 62
     7
370
    25
100
AcDbLine
 10
3471.8409523862
 20
8434.0970692981
 30
0.0
 11
3471.9408497708
 21
8434.0970692981
 31
0.0
  0
LINE
  5
242
330
1F
100
AcDbEntity
  8
0
  6
Continuous
 62
     7
370
    25
100
AcDbLine
 10
3471.9408497708
 20
8291.5970859874
 30
0.0
 11
3471.9408497708
 21
8434.0970692981
 31
0.0
  0
LINE
  5
243
330
1F
100
AcDbEntity
  8
0
  6
Continuous
 62
     7
370
    25
100
AcDbLine
 10
2340.9408674138
 20
9427.0970998157
 30
0.0
 11
3462.9407868283
 21
9427.0970998157
 31
0.0
  0
LINE
  5
244
330
1F
100
AcDbEntity
  8
0
  6
Continuous
 62
     7
370
    25
100
AcDbLine
 10
2340.9408674138
 20
8296.0971174586
 30
0.0
 11
2340.9408674138
 21
9427.0970998157
 31
0.0
  0
LINE
  5
245
330
1F
100
AcDbEntity
  8
0
  6
Continuous
 62
     7
370
    25
100
AcDbLine
 10
3462.9407868283
 20
8296.0971174586
 30
0.0
 11
2340.9408674138
 21
8296.0971174586
 31
0.0
  0
LINE
  5
246
330
1F
100
AcDbEntity
  8
0
  6
Continuous
 62
     7
370
    25
100
AcDbLine
 10
3462.9407868283
 20
9427.0970998157
 30
0.0
 11
3462.9407868283
 21
8296.0971174586
 31
0.0
  0
LINE
  5
247
330
1F
100
AcDbEntity
  8
0
  6
Continuous
 62
     7
370
    25
100
AcDbLine
 10
3471.9408497708
 20
8256.9560585368
 30
0.0
 11
3471.9408497708
 21
8291.5970859874
 31
0.0
  0
LINE
  5
248
330
1F
100
AcDbEntity
  8
0
  6
Continuous
 62
     7
370
    25
100
AcDbLine
 10
2331.9408640759
 20
8256.9560585368
 30
0.0
 11
3471.9408497708
 21
8256.9560585368
 31
0.0
  0
LINE
  5
249
330
1F
100
AcDbEntity
  8
0
  6
Continuous
 62
     7
370
    25
100
AcDbLine
 10
2331.9408640759
 20
8256.9560585368
 30
0.0
 11
2331.9408640759
 21
8291.5970859874
 31
0.0
  0
LINE
  5
24A
330
1F
100
AcDbEntity
  8
0
  6
Continuous
 62
     7
370
    25
100
AcDbLine
 10
2341.9408545392
 20
9426.0970530856
 30
0.0
 11
2341.9408545392
 21
8296.0971174586
 31
0.0
  0
LINE
  5
24B
330
1F
100
AcDbEntity
  8
0
  6
Continuous
 62
     7
370
    25
100
AcDbLine
 10
2341.9408545392
 20
9426.0970530856
 30
0.0
 11
2340.9408674138
 21
9427.0970998157
 31
0.0
  0
LINE
  5
24C
330
1F
100
AcDbEntity
  8
0
  6
Continuous
 62
     7
370
    25
100
AcDbLine
 10
3461.9408593075
 20
8296.0971174586
 30
0.0
 11
3461.9408593075
 21
9426.0970530856
 31
0.0
  0
LINE
  5
24D
330
1F
100
AcDbEntity
  8
0
  6
Continuous
 62
     7
370
    25
100
AcDbLine
 10
3462.9407868283
 20
9427.0970998157
 30
0.0
 11
3461.9408593075
 21
9426.0970530856
 31
0.0
  0
LINE
  5
24E
330
1F
100
AcDbEntity
  8
0
  6
Continuous
 62
     7
370
    25
100
AcDbLine
 10
3461.9408593075
 20
9425.298112427
 30
0.0
 11
2341.9408545392
 21
9425.298112427
 31
0.0
  0
LINE
  5
24F
330
1F
100
AcDbEntity
  8
0
  6
Continuous
 62
     7
370
    25
100
AcDbLine
 10
3471.9408497708
 20
8576.5971122134
 30
0.0
 11
3471.9408497708
 21
8541.9560847629
 31
0.0
  0
LINE
  5
250
330
1F
100
AcDbEntity
  8
0
  6
Continuous
 62
     7
370
    25
100
AcDbLine
 10
3471.8409523862
 20
8541.9560847629
 30
0.0
 11
3471.9408497708
 21
8541.9560847629
 31
0.0
  0
LINE
  5
251
330
1F
100
AcDbEntity
  8
0
  6
Continuous
 62
     7
370
    25
100
AcDbLine
 10
2331.9408640759
 20
8576.5971122134
 30
0.0
 11
2331.9408640759
 21
8541.9560847629
 31
0.0
  0
LINE
  5
252
330
1F
100
AcDbEntity
  8
0
  6
Continuous
 62
     7
370
    25
100
AcDbLine
 10
2332.0408210652
 20
8541.9560847629
 30
0.0
 11
2331.9408640759
 21
8541.9560847629
 31
0.0
  0
LINE
  5
253
330
1F
100
AcDbEntity
  8
0
  6
Continuous
 62
     7
370
    25
100
AcDbLine
 10
2331.9408640759
 20
9289.0970883716
 30
0.0
 11
2331.9408640759
 21
9254.456060921
 31
0.0
  0
LINE
  5
254
330
1F
100
AcDbEntity
  8
0
  6
Continuous
 62
     7
370
    25
100
AcDbLine
 10
2332.0408210652
 20
9254.456060921
 30
0.0
 11
2331.9408640759
 21
9254.456060921
 31
0.0
  0
LINE
  5
255
330
1F
100
AcDbEntity
  8
0
  6
Continuous
 62
     7
370
    25
100
AcDbLine
 10
3471.9408497708
 20
9289.0970883716
 30
0.0
 11
3471.9408497708
 21
9254.456060921
 31
0.0
  0
LINE
  5
256
330
1F
100
AcDbEntity
  8
0
  6
Continuous
 62
     7
370
    25
100
AcDbLine
 10
3471.8409523862
 20
9254.456060921
 30
0.0
 11
3471.9408497708
 21
9254.456060921
 31
0.0
  0
LINE
  5
257
330
1F
100
AcDbEntity
  8
0
  6
Continuous
 62
     7
370
    25
100
AcDbLine
 10
3461.9408593075
 20
9426.0970530856
 30
0.0
 11
2341.9408545392
 21
9426.0970530856
 31
0.0
  0
LINE
  5
258
330
1F
100
AcDbEntity
  8
0
  6
Continuous
 62
     7
370
    25
100
AcDbLine
 10
3541.9407830136
 20
8291.5970859874
 30
0.0
 11
4681.9408879178
 21
8291.5970859874
 31
0.0
  0
LINE
  5
259
330
1F
100
AcDbEntity
  8
0
  6
Continuous
 62
     7
370
    25
100
AcDbLine
 10
3541.9407830136
 20
8434.0970692981
 30
0.0
 11
3541.9407830136
 21
8291.5970859874
 31
0.0
  0
LINE
  5
25A
330
1F
100
AcDbEntity
  8
0
  6
Continuous
 62
     7
370
    25
100
AcDbLine
 10
3542.0409188168
 20
8434.0970692981
 30
0.0
 11
3541.9407830136
 21
8434.0970692981
 31
0.0
  0
LINE
  5
25B
330
1F
100
AcDbEntity
  8
0
  6
Continuous
 62
     7
370
    25
100
AcDbLine
 10
3542.0409188168
 20
8434.0970692981
 30
0.0
 11
3542.0409188168
 21
8576.5971122134
 31
0.0
  0
LINE
  5
25C
330
1F
100
AcDbEntity
  8
0
  6
Continuous
 62
     7
370
    25
100
AcDbLine
 10
3542.0409188168
 20
8576.5971122134
 30
0.0
 11
3541.9407830136
 21
8576.5971122134
 31
0.0
  0
LINE
  5
25D
330
1F
100
AcDbEntity
  8
0
  6
Continuous
 62
     7
370
    25
100
AcDbLine
 10
3541.9407830136
 20
9146.5970454562
 30
0.0
 11
3541.9407830136
 21
8576.5971122134
 31
0.0
  0
LINE
  5
25E
330
1F
100
AcDbEntity
  8
0
  6
Continuous
 62
     7
370
    25
100
AcDbLine
 10
3542.0409188168
 20
9146.5970454562
 30
0.0
 11
3541.9407830136
 21
9146.5970454562
 31
0.0
  0
LINE
  5
25F
330
1F
100
AcDbEntity
  8
0
  6
Continuous
 62
     7
370
    25
100
AcDbLine
 10
3542.0409188168
 20
9146.5970454562
 30
0.0
 11
3542.0409188168
 21
9289.0970883716
 31
0.0
  0
LINE
  5
260
330
1F
100
AcDbEntity
  8
0
  6
Continuous
 62
     7
370
    25
100
AcDbLine
 10
3542.0409188168
 20
9289.0970883716
 30
0.0
 11
3541.9407830136
 21
9289.0970883716
 31
0.0
  0
LINE
  5
261
330
1F
100
AcDbEntity
  8
0
  6
Continuous
 62
     7
370
    25
100
AcDbLine
 10
3541.9407830136
 20
9431.5971312869
 30
0.0
 11
3541.9407830136
 21
9289.0970883716
 31
0.0
  0
LINE
  5
262
330
1F
100
AcDbEntity
  8
0
  6
Continuous
 62
     7
370
    25
100
AcDbLine
 10
4681.9408879178
 20
9431.5971312869
 30
0.0
 11
3541.9407830136
 21
9431.5971312869
 31
0.0
  0
LINE
  5
263
330
1F
100
AcDbEntity
  8
0
  6
Continuous
 62
     7
370
    25
100
AcDbLine
 10
4681.9408879178
 20
9289.0970883716
 30
0.0
 11
4681.9408879178
 21
9431.5971312869
 31
0.0
  0
LINE
  5
264
330
1F
100
AcDbEntity
  8
0
  6
Continuous
 62
     7
370
    25
100
AcDbLine
 10
4681.8407521146
 20
9289.0970883716
 30
0.0
 11
4681.9408879178
 21
9289.0970883716
 31
0.0
  0
LINE
  5
265
330
1F
100
AcDbEntity
  8
0
  6
Continuous
 62
     7
370
    25
100
AcDbLine
 10
4681.8407521146
 20
9146.5970454562
 30
0.0
 11
4681.8407521146
 21
9289.0970883716
 31
0.0
  0
LINE
  5
266
330
1F
100
AcDbEntity
  8
0
  6
Continuous
 62
     7
370
    25
100
AcDbLine
 10
4681.8407521146
 20
9146.5970454562
 30
0.0
 11
4681.9408879178
 21
9146.5970454562
 31
0.0
  0
LINE
  5
267
330
1F
100
AcDbEntity
  8
0
  6
Continuous
 62
     7
370
    25
100
AcDbLine
 10
4681.9408879178
 20
8576.5971122134
 30
0.0
 11
4681.9408879178
 21
9146.5970454562
 31
0.0
  0
LINE
  5
268
330
1F
100
AcDbEntity
  8
0
  6
Continuous
 62
     7
370
    25
100
AcDbLine
 10
4681.8407521146
 20
8576.5971122134
 30
0.0
 11
4681.9408879178
 21
8576.5971122134
 31
0.0
  0
LINE
  5
269
330
1F
100
AcDbEntity
  8
0
  6
Continuous
 62
     7
370
    25
100
AcDbLine
 10
4681.8407521146
 20
8434.0970692981
 30
0.0
 11
4681.8407521146
 21
8576.5971122134
 31
0.0
  0
LINE
  5
26A
330
1F
100
AcDbEntity
  8
0
  6
Continuous
 62
     7
370
    25
100
AcDbLine
 10
4681.8407521146
 20
8434.0970692981
 30
0.0
 11
4681.9408879178
 21
8434.0970692981
 31
0.0
  0
LINE
  5
26B
330
1F
100
AcDbEntity
  8
0
  6
Continuous
 62
     7
370
    25
100
AcDbLine
 10
4681.9408879178
 20
8291.5970859874
 30
0.0
 11
4681.9408879178
 21
8434.0970692981
 31
0.0
  0
LINE
  5
26C
330
1F
100
AcDbEntity
  8
0
  6
Continuous
 62
     7
370
    25
100
AcDbLine
 10
3550.9408459561
 20
9427.0970998157
 30
0.0
 11
4672.9408249753
 21
9427.0970998157
 31
0.0
  0
LINE
  5
26D
330
1F
100
AcDbEntity
  8
0
  6
Continuous
 62
     7
370
    25
100
AcDbLine
 10
3550.9408459561
 20
8296.0971174586
 30
0.0
 11
3550.9408459561
 21
9427.0970998157
 31
0.0
  0
LINE
  5
26E
330
1F
100
AcDbEntity
  8
0
  6
Continuous
 62
     7
370
    25
100
AcDbLine
 10
4672.9408249753
 20
8296.0971174586
 30
0.0
 11
3550.9408459561
 21
8296.0971174586
 31
0.0
  0
LINE
  5
26F
330
1F
100
AcDbEntity
  8
0
  6
Continuous
 62
     7
370
    25
100
AcDbLine
 10
4672.9408249753
 20
9427.0970998157
 30
0.0
 11
4672.9408249753
 21
8296.0971174586
 31
0.0
  0
LINE
  5
270
330
1F
100
AcDbEntity
  8
0
  6
Continuous
 62
     7
370
    25
100
AcDbLine
 10
4681.9408879178
 20
8256.9560585368
 30
0.0
 11
4681.9408879178
 21
8291.5970859874
 31
0.0
  0
LINE
  5
271
330
1F
100
AcDbEntity
  8
0
  6
Continuous
 62
     7
370
    25
100
AcDbLine
 10
3541.9407830136
 20
8256.9560585368
 30
0.0
 11
4681.9408879178
 21
8256.9560585368
 31
0.0
  0
LINE
  5
272
330
1F
100
AcDbEntity
  8
0
  6
Continuous
 62
     7
370
    25
100
AcDbLine
 10
3541.9407830136
 20
8256.9560585368
 30
0.0
 11
3541.9407830136
 21
8291.5970859874
 31
0.0
  0
LINE
  5
273
330
1F
100
AcDbEntity
  8
0
  6
Continuous
 62
     7
370
    25
100
AcDbLine
 10
3551.9407734769
 20
9426.0970530856
 30
0.0
 11
3551.9407734769
 21
8296.0971174586
 31
0.0
  0
LINE
  5
274
330
1F
100
AcDbEntity
  8
0
  6
Continuous
 62
     7
370
    25
100
AcDbLine
 10
3551.9407734769
 20
9426.0970530856
 30
0.0
 11
3550.9408459561
 21
9427.0970998157
 31
0.0
  0
LINE
  5
275
330
1F
100
AcDbEntity
  8
0
  6
Continuous
 62
     7
370
    25
100
AcDbLine
 10
4671.9408974545
 20
8296.0971174586
 30
0.0
 11
4671.9408974545
 21
9426.0970530856
 31
0.0
  0
LINE
  5
276
330
1F
100
AcDbEntity
  8
0
  6
Continuous
 62
     7
370
    25
100
AcDbLine
 10
4672.9408249753
 20
9427.0970998157
 30
0.0
 11
4671.9408974545
 21
9426.0970530856
 31
0.0
  0
LINE
  5
277
330
1F
100
AcDbEntity
  8
0
  6
Continuous
 62
     7
370
    25
100
AcDbLine
 10
4671.9408974545
 20
9425.298112427
 30
0.0
 11
3551.9407734769
 21
9425.298112427
 31
0.0
  0
LINE
  5
278
330
1F
100
AcDbEntity
  8
0
  6
Continuous
 62
     7
370
    25
100
AcDbLine
 10
4681.9408879178
 20
8576.5971122134
 30
0.0
 11
4681.9408879178
 21
8541.9560847629
 31
0.0
  0
LINE
  5
279
330
1F
100
AcDbEntity
  8
0
  6
Continuous
 62
     7
370
    25
100
AcDbLine
 10
4681.8407521146
 20
8541.9560847629
 30
0.0
 11
4681.9408879178
 21
8541.9560847629
 31
0.0
  0
LINE
  5
27A
330
1F
100
AcDbEntity
  8
0
  6
Continuous
 62
     7
370
    25
100
AcDbLine
 10
3541.9407830136
 20
8576.5971122134
 30
0.0
 11
3541.9407830136
 21
8541.9560847629
 31
0.0
  0
LINE
  5
27B
330
1F
100
AcDbEntity
  8
0
  6
Continuous
 62
     7
370
    25
100
AcDbLine
 10
3542.0409188168
 20
8541.9560847629
 30
0.0
 11
3541.9407830136
 21
8541.9560847629
 31
0.0
  0
LINE
  5
27C
330
1F
100
AcDbEntity
  8
0
  6
Continuous
 62
     7
370
    25
100
AcDbLine
 10
3541.9407830136
 20
9289.0970883716
 30
0.0
 11
3541.9407830136
 21
9254.456060921
 31
0.0
  0
LINE
  5
27D
330
1F
100
AcDbEntity
  8
0
  6
Continuous
 62
     7
370
    25
100
AcDbLine
 10
3542.0409188168
 20
9254.456060921
 30
0.0
 11
3541.9407830136
 21
9254.456060921
 31
0.0
  0
LINE
  5
27E
330
1F
100
AcDbEntity
  8
0
  6
Continuous
 62
     7
370
    25
100
AcDbLine
 10
4681.9408879178
 20
9289.0970883716
 30
0.0
 11
4681.9408879178
 21
9254.456060921
 31
0.0
  0
LINE
  5
27F
330
1F
100
AcDbEntity
  8
0
  6
Continuous
 62
     7
370
    25
100
AcDbLine
 10
4681.8407521146
 20
9254.456060921
 30
0.0
 11
4681.9408879178
 21
9254.456060921
 31
0.0
  0
LINE
  5
280
330
1F
100
AcDbEntity
  8
0
  6
Continuous
 62
     7
370
    25
100
AcDbLine
 10
4671.9408974545
 20
9426.0970530856
 30
0.0
 11
3551.9407734769
 21
9426.0970530856
 31
0.0
  0
LINE
  5
281
330
1F
100
AcDbEntity
  8
0
  6
Continuous
 62
     7
370
    25
100
AcDbLine
 10
5841.9409737485
 20
8256.9560585368
 30
0.0
 11
5841.9409737485
 21
8291.5970859874
 31
0.0
  0
LINE
  5
282
330
1F
100
AcDbEntity
  8
0
  6
Continuous
 62
     7
370
    25
100
AcDbLine
 10
4701.9408688443
 20
8256.9560585368
 30
0.0
 11
5841.9409737485
 21
8256.9560585368
 31
0.0
  0
LINE
  5
283
330
1F
100
AcDbEntity
  8
0
  6
Continuous
 62
     7
370
    25
100
AcDbLine
 10
4701.9408688443
 20
8256.9560585368
 30
0.0
 11
4701.9408688443
 21
8291.5970859874
 31
0.0
  0
LINE
  5
284
330
1F
100
AcDbEntity
  8
0
  6
Continuous
 62
     7
370
    25
100
AcDbLine
 10
4701.9408688443
 20
8291.5970859874
 30
0.0
 11
5841.9409737485
 21
8291.5970859874
 31
0.0
  0
LINE
  5
285
330
1F
100
AcDbEntity
  8
0
  6
Continuous
 62
     7
370
    25
100
AcDbLine
 10
4701.9408688443
 20
8434.0970692981
 30
0.0
 11
4701.9408688443
 21
8291.5970859874
 31
0.0
  0
LINE
  5
286
330
1F
100
AcDbEntity
  8
0
  6
Continuous
 62
     7
370
    25
100
AcDbLine
 10
4702.0407662289
 20
8434.0970692981
 30
0.0
 11
4701.9408688443
 21
8434.0970692981
 31
0.0
  0
LINE
  5
287
330
1F
100
AcDbEntity
  8
0
  6
Continuous
 62
     7
370
    25
100
AcDbLine
 10
4702.0407662289
 20
8434.0970692981
 30
0.0
 11
4702.0407662289
 21
8576.5971122134
 31
0.0
  0
LINE
  5
288
330
1F
100
AcDbEntity
  8
0
  6
Continuous
 62
     7
370
    25
100
AcDbLine
 10
4702.0407662289
 20
8576.5971122134
 30
0.0
 11
4701.9408688443
 21
8576.5971122134
 31
0.0
  0
LINE
  5
289
330
1F
100
AcDbEntity
  8
0
  6
Continuous
 62
     7
370
    25
100
AcDbLine
 10
4701.9408688443
 20
9146.5970454562
 30
0.0
 11
4701.9408688443
 21
8576.5971122134
 31
0.0
  0
LINE
  5
28A
330
1F
100
AcDbEntity
  8
0
  6
Continuous
 62
     7
370
    25
100
AcDbLine
 10
4702.0407662289
 20
9146.5970454562
 30
0.0
 11
4701.9408688443
 21
9146.5970454562
 31
0.0
  0
LINE
  5
28B
330
1F
100
AcDbEntity
  8
0
  6
Continuous
 62
     7
370
    25
100
AcDbLine
 10
4702.0407662289
 20
9146.5970454562
 30
0.0
 11
4702.0407662289
 21
9289.0970883716
 31
0.0
  0
LINE
  5
28C
330
1F
100
AcDbEntity
  8
0
  6
Continuous
 62
     7
370
    25
100
AcDbLine
 10
4702.0407662289
 20
9289.0970883716
 30
0.0
 11
4701.9408688443
 21
9289.0970883716
 31
0.0
  0
LINE
  5
28D
330
1F
100
AcDbEntity
  8
0
  6
Continuous
 62
     7
370
    25
100
AcDbLine
 10
4701.9408688443
 20
9431.5971312869
 30
0.0
 11
4701.9408688443
 21
9289.0970883716
 31
0.0
  0
LINE
  5
28E
330
1F
100
AcDbEntity
  8
0
  6
Continuous
 62
     7
370
    25
100
AcDbLine
 10
5841.9409737485
 20
9431.5971312869
 30
0.0
 11
4701.9408688443
 21
9431.5971312869
 31
0.0
  0
LINE
  5
28F
330
1F
100
AcDbEntity
  8
0
  6
Continuous
 62
     7
370
    25
100
AcDbLine
 10
5841.9409737485
 20
9289.0970883716
 30
0.0
 11
5841.9409737485
 21
9431.5971312869
 31
0.0
  0
LINE
  5
290
330
1F
100
AcDbEntity
  8
0
  6
Continuous
 62
     7
370
    25
100
AcDbLine
 10
5841.8408379452
 20
9289.0970883716
 30
0.0
 11
5841.9409737485
 21
9289.0970883716
 31
0.0
  0
LINE
  5
291
330
1F
100
AcDbEntity
  8
0
  6
Continuous
 62
     7
370
    25
100
AcDbLine
 10
5841.8408379452
 20
9146.5970454562
 30
0.0
 11
5841.8408379452
 21
9289.0970883716
 31
0.0
  0
LINE
  5
292
330
1F
100
AcDbEntity
  8
0
  6
Continuous
 62
     7
370
    25
100
AcDbLine
 10
5841.8408379452
 20
9146.5970454562
 30
0.0
 11
5841.9409737485
 21
9146.5970454562
 31
0.0
  0
LINE
  5
293
330
1F
100
AcDbEntity
  8
0
  6
Continuous
 62
     7
370
    25
100
AcDbLine
 10
5841.9409737485
 20
8576.5971122134
 30
0.0
 11
5841.9409737485
 21
9146.5970454562
 31
0.0
  0
LINE
  5
294
330
1F
100
AcDbEntity
  8
0
  6
Continuous
 62
     7
370
    25
100
AcDbLine
 10
5841.8408379452
 20
8576.5971122134
 30
0.0
 11
5841.9409737485
 21
8576.5971122134
 31
0.0
  0
LINE
  5
295
330
1F
100
AcDbEntity
  8
0
  6
Continuous
 62
     7
370
    25
100
AcDbLine
 10
5841.8408379452
 20
8434.0970692981
 30
0.0
 11
5841.8408379452
 21
8576.5971122134
 31
0.0
  0
LINE
  5
296
330
1F
100
AcDbEntity
  8
0
  6
Continuous
 62
     7
370
    25
100
AcDbLine
 10
5841.8408379452
 20
8434.0970692981
 30
0.0
 11
5841.9409737485
 21
8434.0970692981
 31
0.0
  0
LINE
  5
297
330
1F
100
AcDbEntity
  8
0
  6
Continuous
 62
     7
370
    25
100
AcDbLine
 10
5841.9409737485
 20
8291.5970859874
 30
0.0
 11
5841.9409737485
 21
8434.0970692981
 31
0.0
  0
LINE
  5
298
330
1F
100
AcDbEntity
  8
0
  6
Continuous
 62
     7
370
    25
100
AcDbLine
 10
4710.9409317868
 20
9427.0970998157
 30
0.0
 11
5832.9406723874
 21
9427.0970998157
 31
0.0
  0
LINE
  5
299
330
1F
100
AcDbEntity
  8
0
  6
Continuous
 62
     7
370
    25
100
AcDbLine
 10
4710.9409317868
 20
8296.0971174586
 30
0.0
 11
4710.9409317868
 21
9427.0970998157
 31
0.0
  0
LINE
  5
29A
330
1F
100
AcDbEntity
  8
0
  6
Continuous
 62
     7
370
    25
100
AcDbLine
 10
5832.9406723874
 20
8296.0971174586
 30
0.0
 11
4710.9409317868
 21
8296.0971174586
 31
0.0
  0
LINE
  5
29B
330
1F
100
AcDbEntity
  8
0
  6
Continuous
 62
     7
370
    25
100
AcDbLine
 10
5832.9406723874
 20
9427.0970998157
 30
0.0
 11
5832.9406723874
 21
8296.0971174586
 31
0.0
  0
LINE
  5
29C
330
1F
100
AcDbEntity
  8
0
  6
Continuous
 62
     7
370
    25
100
AcDbLine
 10
5831.9407448666
 20
8296.0971174586
 30
0.0
 11
5831.9407448666
 21
9426.0970530856
 31
0.0
  0
LINE
  5
29D
330
1F
100
AcDbEntity
  8
0
  6
Continuous
 62
     7
370
    25
100
AcDbLine
 10
5832.9406723874
 20
9427.0970998157
 30
0.0
 11
5831.9407448666
 21
9426.0970530856
 31
0.0
  0
LINE
  5
29E
330
1F
100
AcDbEntity
  8
0
  6
Continuous
 62
     7
370
    25
100
AcDbLine
 10
4711.9408593075
 20
9426.0970530856
 30
0.0
 11
4711.9408593075
 21
8296.0971174586
 31
0.0
  0
LINE
  5
29F
330
1F
100
AcDbEntity
  8
0
  6
Continuous
 62
     7
370
    25
100
AcDbLine
 10
4711.9408593075
 20
9426.0970530856
 30
0.0
 11
4710.9409317868
 21
9427.0970998157
 31
0.0
  0
LINE
  5
2A0
330
1F
100
AcDbEntity
  8
0
  6
Continuous
 62
     7
370
    25
100
AcDbLine
 10
5831.9407448666
 20
9425.298112427
 30
0.0
 11
4711.9408593075
 21
9425.298112427
 31
0.0
  0
LINE
  5
2A1
330
1F
100
AcDbEntity
  8
0
  6
Continuous
 62
     7
370
    25
100
AcDbLine
 10
5841.9409737485
 20
8576.5971122134
 30
0.0
 11
5841.9409737485
 21
8541.9560847629
 31
0.0
  0
LINE
  5
2A2
330
1F
100
AcDbEntity
  8
0
  6
Continuous
 62
     7
370
    25
100
AcDbLine
 10
5841.8408379452
 20
8541.9560847629
 30
0.0
 11
5841.9409737485
 21
8541.9560847629
 31
0.0
  0
LINE
  5
2A3
330
1F
100
AcDbEntity
  8
0
  6
Continuous
 62
     7
370
    25
100
AcDbLine
 10
4701.9408688443
 20
8576.5971122134
 30
0.0
 11
4701.9408688443
 21
8541.9560847629
 31
0.0
  0
LINE
  5
2A4
330
1F
100
AcDbEntity
  8
0
  6
Continuous
 62
     7
370
    25
100
AcDbLine
 10
4702.0407662289
 20
8541.9560847629
 30
0.0
 11
4701.9408688443
 21
8541.9560847629
 31
0.0
  0
LINE
  5
2A5
330
1F
100
AcDbEntity
  8
0
  6
Continuous
 62
     7
370
    25
100
AcDbLine
 10
4701.9408688443
 20
9289.0970883716
 30
0.0
 11
4701.9408688443
 21
9254.456060921
 31
0.0
  0
LINE
  5
2A6
330
1F
100
AcDbEntity
  8
0
  6
Continuous
 62
     7
370
    25
100
AcDbLine
 10
4702.0407662289
 20
9254.456060921
 30
0.0
 11
4701.9408688443
 21
9254.456060921
 31
0.0
  0
LINE
  5
2A7
330
1F
100
AcDbEntity
  8
0
  6
Continuous
 62
     7
370
    25
100
AcDbLine
 10
5841.9409737485
 20
9289.0970883716
 30
0.0
 11
5841.9409737485
 21
9254.456060921
 31
0.0
  0
LINE
  5
2A8
330
1F
100
AcDbEntity
  8
0
  6
Continuous
 62
     7
370
    25
100
AcDbLine
 10
5841.8408379452
 20
9254.456060921
 30
0.0
 11
5841.9409737485
 21
9254.456060921
 31
0.0
  0
LINE
  5
2A9
330
1F
100
AcDbEntity
  8
0
  6
Continuous
 62
     7
370
    25
100
AcDbLine
 10
5831.9407448666
 20
9426.0970530856
 30
0.0
 11
4711.9408593075
 21
9426.0970530856
 31
0.0
  0
LINE
  5
2AA
330
1F
100
AcDbEntity
  8
0
  6
Continuous
 62
     7
370
    25
100
AcDbLine
 10
5876.9408211606
 20
8426.2060699809
 30
0.0
 11
5876.9408211606
 21
8421.4250026095
 31
0.0
  0
LINE
  5
2AB
330
1F
100
AcDbEntity
  8
0
  6
Continuous
 62
     7
370
    25
100
AcDbLine
 10
3506.9409356015
 20
8421.4250026095
 30
0.0
 11
3506.9409356015
 21
8426.2060699809
 31
0.0
  0
LWPOLYLINE
  5
2AC
330
1F
100
AcDbEntity
  8
0
  6
Continuous
 62
     7
370
    25
100
AcDbPolyline
 90
       28
 70
   128
 43
0.0
 10
5845.4409584897
 20
8402.805465256
 10
5845.6159577267
 20
8401.5072760928
 10
5846.1323723691
 20
8400.2790627826
 10
5846.9615921872
 20
8399.1871056903
 10
5848.0592713254
 20
8398.2901749957
 10
5849.366281976
 20
8397.6366696704
 10
5850.8120522397
 20
8397.2618160594
 10
5852.3188576596
 20
8397.1858201373
 10
5853.8051590817
 20
8397.41273502
 10
5855.1908478635
 20
8397.9304609645
 10
5856.4015374081
 20
8398.7109241832
 10
5857.3714241879
 20
8399.7121630061
 10
5858.0490097897
 20
8400.8801756251
 10
5858.3971009152
 20
8402.1519599307
 10
5858.3971009152
 20
8403.4589705813
 10
5858.0490097897
 20
8404.7307548869
 10
5857.3714241879
 20
8405.8987079013
 10
5856.4015374081
 20
8406.8999467242
 10
5855.1908478635
 20
8407.6804695476
 10
5853.8051590817
 20
8408.1981358874
 10
5852.3188576596
 20
8408.4251103747
 10
5850.8120522397
 20
8408.3491144526
 10
5849.366281976
 20
8407.9742608417
 10
5848.0592713254
 20
8407.3207555163
 10
5846.9615921872
 20
8406.4238248218
 10
5846.1323723691
 20
8405.3318081248
 10
5845.6159577267
 20
8404.1035948146
 10
5845.4409584897
 20
8402.805465256
  0
LWPOLYLINE
  5
2AD
330
1F
100
AcDbEntity
  8
0
  6
Continuous
 62
     7
370
    25
100
AcDbPolyline
 90
       28
 70
   128
 43
0.0
 10
3538.4407982724
 20
8359.5041809428
 10
3538.2655606167
 20
8360.802370106
 10
3537.749384393
 20
8362.0305238116
 10
3536.9201645749
 20
8363.1225405086
 10
3535.8224854367
 20
8364.0194712031
 10
3534.5154747861
 20
8364.6729765285
 10
3533.0694661038
 20
8365.0478301394
 10
3531.5628991025
 20
8365.1238260615
 10
3530.0765976803
 20
8364.8968515742
 10
3528.6909088986
 20
8364.3791852344
 10
3527.4802193539
 20
8363.598662411
 10
3526.5100941556
 20
8362.5974235881
 10
3525.8327469723
 20
8361.4294705737
 10
3525.4848942654
 20
8360.1576862681
 10
3525.4848942654
 20
8358.8506756175
 10
3525.8327469723
 20
8357.5788913119
 10
3526.5100941556
 20
8356.4108786929
 10
3527.4802193539
 20
8355.40963987
 10
3528.6909088986
 20
8354.6291766513
 10
3530.0765976803
 20
8354.1115103114
 10
3531.5628991025
 20
8353.8845358241
 10
3533.0694661038
 20
8353.9605317462
 10
3534.5154747861
 20
8354.3353853572
 10
3535.8224854367
 20
8354.9888906825
 10
3536.9201645749
 20
8355.8858213771
 10
3537.749384393
 20
8356.9777784694
 10
3538.2655606167
 20
8358.2059917796
 10
3538.4407982724
 20
8359.5041809428
  0
LWPOLYLINE
  5
2AE
330
1F
100
AcDbEntity
  8
0
  6
Continuous
 62
     7
370
    25
100
AcDbPolyline
 90
       28
 70
   128
 43
0.0
 10
3538.4407982724
 20
8402.805465256
 10
3538.2655606167
 20
8404.1035948146
 10
3537.749384393
 20
8405.3318081248
 10
3536.9201645749
 20
8406.4238248218
 10
3535.8224854367
 20
8407.3207555163
 10
3534.5154747861
 20
8407.9742608417
 10
3533.0694661038
 20
8408.3491144526
 10
3531.5628991025
 20
8408.4251103747
 10
3530.0765976803
 20
8408.1981358874
 10
3528.6909088986
 20
8407.6804695476
 10
3527.4802193539
 20
8406.8999467242
 10
3526.5100941556
 20
8405.8987079013
 10
3525.8327469723
 20
8404.7307548869
 10
3525.4848942654
 20
8403.4589705813
 10
3525.4848942654
 20
8402.1519599307
 10
3525.8327469723
 20
8400.8801756251
 10
3526.5100941556
 20
8399.7121630061
 10
3527.4802193539
 20
8398.7109241832
 10
3528.6909088986
 20
8397.9304609645
 10
3530.0765976803
 20
8397.41273502
 10
3531.5628991025
 20
8397.1858201373
 10
3533.0694661038
 20
8397.2618160594
 10
3534.5154747861
 20
8397.6366696704
 10
3535.8224854367
 20
8398.2901749957
 10
3536.9201645749
 20
8399.1871056903
 10
3537.749384393
 20
8400.2790627826
 10
3538.2655606167
 20
8401.5072760928
 10
3538.4407982724
 20
8402.805465256
  0
LWPOLYLINE
  5
2AF
330
1F
100
AcDbEntity
  8
0
  6
Continuous
 62
     7
370
    25
100
AcDbPolyline
 90
       28
 70
   128
 43
0.0
 10
5845.4409584897
 20
8359.5041809428
 10
5845.6159577267
 20
8358.2059917796
 10
5846.1323723691
 20
8356.9777784694
 10
5846.9615921872
 20
8355.8858213771
 10
5848.0592713254
 20
8354.9888906825
 10
5849.366281976
 20
8354.3353853572
 10
5850.8120522397
 20
8353.9605317462
 10
5852.3188576596
 20
8353.8845358241
 10
5853.8051590817
 20
8354.1115103114
 10
5855.1908478635
 20
8354.6291766513
 10
5856.4015374081
 20
8355.40963987
 10
5857.3714241879
 20
8356.4108786929
 10
5858.0490097897
 20
8357.5788913119
 10
5858.3971009152
 20
8358.8506756175
 10
5858.3971009152
 20
8360.1576862681
 10
5858.0490097897
 20
8361.4294705737
 10
5857.3714241879
 20
8362.5974235881
 10
5856.4015374081
 20
8363.598662411
 10
5855.1908478635
 20
8364.3791852344
 10
5853.8051590817
 20
8364.8968515742
 10
5852.3188576596
 20
8365.1238260615
 10
5850.8120522397
 20
8365.0478301394
 10
5849.366281976
 20
8364.6729765285
 10
5848.0592713254
 20
8364.0194712031
 10
5846.9615921872
 20
8363.1225405086
 10
5846.1323723691
 20
8362.0305238116
 10
5845.6159577267
 20
8360.802370106
 10
5845.4409584897
 20
8359.5041809428
  0
LINE
  5
2B0
330
1F
100
AcDbEntity
  8
0
  6
Continuous
 62
     7
370
    25
100
AcDbLine
 10
5876.9408211606
 20
8340.8846435893
 30
0.0
 11
5876.9408211606
 21
8421.4250026095
 31
0.0
  0
LINE
  5
2B1
330
1F
100
AcDbEntity
  8
0
  6
Continuous
 62
     7
370
    25
100
AcDbLine
 10
3506.9409356015
 20
8340.8846435893
 30
0.0
 11
3506.9409356015
 21
8421.4250026095
 31
0.0
  0
LINE
  5
2B2
330
1F
100
AcDbEntity
  8
0
  6
Continuous
 62
     7
370
    25
100
AcDbLine
 10
3506.9409356015
 20
8426.2060699809
 30
0.0
 11
3506.9409356015
 21
8447.7060613978
 31
0.0
  0
LINE
  5
2B3
330
1F
100
AcDbEntity
  8
0
  6
Continuous
 62
     7
370
    25
100
AcDbLine
 10
5876.9408211606
 20
8426.2060699809
 30
0.0
 11
5876.9408211606
 21
8447.7060613978
 31
0.0
  0
LINE
  5
2B4
330
1F
100
AcDbEntity
  8
0
  6
Continuous
 62
     7
370
    25
100
AcDbLine
 10
4681.9408879178
 20
8433.7060628283
 30
0.0
 11
4701.9408688443
 21
8433.7060628283
 31
0.0
  0
LINE
  5
2B5
330
1F
100
AcDbEntity
  8
0
  6
Continuous
 62
     7
370
    25
100
AcDbLine
 10
4702.0407662289
 20
8440.2060685504
 30
0.0
 11
4681.8407521146
 21
8440.2060685504
 31
0.0
  0
LWPOLYLINE
  5
2B6
330
1F
100
AcDbEntity
  8
0
  6
Continuous
 62
     7
370
    25
100
AcDbPolyline
 90
       15
 70
   128
 43
0.0
 10
5845.4552636044
 20
8403.1804380763
 10
5845.6159577267
 20
8402.257281338
 10
5846.1323723691
 20
8401.0290680278
 10
5846.9615921872
 20
8399.9371109355
 10
5848.0592713254
 20
8399.0401802409
 10
5849.366281976
 20
8398.3866749156
 10
5850.8120522397
 20
8398.0118213046
 10
5852.3188576596
 20
8397.9358253825
 10
5853.8051590817
 20
8398.1627402652
 10
5855.1908478635
 20
8398.6804662097
 10
5856.4015374081
 20
8399.4609294284
 10
5857.3714241879
 20
8400.4621682513
 10
5858.0490097897
 20
8401.6301808703
 10
5858.3971009152
 20
8402.9019651759
 10
5858.4261879819
 20
8403.1804380763
  0
LWPOLYLINE
  5
2B7
330
1F
100
AcDbEntity
  8
0
  6
Continuous
 62
     7
370
    25
100
AcDbPolyline
 90
       15
 70
   128
 43
0.0
 10
3525.4553303616
 20
8403.1804380763
 10
3525.4848942654
 20
8402.9019651759
 10
3525.8327469723
 20
8401.6301808703
 10
3526.5100941556
 20
8400.4621682513
 10
3527.4802193539
 20
8399.4609294284
 10
3528.6909088986
 20
8398.6804662097
 10
3530.0765976803
 20
8398.1627402652
 10
3531.5628991025
 20
8397.9358253825
 10
3533.0694661038
 20
8398.0118213046
 10
3534.5154747861
 20
8398.3866749156
 10
3535.8224854367
 20
8399.0401802409
 10
3536.9201645749
 20
8399.9371109355
 10
3537.749384393
 20
8401.0290680278
 10
3538.2655606167
 20
8402.257281338
 10
3538.4264931576
 20
8403.1804380763
  0
LINE
  5
2B8
330
1F
100
AcDbEntity
  8
0
  6
Continuous
 62
     7
370
    25
100
AcDbLine
 10
4702.0407662289
 20
8438.9070449222
 30
0.0
 11
4681.8407521146
 21
8438.9070449222
 31
0.0
  0
LWPOLYLINE
  5
2B9
330
1F
100
AcDbEntity
  8
0
  6
Continuous
 62
     7
370
    25
100
AcDbPolyline
 90
       15
 70
   128
 43
0.0
 10
5845.4552636044
 20
8359.8791537631
 10
5845.6159577267
 20
8358.9559970248
 10
5846.1323723691
 20
8357.7277837146
 10
5846.9615921872
 20
8356.6358266223
 10
5848.0592713254
 20
8355.7388959277
 10
5849.366281976
 20
8355.0853906024
 10
5850.8120522397
 20
8354.7105369914
 10
5852.3188576596
 20
8354.6345410693
 10
5853.8051590817
 20
8354.8615155566
 10
5855.1908478635
 20
8355.3791818965
 10
5856.4015374081
 20
8356.1596451152
 10
5857.3714241879
 20
8357.1608839381
 10
5858.0490097897
 20
8358.3288965571
 10
5858.3971009152
 20
8359.6006808627
 10
5858.4261879819
 20
8359.8791537631
  0
LWPOLYLINE
  5
2BA
330
1F
100
AcDbEntity
  8
0
  6
Continuous
 62
     7
370
    25
100
AcDbPolyline
 90
       15
 70
   128
 43
0.0
 10
3525.4553303616
 20
8359.8791537631
 10
3525.4848942654
 20
8359.6006808627
 10
3525.8327469723
 20
8358.3288965571
 10
3526.5100941556
 20
8357.1608839381
 10
3527.4802193539
 20
8356.1596451152
 10
3528.6909088986
 20
8355.3791818965
 10
3530.0765976803
 20
8354.8615155566
 10
3531.5628991025
 20
8354.6345410693
 10
3533.0694661038
 20
8354.7105369914
 10
3534.5154747861
 20
8355.0853906024
 10
3535.8224854367
 20
8355.7388959277
 10
3536.9201645749
 20
8356.6358266223
 10
3537.749384393
 20
8357.7277837146
 10
3538.2655606167
 20
8358.9559970248
 10
3538.4264931576
 20
8359.8791537631
  0
LINE
  5
2BB
330
1F
100
AcDbEntity
  8
0
  6
Continuous
 62
     7
370
    25
100
AcDbLine
 10
3506.9409356015
 20
8447.7060613978
 30
0.0
 11
3506.9409356015
 21
8448.1749711383
 31
0.0
  0
LINE
  5
2BC
330
1F
100
AcDbEntity
  8
0
  6
Continuous
 62
     7
370
    25
100
AcDbLine
 10
5876.9408211606
 20
8447.7060613978
 30
0.0
 11
5876.9408211606
 21
8448.1749711383
 31
0.0
  0
LINE
  5
2BD
330
1F
100
AcDbEntity
  8
0
  6
Continuous
 62
     7
370
    25
100
AcDbLine
 10
5876.9408211606
 20
8340.8846435893
 30
0.0
 11
5876.9408211606
 21
8339.1346512187
 31
0.0
  0
LINE
  5
2BE
330
1F
100
AcDbEntity
  8
0
  6
Continuous
 62
     7
370
    25
100
AcDbLine
 10
3506.9409356015
 20
8339.1346512187
 30
0.0
 11
3506.9409356015
 21
8340.8846435893
 31
0.0
  0
LINE
  5
2BF
330
1F
100
AcDbEntity
  8
0
  6
Continuous
 62
     7
370
    25
100
AcDbLine
 10
5876.9408211606
 20
9163.2061181415
 30
0.0
 11
5876.9408211606
 21
9158.4249911654
 31
0.0
  0
LINE
  5
2C0
330
1F
100
AcDbEntity
  8
0
  6
Continuous
 62
     7
370
    25
100
AcDbLine
 10
3506.9409356015
 20
9158.4249911654
 30
0.0
 11
3506.9409356015
 21
9163.2061181415
 31
0.0
  0
LWPOLYLINE
  5
2C1
330
1F
100
AcDbEntity
  8
0
  6
Continuous
 62
     7
370
    25
100
AcDbPolyline
 90
       28
 70
   128
 43
0.0
 10
5845.4409584897
 20
9139.8054538119
 10
5845.6159577267
 20
9138.5072646487
 10
5846.1323723691
 20
9137.2790513385
 10
5846.9615921872
 20
9136.1870942462
 10
5848.0592713254
 20
9135.2901635516
 10
5849.366281976
 20
9134.6366582263
 10
5850.8120522397
 20
9134.2617450107
 10
5852.3188576596
 20
9134.1858086932
 10
5853.8051590817
 20
9134.4127831805
 10
5855.1908478635
 20
9134.9303899158
 10
5856.4015374081
 20
9135.7109723437
 10
5857.3714241879
 20
9136.7122111667
 10
5858.0490097897
 20
9137.8801045764
 10
5858.3971009152
 20
9139.1519484866
 10
5858.3971009152
 20
9140.4589591372
 10
5858.0490097897
 20
9141.7306838382
 10
5857.3714241879
 20
9142.8986964572
 10
5856.4015374081
 20
9143.8999352801
 10
5855.1908478635
 20
9144.6803984988
 10
5853.8051590817
 20
9145.1981244433
 10
5852.3188576596
 20
9145.4250989306
 10
5850.8120522397
 20
9145.3490434039
 10
5849.366281976
 20
9144.9742493976
 10
5848.0592713254
 20
9144.3207440722
 10
5846.9615921872
 20
9143.4238133777
 10
5846.1323723691
 20
9142.3318562854
 10
5845.6159577267
 20
9141.1036429751
 10
5845.4409584897
 20
9139.8054538119
  0
LWPOLYLINE
  5
2C2
330
1F
100
AcDbEntity
  8
0
  6
Continuous
 62
     7
370
    25
100
AcDbPolyline
 90
       28
 70
   128
 43
0.0
 10
3538.4407982724
 20
9096.5042291034
 10
3538.2655606167
 20
9097.8022990573
 10
3537.749384393
 20
9099.0305123675
 10
3536.9201645749
 20
9100.1225886691
 10
3535.8224854367
 20
9101.0194001544
 10
3534.5154747861
 20
9101.6729054797
 10
3533.0694661038
 20
9102.0478186954
 10
3531.5628991025
 20
9102.1237550128
 10
3530.0765976803
 20
9101.8968997348
 10
3528.6909088986
 20
9101.3791737903
 10
3527.4802193539
 20
9100.5987105716
 10
3526.5100941556
 20
9099.5974717486
 10
3525.8327469723
 20
9098.4294591296
 10
3525.4848942654
 20
9097.1577344287
 10
3525.4848942654
 20
9095.8507237781
 10
3525.8327469723
 20
9094.5788798678
 10
3526.5100941556
 20
9093.4108672488
 10
3527.4802193539
 20
9092.4096284259
 10
3528.6909088986
 20
9091.6291652072
 10
3530.0765976803
 20
9091.1114392627
 10
3531.5628991025
 20
9090.8845839847
 10
3533.0694661038
 20
9090.9605203021
 10
3534.5154747861
 20
9091.3354335177
 10
3535.8224854367
 20
9091.9889388431
 10
3536.9201645749
 20
9092.8858695376
 10
3537.749384393
 20
9093.9778266299
 10
3538.2655606167
 20
9095.2060399402
 10
3538.4407982724
 20
9096.5042291034
  0
LWPOLYLINE
  5
2C3
330
1F
100
AcDbEntity
  8
0
  6
Continuous
 62
     7
370
    25
100
AcDbPolyline
 90
       28
 70
   128
 43
0.0
 10
3538.4407982724
 20
9139.8054538119
 10
3538.2655606167
 20
9141.1036429751
 10
3537.749384393
 20
9142.3318562854
 10
3536.9201645749
 20
9143.4238133777
 10
3535.8224854367
 20
9144.3207440722
 10
3534.5154747861
 20
9144.9742493976
 10
3533.0694661038
 20
9145.3490434039
 10
3531.5628991025
 20
9145.4250989306
 10
3530.0765976803
 20
9145.1981244433
 10
3528.6909088986
 20
9144.6803984988
 10
3527.4802193539
 20
9143.8999352801
 10
3526.5100941556
 20
9142.8986964572
 10
3525.8327469723
 20
9141.7306838382
 10
3525.4848942654
 20
9140.4589591372
 10
3525.4848942654
 20
9139.1519484866
 10
3525.8327469723
 20
9137.8801045764
 10
3526.5100941556
 20
9136.7122111667
 10
3527.4802193539
 20
9135.7109723437
 10
3528.6909088986
 20
9134.9303899158
 10
3530.0765976803
 20
9134.4127831805
 10
3531.5628991025
 20
9134.1858086932
 10
3533.0694661038
 20
9134.2617450107
 10
3534.5154747861
 20
9134.6366582263
 10
3535.8224854367
 20
9135.2901635516
 10
3536.9201645749
 20
9136.1870942462
 10
3537.749384393
 20
9137.2790513385
 10
3538.2655606167
 20
9138.5072646487
 10
3538.4407982724
 20
9139.8054538119
  0
LWPOLYLINE
  5
2C4
330
1F
100
AcDbEntity
  8
0
  6
Continuous
 62
     7
370
    25
100
AcDbPolyline
 90
       28
 70
   128
 43
0.0
 10
5845.4409584897
 20
9096.5042291034
 10
5845.6159577267
 20
9095.2060399402
 10
5846.1323723691
 20
9093.9778266299
 10
5846.9615921872
 20
9092.8858695376
 10
5848.0592713254
 20
9091.9889388431
 10
5849.366281976
 20
9091.3354335177
 10
5850.8120522397
 20
9090.9605203021
 10
5852.3188576596
 20
9090.8845839847
 10
5853.8051590817
 20
9091.1114392627
 10
5855.1908478635
 20
9091.6291652072
 10
5856.4015374081
 20
9092.4096284259
 10
5857.3714241879
 20
9093.4108672488
 10
5858.0490097897
 20
9094.5788798678
 10
5858.3971009152
 20
9095.8507237781
 10
5858.3971009152
 20
9097.1577344287
 10
5858.0490097897
 20
9098.4294591296
 10
5857.3714241879
 20
9099.5974717486
 10
5856.4015374081
 20
9100.5987105716
 10
5855.1908478635
 20
9101.3791737903
 10
5853.8051590817
 20
9101.8968997348
 10
5852.3188576596
 20
9102.1237550128
 10
5850.8120522397
 20
9102.0478186954
 10
5849.366281976
 20
9101.6729054797
 10
5848.0592713254
 20
9101.0194001544
 10
5846.9615921872
 20
9100.1225886691
 10
5846.1323723691
 20
9099.0305123675
 10
5845.6159577267
 20
9097.8022990573
 10
5845.4409584897
 20
9096.5042291034
  0
LINE
  5
2C5
330
1F
100
AcDbEntity
  8
0
  6
Continuous
 62
     7
370
    25
100
AcDbLine
 10
5876.9408211606
 20
9077.8845725406
 30
0.0
 11
5876.9408211606
 21
9158.4249911654
 31
0.0
  0
LINE
  5
2C6
330
1F
100
AcDbEntity
  8
0
  6
Continuous
 62
     7
370
    25
100
AcDbLine
 10
3506.9409356015
 20
9077.8845725406
 30
0.0
 11
3506.9409356015
 21
9158.4249911654
 31
0.0
  0
LINE
  5
2C7
330
1F
100
AcDbEntity
  8
0
  6
Continuous
 62
     7
370
    25
100
AcDbLine
 10
3506.9409356015
 20
9163.2061181415
 30
0.0
 11
3506.9409356015
 21
9184.7061095584
 31
0.0
  0
LINE
  5
2C8
330
1F
100
AcDbEntity
  8
0
  6
Continuous
 62
     7
370
    25
100
AcDbLine
 10
5876.9408211606
 20
9163.2061181415
 30
0.0
 11
5876.9408211606
 21
9184.7061095584
 31
0.0
  0
LINE
  5
2C9
330
1F
100
AcDbEntity
  8
0
  6
Continuous
 62
     7
370
    25
100
AcDbLine
 10
4681.8407521146
 20
9170.7060513843
 30
0.0
 11
4702.0407662289
 21
9170.7060513843
 31
0.0
  0
LINE
  5
2CA
330
1F
100
AcDbEntity
  8
0
  6
Continuous
 62
     7
370
    25
100
AcDbLine
 10
4702.0407662289
 20
9177.2060571063
 30
0.0
 11
4681.8407521146
 21
9177.2060571063
 31
0.0
  0
LWPOLYLINE
  5
2CB
330
1F
100
AcDbEntity
  8
0
  6
Continuous
 62
     7
370
    25
100
AcDbPolyline
 90
       15
 70
   128
 43
0.0
 10
5845.4552636044
 20
9140.1804862369
 10
5845.6159577267
 20
9139.2572102893
 10
5846.1323723691
 20
9138.0291161883
 10
5846.9615921872
 20
9136.9370398868
 10
5848.0592713254
 20
9136.0401091922
 10
5849.366281976
 20
9135.3866038669
 10
5850.8120522397
 20
9135.0118098605
 10
5852.3188576596
 20
9134.9357543338
 10
5853.8051590817
 20
9135.1627288211
 10
5855.1908478635
 20
9135.6804547656
 10
5856.4015374081
 20
9136.4609179843
 10
5857.3714241879
 20
9137.4621568072
 10
5858.0490097897
 20
9138.6301694262
 10
5858.3971009152
 20
9139.9018941272
 10
5858.4261879819
 20
9140.1804862369
  0
LWPOLYLINE
  5
2CC
330
1F
100
AcDbEntity
  8
0
  6
Continuous
 62
     7
370
    25
100
AcDbPolyline
 90
       15
 70
   128
 43
0.0
 10
3525.4553303616
 20
9140.1804862369
 10
3525.4848942654
 20
9139.9018941272
 10
3525.8327469723
 20
9138.6301694262
 10
3526.5100941556
 20
9137.4621568072
 10
3527.4802193539
 20
9136.4609179843
 10
3528.6909088986
 20
9135.6804547656
 10
3530.0765976803
 20
9135.1627288211
 10
3531.5628991025
 20
9134.9357543338
 10
3533.0694661038
 20
9135.0118098605
 10
3534.5154747861
 20
9135.3866038669
 10
3535.8224854367
 20
9136.0401091922
 10
3536.9201645749
 20
9136.9370398868
 10
3537.749384393
 20
9138.0291161883
 10
3538.2655606167
 20
9139.2572102893
 10
3538.4264931576
 20
9140.1804862369
  0
LINE
  5
2CD
330
1F
100
AcDbEntity
  8
0
  6
Continuous
 62
     7
370
    25
100
AcDbLine
 10
4702.0407662289
 20
9175.9070334781
 30
0.0
 11
4681.8407521146
 21
9175.9070334781
 31
0.0
  0
LWPOLYLINE
  5
2CE
330
1F
100
AcDbEntity
  8
0
  6
Continuous
 62
     7
370
    25
100
AcDbPolyline
 90
       15
 70
   128
 43
0.0
 10
5845.4552636044
 20
9096.879142319
 10
5845.6159577267
 20
9095.9559855807
 10
5846.1323723691
 20
9094.7277722705
 10
5846.9615921872
 20
9093.6358151782
 10
5848.0592713254
 20
9092.7388844836
 10
5849.366281976
 20
9092.0853791583
 10
5850.8120522397
 20
9091.710585152
 10
5852.3188576596
 20
9091.6345296252
 10
5853.8051590817
 20
9091.8615041125
 10
5855.1908478635
 20
9092.379230057
 10
5856.4015374081
 20
9093.1596932757
 10
5857.3714241879
 20
9094.1609320987
 10
5858.0490097897
 20
9095.3288255084
 10
5858.3971009152
 20
9096.6006694186
 10
5858.4261879819
 20
9096.879142319
  0
LWPOLYLINE
  5
2CF
330
1F
100
AcDbEntity
  8
0
  6
Continuous
 62
     7
370
    25
100
AcDbPolyline
 90
       15
 70
   128
 43
0.0
 10
3525.4553303616
 20
9096.879142319
 10
3525.4848942654
 20
9096.6006694186
 10
3525.8327469723
 20
9095.3288255084
 10
3526.5100941556
 20
9094.1609320987
 10
3527.4802193539
 20
9093.1596932757
 10
3528.6909088986
 20
9092.379230057
 10
3530.0765976803
 20
9091.8615041125
 10
3531.5628991025
 20
9091.6345296252
 10
3533.0694661038
 20
9091.710585152
 10
3534.5154747861
 20
9092.0853791583
 10
3535.8224854367
 20
9092.7388844836
 10
3536.9201645749
 20
9093.6358151782
 10
3537.749384393
 20
9094.7277722705
 10
3538.2655606167
 20
9095.9559855807
 10
3538.4264931576
 20
9096.879142319
  0
LINE
  5
2D0
330
1F
100
AcDbEntity
  8
0
  6
Continuous
 62
     7
370
    25
100
AcDbLine
 10
3506.9409356015
 20
9184.7061095584
 30
0.0
 11
3506.9409356015
 21
9185.1749596942
 31
0.0
  0
LINE
  5
2D1
330
1F
100
AcDbEntity
  8
0
  6
Continuous
 62
     7
370
    25
100
AcDbLine
 10
5876.9408211606
 20
9184.7061095584
 30
0.0
 11
5876.9408211606
 21
9185.1749596942
 31
0.0
  0
LINE
  5
2D2
330
1F
100
AcDbEntity
  8
0
  6
Continuous
 62
     7
370
    25
100
AcDbLine
 10
5876.9408211606
 20
9077.8845725406
 30
0.0
 11
5876.9408211606
 21
9076.13458017
 31
0.0
  0
LINE
  5
2D3
330
1F
100
AcDbEntity
  8
0
  6
Continuous
 62
     7
370
    25
100
AcDbLine
 10
3506.9409356015
 20
9076.13458017
 30
0.0
 11
3506.9409356015
 21
9077.8845725406
 31
0.0
  0
LINE
  5
2D4
330
1F
100
AcDbEntity
  8
0
  6
Continuous
 62
     7
370
    25
100
AcDbLine
 10
1136.9408414262
 20
8421.4250026095
 30
0.0
 11
1136.9408414262
 21
8426.2060699809
 31
0.0
  0
LWPOLYLINE
  5
2D5
330
1F
100
AcDbEntity
  8
0
  6
Continuous
 62
     7
370
    25
100
AcDbPolyline
 90
       28
 70
   128
 43
0.0
 10
3475.440834512
 20
8402.805465256
 10
3475.6160721677
 20
8401.5072760928
 10
3476.1322483914
 20
8400.2790627826
 10
3476.9614682095
 20
8399.1871056903
 10
3478.0593857663
 20
8398.2901749957
 10
3479.3663964169
 20
8397.6366696704
 10
3480.8121666806
 20
8397.2618160594
 10
3482.3187336819
 20
8397.1858201373
 10
3483.8050351041
 20
8397.41273502
 10
3485.1907238858
 20
8397.9304609645
 10
3486.4014134305
 20
8398.7109241832
 10
3487.3715386288
 20
8399.7121630061
 10
3488.0488858121
 20
8400.8801756251
 10
3488.3969769376
 20
8402.1519599307
 10
3488.3969769376
 20
8403.4589705813
 10
3488.0488858121
 20
8404.7307548869
 10
3487.3715386288
 20
8405.8987079013
 10
3486.4014134305
 20
8406.8999467242
 10
3485.1907238858
 20
8407.6804695476
 10
3483.8050351041
 20
8408.1981358874
 10
3482.3187336819
 20
8408.4251103747
 10
3480.8121666806
 20
8408.3491144526
 10
3479.3663964169
 20
8407.9742608417
 10
3478.0593857663
 20
8407.3207555163
 10
3476.9614682095
 20
8406.4238248218
 10
3476.1322483914
 20
8405.3318081248
 10
3475.6160721677
 20
8404.1035948146
 10
3475.440834512
 20
8402.805465256
  0
LWPOLYLINE
  5
2D6
330
1F
100
AcDbEntity
  8
0
  6
Continuous
 62
     7
370
    25
100
AcDbPolyline
 90
       28
 70
   128
 43
0.0
 10
1168.4408382075
 20
8359.5041809428
 10
1168.2656303542
 20
8360.802370106
 10
1167.7494541304
 20
8362.0305238116
 10
1166.9201300042
 20
8363.1225405086
 10
1165.8223763602
 20
8364.0194712031
 10
1164.5153657096
 20
8364.6729765285
 10
1163.0695507424
 20
8365.0478301394
 10
1161.5628943341
 20
8365.1238260615
 10
1160.0766227143
 20
8364.8968515742
 10
1158.6908445256
 20
8364.3791852344
 10
1157.4802741902
 20
8363.598662411
 10
1156.510163893
 20
8362.5974235881
 10
1155.8328316109
 20
8361.4294705737
 10
1155.4847851889
 20
8360.1576862681
 10
1155.4847851889
 20
8358.8506756175
 10
1155.8328316109
 20
8357.5788913119
 10
1156.510163893
 20
8356.4108786929
 10
1157.4802741902
 20
8355.40963987
 10
1158.6908445256
 20
8354.6291766513
 10
1160.0766227143
 20
8354.1115103114
 10
1161.5628943341
 20
8353.8845358241
 10
1163.0695507424
 20
8353.9605317462
 10
1164.5153657096
 20
8354.3353853572
 10
1165.8223763602
 20
8354.9888906825
 10
1166.9201300042
 20
8355.8858213771
 10
1167.7494541304
 20
8356.9777784694
 10
1168.2656303542
 20
8358.2059917796
 10
1168.4408382075
 20
8359.5041809428
  0
LWPOLYLINE
  5
2D7
330
1F
100
AcDbEntity
  8
0
  6
Continuous
 62
     7
370
    25
100
AcDbPolyline
 90
       28
 70
   128
 43
0.0
 10
1168.4408382075
 20
8402.805465256
 10
1168.2656303542
 20
8404.1035948146
 10
1167.7494541304
 20
8405.3318081248
 10
1166.9201300042
 20
8406.4238248218
 10
1165.8223763602
 20
8407.3207555163
 10
1164.5153657096
 20
8407.9742608417
 10
1163.0695507424
 20
8408.3491144526
 10
1161.5628943341
 20
8408.4251103747
 10
1160.0766227143
 20
8408.1981358874
 10
1158.6908445256
 20
8407.6804695476
 10
1157.4802741902
 20
8406.8999467242
 10
1156.510163893
 20
8405.8987079013
 10
1155.8328316109
 20
8404.7307548869
 10
1155.4847851889
 20
8403.4589705813
 10
1155.4847851889
 20
8402.1519599307
 10
1155.8328316109
 20
8400.8801756251
 10
1156.510163893
 20
8399.7121630061
 10
1157.4802741902
 20
8398.7109241832
 10
1158.6908445256
 20
8397.9304609645
 10
1160.0766227143
 20
8397.41273502
 10
1161.5628943341
 20
8397.1858201373
 10
1163.0695507424
 20
8397.2618160594
 10
1164.5153657096
 20
8397.6366696704
 10
1165.8223763602
 20
8398.2901749957
 10
1166.9201300042
 20
8399.1871056903
 10
1167.7494541304
 20
8400.2790627826
 10
1168.2656303542
 20
8401.5072760928
 10
1168.4408382075
 20
8402.805465256
  0
LWPOLYLINE
  5
2D8
330
1F
100
AcDbEntity
  8
0
  6
Continuous
 62
     7
370
    25
100
AcDbPolyline
 90
       28
 70
   128
 43
0.0
 10
3475.440834512
 20
8359.5041809428
 10
3475.6160721677
 20
8358.2059917796
 10
3476.1322483914
 20
8356.9777784694
 10
3476.9614682095
 20
8355.8858213771
 10
3478.0593857663
 20
8354.9888906825
 10
3479.3663964169
 20
8354.3353853572
 10
3480.8121666806
 20
8353.9605317462
 10
3482.3187336819
 20
8353.8845358241
 10
3483.8050351041
 20
8354.1115103114
 10
3485.1907238858
 20
8354.6291766513
 10
3486.4014134305
 20
8355.40963987
 10
3487.3715386288
 20
8356.4108786929
 10
3488.0488858121
 20
8357.5788913119
 10
3488.3969769376
 20
8358.8506756175
 10
3488.3969769376
 20
8360.1576862681
 10
3488.0488858121
 20
8361.4294705737
 10
3487.3715386288
 20
8362.5974235881
 10
3486.4014134305
 20
8363.598662411
 10
3485.1907238858
 20
8364.3791852344
 10
3483.8050351041
 20
8364.8968515742
 10
3482.3187336819
 20
8365.1238260615
 10
3480.8121666806
 20
8365.0478301394
 10
3479.3663964169
 20
8364.6729765285
 10
3478.0593857663
 20
8364.0194712031
 10
3476.9614682095
 20
8363.1225405086
 10
3476.1322483914
 20
8362.0305238116
 10
3475.6160721677
 20
8360.802370106
 10
3475.440834512
 20
8359.5041809428
  0
LINE
  5
2D9
330
1F
100
AcDbEntity
  8
0
  6
Continuous
 62
     7
370
    25
100
AcDbLine
 10
1136.9408414262
 20
8340.8846435893
 30
0.0
 11
1136.9408414262
 21
8421.4250026095
 31
0.0
  0
LINE
  5
2DA
330
1F
100
AcDbEntity
  8
0
  6
Continuous
 62
     7
370
    25
100
AcDbLine
 10
1136.9408414262
 20
8426.2060699809
 30
0.0
 11
1136.9408414262
 21
8447.7060613978
 31
0.0
  0
LINE
  5
2DB
330
1F
100
AcDbEntity
  8
0
  6
Continuous
 62
     7
370
    25
100
AcDbLine
 10
2311.9408235448
 20
8433.7060628283
 30
0.0
 11
2331.9408640759
 21
8433.7060628283
 31
0.0
  0
LINE
  5
2DC
330
1F
100
AcDbEntity
  8
0
  6
Continuous
 62
     7
370
    25
100
AcDbLine
 10
2332.0408210652
 20
8440.2060685504
 30
0.0
 11
2311.8408665555
 21
8440.2060685504
 31
0.0
  0
LWPOLYLINE
  5
2DD
330
1F
100
AcDbEntity
  8
0
  6
Continuous
 62
     7
370
    25
100
AcDbPolyline
 90
       15
 70
   128
 43
0.0
 10
3475.4553780453
 20
8403.1804380763
 10
3475.6160721677
 20
8402.257281338
 10
3476.1322483914
 20
8401.0290680278
 10
3476.9614682095
 20
8399.9371109355
 10
3478.0593857663
 20
8399.0401802409
 10
3479.3663964169
 20
8398.3866749156
 10
3480.8121666806
 20
8398.0118213046
 10
3482.3187336819
 20
8397.9358253825
 10
3483.8050351041
 20
8398.1627402652
 10
3485.1907238858
 20
8398.6804662097
 10
3486.4014134305
 20
8399.4609294284
 10
3487.3715386288
 20
8400.4621682513
 10
3488.0488858121
 20
8401.6301808703
 10
3488.3969769376
 20
8402.9019651759
 10
3488.4263024228
 20
8403.1804380763
  0
LWPOLYLINE
  5
2DE
330
1F
100
AcDbEntity
  8
0
  6
Continuous
 62
     7
370
    25
100
AcDbPolyline
 90
       15
 70
   128
 43
0.0
 10
1155.4552808898
 20
8403.1804380763
 10
1155.4847851889
 20
8402.9019651759
 10
1155.8328316109
 20
8401.6301808703
 10
1156.510163893
 20
8400.4621682513
 10
1157.4802741902
 20
8399.4609294284
 10
1158.6908445256
 20
8398.6804662097
 10
1160.0766227143
 20
8398.1627402652
 10
1161.5628943341
 20
8397.9358253825
 10
1163.0695507424
 20
8398.0118213046
 10
1164.5153657096
 20
8398.3866749156
 10
1165.8223763602
 20
8399.0401802409
 10
1166.9201300042
 20
8399.9371109355
 10
1167.7494541304
 20
8401.0290680278
 10
1168.2656303542
 20
8402.257281338
 10
1168.4263989823
 20
8403.1804380763
  0
LINE
  5
2DF
330
1F
100
AcDbEntity
  8
0
  6
Continuous
 62
     7
370
    25
100
AcDbLine
 10
2332.0408210652
 20
8438.9070449222
 30
0.0
 11
2311.8408665555
 21
8438.9070449222
 31
0.0
  0
LWPOLYLINE
  5
2E0
330
1F
100
AcDbEntity
  8
0
  6
Continuous
 62
     7
370
    25
100
AcDbPolyline
 90
       15
 70
   128
 43
0.0
 10
3475.4553780453
 20
8359.8791537631
 10
3475.6160721677
 20
8358.9559970248
 10
3476.1322483914
 20
8357.7277837146
 10
3476.9614682095
 20
8356.6358266223
 10
3478.0593857663
 20
8355.7388959277
 10
3479.3663964169
 20
8355.0853906024
 10
3480.8121666806
 20
8354.7105369914
 10
3482.3187336819
 20
8354.6345410693
 10
3483.8050351041
 20
8354.8615155566
 10
3485.1907238858
 20
8355.3791818965
 10
3486.4014134305
 20
8356.1596451152
 10
3487.3715386288
 20
8357.1608839381
 10
3488.0488858121
 20
8358.3288965571
 10
3488.3969769376
 20
8359.6006808627
 10
3488.4263024228
 20
8359.8791537631
  0
LWPOLYLINE
  5
2E1
330
1F
100
AcDbEntity
  8
0
  6
Continuous
 62
     7
370
    25
100
AcDbPolyline
 90
       15
 70
   128
 43
0.0
 10
1155.4552808898
 20
8359.8791537631
 10
1155.4847851889
 20
8359.6006808627
 10
1155.8328316109
 20
8358.3288965571
 10
1156.510163893
 20
8357.1608839381
 10
1157.4802741902
 20
8356.1596451152
 10
1158.6908445256
 20
8355.3791818965
 10
1160.0766227143
 20
8354.8615155566
 10
1161.5628943341
 20
8354.6345410693
 10
1163.0695507424
 20
8354.7105369914
 10
1164.5153657096
 20
8355.0853906024
 10
1165.8223763602
 20
8355.7388959277
 10
1166.9201300042
 20
8356.6358266223
 10
1167.7494541304
 20
8357.7277837146
 10
1168.2656303542
 20
8358.9559970248
 10
1168.4263989823
 20
8359.8791537631
  0
LINE
  5
2E2
330
1F
100
AcDbEntity
  8
0
  6
Continuous
 62
     7
370
    25
100
AcDbLine
 10
1136.9408414262
 20
8447.7060613978
 30
0.0
 11
1136.9408414262
 21
8448.1749711383
 31
0.0
  0
LINE
  5
2E3
330
1F
100
AcDbEntity
  8
0
  6
Continuous
 62
     7
370
    25
100
AcDbLine
 10
1136.9408414262
 20
8339.1346512187
 30
0.0
 11
1136.9408414262
 21
8340.8846435893
 31
0.0
  0
LINE
  5
2E4
330
1F
100
AcDbEntity
  8
0
  6
Continuous
 62
     7
370
    25
100
AcDbLine
 10
1136.9408414262
 20
9158.4249911654
 30
0.0
 11
1136.9408414262
 21
9163.2061181415
 31
0.0
  0
LWPOLYLINE
  5
2E5
330
1F
100
AcDbEntity
  8
0
  6
Continuous
 62
     7
370
    25
100
AcDbPolyline
 90
       28
 70
   128
 43
0.0
 10
3475.440834512
 20
9139.8054538119
 10
3475.6160721677
 20
9138.5072646487
 10
3476.1322483914
 20
9137.2790513385
 10
3476.9614682095
 20
9136.1870942462
 10
3478.0593857663
 20
9135.2901635516
 10
3479.3663964169
 20
9134.6366582263
 10
3480.8121666806
 20
9134.2617450107
 10
3482.3187336819
 20
9134.1858086932
 10
3483.8050351041
 20
9134.4127831805
 10
3485.1907238858
 20
9134.9303899158
 10
3486.4014134305
 20
9135.7109723437
 10
3487.3715386288
 20
9136.7122111667
 10
3488.0488858121
 20
9137.8801045764
 10
3488.3969769376
 20
9139.1519484866
 10
3488.3969769376
 20
9140.4589591372
 10
3488.0488858121
 20
9141.7306838382
 10
3487.3715386288
 20
9142.8986964572
 10
3486.4014134305
 20
9143.8999352801
 10
3485.1907238858
 20
9144.6803984988
 10
3483.8050351041
 20
9145.1981244433
 10
3482.3187336819
 20
9145.4250989306
 10
3480.8121666806
 20
9145.3490434039
 10
3479.3663964169
 20
9144.9742493976
 10
3478.0593857663
 20
9144.3207440722
 10
3476.9614682095
 20
9143.4238133777
 10
3476.1322483914
 20
9142.3318562854
 10
3475.6160721677
 20
9141.1036429751
 10
3475.440834512
 20
9139.8054538119
  0
LWPOLYLINE
  5
2E6
330
1F
100
AcDbEntity
  8
0
  6
Continuous
 62
     7
370
    25
100
AcDbPolyline
 90
       28
 70
   128
 43
0.0
 10
1168.4408382075
 20
9096.5042291034
 10
1168.2656303542
 20
9097.8022990573
 10
1167.7494541304
 20
9099.0305123675
 10
1166.9201300042
 20
9100.1225886691
 10
1165.8223763602
 20
9101.0194001544
 10
1164.5153657096
 20
9101.6729054797
 10
1163.0695507424
 20
9102.0478186954
 10
1161.5628943341
 20
9102.1237550128
 10
1160.0766227143
 20
9101.8968997348
 10
1158.6908445256
 20
9101.3791737903
 10
1157.4802741902
 20
9100.5987105716
 10
1156.510163893
 20
9099.5974717486
 10
1155.8328316109
 20
9098.4294591296
 10
1155.4847851889
 20
9097.1577344287
 10
1155.4847851889
 20
9095.8507237781
 10
1155.8328316109
 20
9094.5788798678
 10
1156.510163893
 20
9093.4108672488
 10
1157.4802741902
 20
9092.4096284259
 10
1158.6908445256
 20
9091.6291652072
 10
1160.0766227143
 20
9091.1114392627
 10
1161.5628943341
 20
9090.8845839847
 10
1163.0695507424
 20
9090.9605203021
 10
1164.5153657096
 20
9091.3354335177
 10
1165.8223763602
 20
9091.9889388431
 10
1166.9201300042
 20
9092.8858695376
 10
1167.7494541304
 20
9093.9778266299
 10
1168.2656303542
 20
9095.2060399402
 10
1168.4408382075
 20
9096.5042291034
  0
LWPOLYLINE
  5
2E7
330
1F
100
AcDbEntity
  8
0
  6
Continuous
 62
     7
370
    25
100
AcDbPolyline
 90
       28
 70
   128
 43
0.0
 10
1168.4408382075
 20
9139.8054538119
 10
1168.2656303542
 20
9141.1036429751
 10
1167.7494541304
 20
9142.3318562854
 10
1166.9201300042
 20
9143.4238133777
 10
1165.8223763602
 20
9144.3207440722
 10
1164.5153657096
 20
9144.9742493976
 10
1163.0695507424
 20
9145.3490434039
 10
1161.5628943341
 20
9145.4250989306
 10
1160.0766227143
 20
9145.1981244433
 10
1158.6908445256
 20
9144.6803984988
 10
1157.4802741902
 20
9143.8999352801
 10
1156.510163893
 20
9142.8986964572
 10
1155.8328316109
 20
9141.7306838382
 10
1155.4847851889
 20
9140.4589591372
 10
1155.4847851889
 20
9139.1519484866
 10
1155.8328316109
 20
9137.8801045764
 10
1156.510163893
 20
9136.7122111667
 10
1157.4802741902
 20
9135.7109723437
 10
1158.6908445256
 20
9134.9303899158
 10
1160.0766227143
 20
9134.4127831805
 10
1161.5628943341
 20
9134.1858086932
 10
1163.0695507424
 20
9134.2617450107
 10
1164.5153657096
 20
9134.6366582263
 10
1165.8223763602
 20
9135.2901635516
 10
1166.9201300042
 20
9136.1870942462
 10
1167.7494541304
 20
9137.2790513385
 10
1168.2656303542
 20
9138.5072646487
 10
1168.4408382075
 20
9139.8054538119
  0
LWPOLYLINE
  5
2E8
330
1F
100
AcDbEntity
  8
0
  6
Continuous
 62
     7
370
    25
100
AcDbPolyline
 90
       28
 70
   128
 43
0.0
 10
3475.440834512
 20
9096.5042291034
 10
3475.6160721677
 20
9095.2060399402
 10
3476.1322483914
 20
9093.9778266299
 10
3476.9614682095
 20
9092.8858695376
 10
3478.0593857663
 20
9091.9889388431
 10
3479.3663964169
 20
9091.3354335177
 10
3480.8121666806
 20
9090.9605203021
 10
3482.3187336819
 20
9090.8845839847
 10
3483.8050351041
 20
9091.1114392627
 10
3485.1907238858
 20
9091.6291652072
 10
3486.4014134305
 20
9092.4096284259
 10
3487.3715386288
 20
9093.4108672488
 10
3488.0488858121
 20
9094.5788798678
 10
3488.3969769376
 20
9095.8507237781
 10
3488.3969769376
 20
9097.1577344287
 10
3488.0488858121
 20
9098.4294591296
 10
3487.3715386288
 20
9099.5974717486
 10
3486.4014134305
 20
9100.5987105716
 10
3485.1907238858
 20
9101.3791737903
 10
3483.8050351041
 20
9101.8968997348
 10
3482.3187336819
 20
9102.1237550128
 10
3480.8121666806
 20
9102.0478186954
 10
3479.3663964169
 20
9101.6729054797
 10
3478.0593857663
 20
9101.0194001544
 10
3476.9614682095
 20
9100.1225886691
 10
3476.1322483914
 20
9099.0305123675
 10
3475.6160721677
 20
9097.8022990573
 10
3475.440834512
 20
9096.5042291034
  0
LINE
  5
2E9
330
1F
100
AcDbEntity
  8
0
  6
Continuous
 62
     7
370
    25
100
AcDbLine
 10
1136.9408414262
 20
9077.8845725406
 30
0.0
 11
1136.9408414262
 21
9158.4249911654
 31
0.0
  0
LINE
  5
2EA
330
1F
100
AcDbEntity
  8
0
  6
Continuous
 62
     7
370
    25
100
AcDbLine
 10
1136.9408414262
 20
9163.2061181415
 30
0.0
 11
1136.9408414262
 21
9184.7061095584
 31
0.0
  0
LINE
  5
2EB
330
1F
100
AcDbEntity
  8
0
  6
Continuous
 62
     7
370
    25
100
AcDbLine
 10
2311.8408665555
 20
9170.7060513843
 30
0.0
 11
2332.0408210652
 21
9170.7060513843
 31
0.0
  0
LINE
  5
2EC
330
1F
100
AcDbEntity
  8
0
  6
Continuous
 62
     7
370
    25
100
AcDbLine
 10
2332.0408210652
 20
9177.2060571063
 30
0.0
 11
2311.8408665555
 21
9177.2060571063
 31
0.0
  0
LWPOLYLINE
  5
2ED
330
1F
100
AcDbEntity
  8
0
  6
Continuous
 62
     7
370
    25
100
AcDbPolyline
 90
       15
 70
   128
 43
0.0
 10
3475.4553780453
 20
9140.1804862369
 10
3475.6160721677
 20
9139.2572102893
 10
3476.1322483914
 20
9138.0291161883
 10
3476.9614682095
 20
9136.9370398868
 10
3478.0593857663
 20
9136.0401091922
 10
3479.3663964169
 20
9135.3866038669
 10
3480.8121666806
 20
9135.0118098605
 10
3482.3187336819
 20
9134.9357543338
 10
3483.8050351041
 20
9135.1627288211
 10
3485.1907238858
 20
9135.6804547656
 10
3486.4014134305
 20
9136.4609179843
 10
3487.3715386288
 20
9137.4621568072
 10
3488.0488858121
 20
9138.6301694262
 10
3488.3969769376
 20
9139.9018941272
 10
3488.4263024228
 20
9140.1804862369
  0
LWPOLYLINE
  5
2EE
330
1F
100
AcDbEntity
  8
0
  6
Continuous
 62
     7
370
    25
100
AcDbPolyline
 90
       15
 70
   128
 43
0.0
 10
1155.4552808898
 20
9140.1804862369
 10
1155.4847851889
 20
9139.9018941272
 10
1155.8328316109
 20
9138.6301694262
 10
1156.510163893
 20
9137.4621568072
 10
1157.4802741902
 20
9136.4609179843
 10
1158.6908445256
 20
9135.6804547656
 10
1160.0766227143
 20
9135.1627288211
 10
1161.5628943341
 20
9134.9357543338
 10
1163.0695507424
 20
9135.0118098605
 10
1164.5153657096
 20
9135.3866038669
 10
1165.8223763602
 20
9136.0401091922
 10
1166.9201300042
 20
9136.9370398868
 10
1167.7494541304
 20
9138.0291161883
 10
1168.2656303542
 20
9139.2572102893
 10
1168.4263989823
 20
9140.1804862369
  0
LINE
  5
2EF
330
1F
100
AcDbEntity
  8
0
  6
Continuous
 62
     7
370
    25
100
AcDbLine
 10
2332.0408210652
 20
9175.9070334781
 30
0.0
 11
2311.8408665555
 21
9175.9070334781
 31
0.0
  0
LWPOLYLINE
  5
2F0
330
1F
100
AcDbEntity
  8
0
  6
Continuous
 62
     7
370
    25
100
AcDbPolyline
 90
       15
 70
   128
 43
0.0
 10
3475.4553780453
 20
9096.879142319
 10
3475.6160721677
 20
9095.9559855807
 10
3476.1322483914
 20
9094.7277722705
 10
3476.9614682095
 20
9093.6358151782
 10
3478.0593857663
 20
9092.7388844836
 10
3479.3663964169
 20
9092.0853791583
 10
3480.8121666806
 20
9091.710585152
 10
3482.3187336819
 20
9091.6345296252
 10
3483.8050351041
 20
9091.8615041125
 10
3485.1907238858
 20
9092.379230057
 10
3486.4014134305
 20
9093.1596932757
 10
3487.3715386288
 20
9094.1609320987
 10
3488.0488858121
 20
9095.3288255084
 10
3488.3969769376
 20
9096.6006694186
 10
3488.4263024228
 20
9096.879142319
  0
LWPOLYLINE
  5
2F1
330
1F
100
AcDbEntity
  8
0
  6
Continuous
 62
     7
370
    25
100
AcDbPolyline
 90
       15
 70
   128
 43
0.0
 10
1155.4552808898
 20
9096.879142319
 10
1155.4847851889
 20
9096.6006694186
 10
1155.8328316109
 20
9095.3288255084
 10
1156.510163893
 20
9094.1609320987
 10
1157.4802741902
 20
9093.1596932757
 10
1158.6908445256
 20
9092.379230057
 10
1160.0766227143
 20
9091.8615041125
 10
1161.5628943341
 20
9091.6345296252
 10
1163.0695507424
 20
9091.710585152
 10
1164.5153657096
 20
9092.0853791583
 10
1165.8223763602
 20
9092.7388844836
 10
1166.9201300042
 20
9093.6358151782
 10
1167.7494541304
 20
9094.7277722705
 10
1168.2656303542
 20
9095.9559855807
 10
1168.4263989823
 20
9096.879142319
  0
LINE
  5
2F2
330
1F
100
AcDbEntity
  8
0
  6
Continuous
 62
     7
370
    25
100
AcDbLine
 10
1136.9408414262
 20
9184.7061095584
 30
0.0
 11
1136.9408414262
 21
9185.1749596942
 31
0.0
  0
LINE
  5
2F3
330
1F
100
AcDbEntity
  8
0
  6
Continuous
 62
     7
370
    25
100
AcDbLine
 10
1136.9408414262
 20
9076.13458017
 30
0.0
 11
1136.9408414262
 21
9077.8845725406
 31
0.0
  0
LINE
  5
2F4
330
1F
100
AcDbEntity
  8
0
  6
Continuous
 62
     7
370
    25
100
AcDbLine
 10
3226.9408450024
 20
8178.1577346671
 30
0.0
 11
3229.4407830136
 21
8178.1577346671
 31
0.0
  0
LINE
  5
2F5
330
1F
100
AcDbEntity
  8
0
  6
Continuous
 62
     7
370
    25
100
AcDbLine
 10
3226.9408450024
 20
8178.1577346671
 30
0.0
 11
3226.9408450024
 21
8256.9560585368
 31
0.0
  0
LINE
  5
2F6
330
1F
100
AcDbEntity
  8
0
  6
Continuous
 62
     7
370
    25
100
AcDbLine
 10
3229.4407830136
 20
8178.1577346671
 30
0.0
 11
3229.4407830136
 21
8256.9560585368
 31
0.0
  0
LINE
  5
2F7
330
1F
100
AcDbEntity
  8
0
  6
Continuous
 62
     7
370
    25
100
AcDbLine
 10
3284.4408497708
 20
8256.5330443728
 30
0.0
 11
3286.940787782
 21
8256.5330443728
 31
0.0
  0
LINE
  5
2F8
330
1F
100
AcDbEntity
  8
0
  6
Continuous
 62
     7
370
    25
100
AcDbLine
 10
3284.4408497708
 20
8256.9560585368
 30
0.0
 11
3284.4408497708
 21
8256.5330443728
 31
0.0
  0
LINE
  5
2F9
330
1F
100
AcDbEntity
  8
0
  6
Continuous
 62
     7
370
    25
100
AcDbLine
 10
3286.940787782
 20
8256.9560585368
 30
0.0
 11
3286.940787782
 21
8256.5330443728
 31
0.0
  0
LINE
  5
2FA
330
1F
100
AcDbEntity
  8
0
  6
Continuous
 62
     7
370
    25
100
AcDbLine
 10
3286.940787782
 20
8191.581117903
 30
0.0
 11
3284.4408497708
 21
8191.581117903
 31
0.0
  0
LINE
  5
2FB
330
1F
100
AcDbEntity
  8
0
  6
Continuous
 62
     7
370
    25
100
AcDbLine
 10
3284.4408497708
 20
8178.1577346671
 30
0.0
 11
3286.940787782
 21
8178.1577346671
 31
0.0
  0
LINE
  5
2FC
330
1F
100
AcDbEntity
  8
0
  6
Continuous
 62
     7
370
    25
100
AcDbLine
 10
3284.4408497708
 20
8191.581117903
 30
0.0
 11
3284.4408497708
 21
8178.1577346671
 31
0.0
  0
LINE
  5
2FD
330
1F
100
AcDbEntity
  8
0
  6
Continuous
 62
     7
370
    25
100
AcDbLine
 10
3286.940787782
 20
8191.581117903
 30
0.0
 11
3286.940787782
 21
8178.1577346671
 31
0.0
  0
LINE
  5
2FE
330
1F
100
AcDbEntity
  8
0
  6
Continuous
 62
     7
370
    25
100
AcDbLine
 10
3284.4408497708
 20
8191.581117903
 30
0.0
 11
3284.4408497708
 21
8256.5330443728
 31
0.0
  0
LINE
  5
2FF
330
1F
100
AcDbEntity
  8
0
  6
Continuous
 62
     7
370
    25
100
AcDbLine
 10
3286.940787782
 20
8191.581117903
 30
0.0
 11
3286.940787782
 21
8256.5330443728
 31
0.0
  0
ARC
  5
300
330
1F
100
AcDbEntity
  8
0
  6
Continuous
 62
     7
370
    25
100
AcDbCircle
 10
3282.7221428339
 20
8178.4823617038
 30
0.0
 40
4.231116626900956
100
AcDbArc
 50
266.188400314
 51
355.5997299828
  0
ARC
  5
301
330
1F
100
AcDbEntity
  8
0
  6
Continuous
 62
     7
370
    25
100
AcDbCircle
 10
3282.5658584855
 20
8178.3020634177
 30
0.0
 40
1.880537983690394
100
AcDbArc
 50
266.1892400938
 51
355.5982978013
  0
LINE
  5
302
330
1F
100
AcDbEntity
  8
0
  6
Continuous
 62
     7
370
    25
100
AcDbLine
 10
3282.44087552
 20
8174.2606041778
 30
0.0
 11
3282.44087552
 21
8176.4256832946
 31
0.0
  0
ARC
  5
303
330
1F
100
AcDbEntity
  8
0
  6
Continuous
 62
     7
370
    25
100
AcDbCircle
 10
3231.3158940271
 20
8178.3021930682
 30
0.0
 40
1.880667313090571
100
AcDbArc
 50
184.4053604894
 51
273.8104816173
  0
LINE
  5
304
330
1F
100
AcDbEntity
  8
0
  6
Continuous
 62
     7
370
    25
100
AcDbLine
 10
3231.4408764737
 20
8176.4256832946
 30
0.0
 11
3231.4408764737
 21
8174.2606041778
 31
0.0
  0
ARC
  5
305
330
1F
100
AcDbEntity
  8
0
  6
Continuous
 62
     7
370
    25
100
AcDbCircle
 10
3231.1595482892
 20
8178.4824204622
 30
0.0
 40
4.2311793021613
100
AcDbArc
 50
184.4010027284
 51
273.8123692385
  0
LINE
  5
306
330
1F
100
AcDbEntity
  8
0
  6
Continuous
 62
     7
370
    25
100
AcDbLine
 10
3282.44087552
 20
8176.4256832946
 30
0.0
 11
3231.4408764737
 21
8176.4256832946
 31
0.0
  0
LINE
  5
307
330
1F
100
AcDbEntity
  8
0
  6
Continuous
 62
     7
370
    25
100
AcDbLine
 10
3282.44087552
 20
8174.2606041778
 30
0.0
 11
3231.4408764737
 21
8174.2606041778
 31
0.0
  0
LINE
  5
308
330
1F
100
AcDbEntity
  8
0
  6
Continuous
 62
     7
370
    25
100
AcDbLine
 10
3250.4408106702
 20
8241.1756692279
 30
0.0
 11
3250.4408106702
 21
8256.9560585368
 31
0.0
  0
LWPOLYLINE
  5
309
330
1F
100
AcDbEntity
  8
0
  6
Continuous
 62
     7
370
    25
100
AcDbPolyline
 90
       14
 70
   128
 43
0.0
 10
3263.4408221142
 20
8241.1756692279
 10
3263.2519945996
 20
8240.3979180205
 10
3262.696360101
 20
8239.6653173316
 10
3261.8061051266
 20
8239.0205440867
 10
3260.6332049267
 20
8238.5009703982
 10
3259.2457280057
 20
8238.1368754256
 10
3257.7243790524
 20
8237.9493890155
 10
3256.1573729413
 20
8237.9493890155
 10
3254.6359047787
 20
8238.1368754256
 10
3253.2484278577
 20
8238.5009703982
 10
3252.0755276578
 20
8239.0205440867
 10
3251.1853918927
 20
8239.6653173316
 10
3250.6297573941
 20
8240.3979180205
 10
3250.4408106702
 20
8241.1756692279
  0
LINE
  5
30A
330
1F
100
AcDbEntity
  8
0
  6
Continuous
 62
     7
370
    25
100
AcDbLine
 10
3263.4408221142
 20
8256.9560585368
 30
0.0
 11
3263.4408221142
 21
8241.1756692279
 31
0.0
  0
LWPOLYLINE
  5
30B
330
1F
100
AcDbEntity
  8
0
  6
Continuous
 62
     7
370
    25
100
AcDbPolyline
 90
       14
 70
   128
 43
0.0
 10
3250.4408106702
 20
8208.1756768573
 10
3250.6297573941
 20
8208.953457867
 10
3251.1853918927
 20
8209.6860287536
 10
3252.0755276578
 20
8210.3308318007
 10
3253.2484278577
 20
8210.8503756869
 10
3254.6359047787
 20
8211.2144706595
 10
3256.1573729413
 20
8211.401986872
 10
3257.7243790524
 20
8211.401986872
 10
3259.2457280057
 20
8211.2144706595
 10
3260.6332049267
 20
8210.8503756869
 10
3261.8061051266
 20
8210.3308318007
 10
3262.696360101
 20
8209.6860287536
 10
3263.2519945996
 20
8208.953457867
 10
3263.4408221142
 20
8208.1756768573
  0
LINE
  5
30C
330
1F
100
AcDbEntity
  8
0
  6
Continuous
 62
     7
370
    25
100
AcDbLine
 10
3250.4408106702
 20
8184.6756813872
 30
0.0
 11
3250.4408106702
 21
8208.1756768573
 31
0.0
  0
LWPOLYLINE
  5
30D
330
1F
100
AcDbEntity
  8
0
  6
Continuous
 62
     7
370
    25
100
AcDbPolyline
 90
       14
 70
   128
 43
0.0
 10
3263.4408221142
 20
8184.6756813872
 10
3263.2519945996
 20
8183.8979003776
 10
3262.696360101
 20
8183.1653294909
 10
3261.8061051266
 20
8182.5205264438
 10
3260.6332049267
 20
8182.0009825576
 10
3259.2457280057
 20
8181.636887585
 10
3257.7243790524
 20
8181.4493713725
 10
3256.1573729413
 20
8181.4493713725
 10
3254.6359047787
 20
8181.636887585
 10
3253.2484278577
 20
8182.0009825576
 10
3252.0755276578
 20
8182.5205264438
 10
3251.1853918927
 20
8183.1653294909
 10
3250.6297573941
 20
8183.8979003776
 10
3250.4408106702
 20
8184.6756813872
  0
LINE
  5
30E
330
1F
100
AcDbEntity
  8
0
  6
Continuous
 62
     7
370
    25
100
AcDbLine
 10
3263.4408221142
 20
8208.1756768573
 30
0.0
 11
3263.4408221142
 21
8184.6756813872
 31
0.0
  0
LWPOLYLINE
  5
30F
330
1F
100
AcDbEntity
  8
0
  6
Continuous
 62
     7
370
    25
100
AcDbPolyline
 90
       14
 70
   128
 43
0.0
 10
3263.4408221142
 20
8206.0106275428
 10
3263.2519945996
 20
8206.7883787501
 10
3262.696360101
 20
8207.5209794391
 10
3261.8061051266
 20
8208.1657526839
 10
3260.6332049267
 20
8208.6853263724
 10
3259.2457280057
 20
8209.049421345
 10
3257.7243790524
 20
8209.2369077552
 10
3256.1573729413
 20
8209.2369077552
 10
3254.6359047787
 20
8209.049421345
 10
3253.2484278577
 20
8208.6853263724
 10
3252.0755276578
 20
8208.1657526839
 10
3251.1853918927
 20
8207.5209794391
 10
3250.6297573941
 20
8206.7883787501
 10
3250.4408106702
 20
8206.0106275428
  0
LINE
  5
310
330
1F
100
AcDbEntity
  8
0
  6
Continuous
 62
     7
370
    25
100
AcDbLine
 10
1356.9408402341
 20
8178.1577346671
 30
0.0
 11
1359.4408401782
 21
8178.1577346671
 31
0.0
  0
LINE
  5
311
330
1F
100
AcDbEntity
  8
0
  6
Continuous
 62
     7
370
    25
100
AcDbLine
 10
1356.9408402341
 20
8178.1577346671
 30
0.0
 11
1356.9408402341
 21
8256.9560585368
 31
0.0
  0
LINE
  5
312
330
1F
100
AcDbEntity
  8
0
  6
Continuous
 62
     7
370
    25
100
AcDbLine
 10
1359.4408401782
 20
8178.1577346671
 30
0.0
 11
1359.4408401782
 21
8256.9560585368
 31
0.0
  0
LINE
  5
313
330
1F
100
AcDbEntity
  8
0
  6
Continuous
 62
     7
370
    25
100
AcDbLine
 10
1414.4408412771
 20
8256.5330443728
 30
0.0
 11
1416.940838893
 21
8256.5330443728
 31
0.0
  0
LINE
  5
314
330
1F
100
AcDbEntity
  8
0
  6
Continuous
 62
     7
370
    25
100
AcDbLine
 10
1414.4408412771
 20
8256.9560585368
 30
0.0
 11
1414.4408412771
 21
8256.5330443728
 31
0.0
  0
LINE
  5
315
330
1F
100
AcDbEntity
  8
0
  6
Continuous
 62
     7
370
    25
100
AcDbLine
 10
1416.940838893
 20
8256.9560585368
 30
0.0
 11
1416.940838893
 21
8256.5330443728
 31
0.0
  0
LINE
  5
316
330
1F
100
AcDbEntity
  8
0
  6
Continuous
 62
     7
370
    25
100
AcDbLine
 10
1416.940838893
 20
8191.581117903
 30
0.0
 11
1414.4408412771
 21
8191.581117903
 31
0.0
  0
LINE
  5
317
330
1F
100
AcDbEntity
  8
0
  6
Continuous
 62
     7
370
    25
100
AcDbLine
 10
1416.940838893
 20
8191.581117903
 30
0.0
 11
1416.940838893
 21
8178.1577346671
 31
0.0
  0
LINE
  5
318
330
1F
100
AcDbEntity
  8
0
  6
Continuous
 62
     7
370
    25
100
AcDbLine
 10
1414.4408412771
 20
8178.1577346671
 30
0.0
 11
1416.940838893
 21
8178.1577346671
 31
0.0
  0
LINE
  5
319
330
1F
100
AcDbEntity
  8
0
  6
Continuous
 62
     7
370
    25
100
AcDbLine
 10
1414.4408412771
 20
8191.581117903
 30
0.0
 11
1414.4408412771
 21
8178.1577346671
 31
0.0
  0
LINE
  5
31A
330
1F
100
AcDbEntity
  8
0
  6
Continuous
 62
     7
370
    25
100
AcDbLine
 10
1416.940838893
 20
8191.581117903
 30
0.0
 11
1416.940838893
 21
8256.5330443728
 31
0.0
  0
LINE
  5
31B
330
1F
100
AcDbEntity
  8
0
  6
Continuous
 62
     7
370
    25
100
AcDbLine
 10
1414.4408412771
 20
8191.581117903
 30
0.0
 11
1414.4408412771
 21
8256.5330443728
 31
0.0
  0
ARC
  5
31C
330
1F
100
AcDbEntity
  8
0
  6
Continuous
 62
     7
370
    25
100
AcDbCircle
 10
1412.7220752256
 20
8178.4824926036
 30
0.0
 40
4.231245041138871
100
AcDbArc
 50
266.1889645214
 51
355.5980860188
  0
ARC
  5
31D
330
1F
100
AcDbEntity
  8
0
  6
Continuous
 62
     7
370
    25
100
AcDbCircle
 10
1412.5658468132
 20
8178.3020652063
 30
0.0
 40
1.880541290283264
100
AcDbArc
 50
266.1885475983
 51
355.5982509017
  0
LINE
  5
31E
330
1F
100
AcDbEntity
  8
0
  6
Continuous
 62
     7
370
    25
100
AcDbLine
 10
1412.4408409493
 20
8174.2606041778
 30
0.0
 11
1412.4408409493
 21
8176.4256832946
 31
0.0
  0
ARC
  5
31F
330
1F
100
AcDbEntity
  8
0
  6
Continuous
 62
     7
370
    25
100
AcDbCircle
 10
1361.3158329471
 20
8178.3020632826
 30
0.0
 40
1.880539452602515
100
AcDbArc
 50
184.4016946253
 51
273.8114936712
  0
LINE
  5
320
330
1F
100
AcDbEntity
  8
0
  6
Continuous
 62
     7
370
    25
100
AcDbLine
 10
1361.4408400403
 20
8176.4256832946
 30
0.0
 11
1361.4408400403
 21
8174.2606041778
 31
0.0
  0
ARC
  5
321
330
1F
100
AcDbEntity
  8
0
  6
Continuous
 62
     7
370
    25
100
AcDbCircle
 10
1361.159606518
 20
8178.4824954905
 30
0.0
 40
4.231247871526502
100
AcDbArc
 50
184.4019502381
 51
273.8110226941
  0
LINE
  5
322
330
1F
100
AcDbEntity
  8
0
  6
Continuous
 62
     7
370
    25
100
AcDbLine
 10
1412.4408409493
 20
8176.4256832946
 30
0.0
 11
1361.4408400403
 21
8176.4256832946
 31
0.0
  0
LINE
  5
323
330
1F
100
AcDbEntity
  8
0
  6
Continuous
 62
     7
370
    25
100
AcDbLine
 10
1412.4408409493
 20
8174.2606041778
 30
0.0
 11
1361.4408400403
 21
8174.2606041778
 31
0.0
  0
LINE
  5
324
330
1F
100
AcDbEntity
  8
0
  6
Continuous
 62
     7
370
    25
100
AcDbLine
 10
1380.4408394294
 20
8241.1756692279
 30
0.0
 11
1380.4408394294
 21
8256.9560585368
 31
0.0
  0
LWPOLYLINE
  5
325
330
1F
100
AcDbEntity
  8
0
  6
Continuous
 62
     7
370
    25
100
AcDbPolyline
 90
       14
 70
   128
 43
0.0
 10
1393.4408396976
 20
8241.1756692279
 10
1393.2519637542
 20
8240.3979180205
 10
1392.6963031786
 20
8239.6653173316
 10
1391.8061599629
 20
8239.0205440867
 10
1390.633259763
 20
8238.5009703982
 10
1389.2457716661
 20
8238.1368754256
 10
1387.7243295806
 20
8237.9493890155
 10
1386.1573514091
 20
8237.9493890155
 10
1384.6359093236
 20
8238.1368754256
 10
1383.248419364
 20
8238.5009703982
 10
1382.0755210267
 20
8239.0205440867
 10
1381.1853759484
 20
8239.6653173316
 10
1380.6297190981
 20
8240.3979180205
 10
1380.4408394294
 20
8241.1756692279
  0
LINE
  5
326
330
1F
100
AcDbEntity
  8
0
  6
Continuous
 62
     7
370
    25
100
AcDbLine
 10
1393.4408396976
 20
8256.9560585368
 30
0.0
 11
1393.4408396976
 21
8241.1756692279
 31
0.0
  0
LWPOLYLINE
  5
327
330
1F
100
AcDbEntity
  8
0
  6
Continuous
 62
     7
370
    25
100
AcDbPolyline
 90
       14
 70
   128
 43
0.0
 10
1380.4408394294
 20
8208.1756768573
 10
1380.6297190981
 20
8208.953457867
 10
1381.1853759484
 20
8209.6860287536
 10
1382.0755210267
 20
8210.3308318007
 10
1383.248419364
 20
8210.8503756869
 10
1384.6359093236
 20
8211.2144706595
 10
1386.1573514091
 20
8211.401986872
 10
1387.7243295806
 20
8211.401986872
 10
1389.2457716661
 20
8211.2144706595
 10
1390.633259763
 20
8210.8503756869
 10
1391.8061599629
 20
8210.3308318007
 10
1392.6963031786
 20
8209.6860287536
 10
1393.2519637542
 20
8208.953457867
 10
1393.4408396976
 20
8208.1756768573
  0
LINE
  5
328
330
1F
100
AcDbEntity
  8
0
  6
Continuous
 62
     7
370
    25
100
AcDbLine
 10
1380.4408394294
 20
8184.6756813872
 30
0.0
 11
1380.4408394294
 21
8208.1756768573
 31
0.0
  0
LWPOLYLINE
  5
329
330
1F
100
AcDbEntity
  8
0
  6
Continuous
 62
     7
370
    25
100
AcDbPolyline
 90
       14
 70
   128
 43
0.0
 10
1393.4408396976
 20
8184.6756813872
 10
1393.2519637542
 20
8183.8979003776
 10
1392.6963031786
 20
8183.1653294909
 10
1391.8061599629
 20
8182.5205264438
 10
1390.633259763
 20
8182.0009825576
 10
1389.2457716661
 20
8181.636887585
 10
1387.7243295806
 20
8181.4493713725
 10
1386.1573514091
 20
8181.4493713725
 10
1384.6359093236
 20
8181.636887585
 10
1383.248419364
 20
8182.0009825576
 10
1382.0755210267
 20
8182.5205264438
 10
1381.1853759484
 20
8183.1653294909
 10
1380.6297190981
 20
8183.8979003776
 10
1380.4408394294
 20
8184.6756813872
  0
LINE
  5
32A
330
1F
100
AcDbEntity
  8
0
  6
Continuous
 62
     7
370
    25
100
AcDbLine
 10
1393.4408396976
 20
8208.1756768573
 30
0.0
 11
1393.4408396976
 21
8184.6756813872
 31
0.0
  0
LWPOLYLINE
  5
32B
330
1F
100
AcDbEntity
  8
0
  6
Continuous
 62
     7
370
    25
100
AcDbPolyline
 90
       14
 70
   128
 43
0.0
 10
1393.4408396976
 20
8206.0106275428
 10
1393.2519637542
 20
8206.7883787501
 10
1392.6963031786
 20
8207.5209794391
 10
1391.8061599629
 20
8208.1657526839
 10
1390.633259763
 20
8208.6853263724
 10
1389.2457716661
 20
8209.049421345
 10
1387.7243295806
 20
8209.2369077552
 10
1386.1573514091
 20
8209.2369077552
 10
1384.6359093236
 20
8209.049421345
 10
1383.248419364
 20
8208.6853263724
 10
1382.0755210267
 20
8208.1657526839
 10
1381.1853759484
 20
8207.5209794391
 10
1380.6297190981
 20
8206.7883787501
 10
1380.4408394294
 20
8206.0106275428
  0
LINE
  5
32C
330
1F
100
AcDbEntity
  8
0
  6
Continuous
 62
     7
370
    25
100
AcDbLine
 10
5596.9406113522
 20
8178.1577346671
 30
0.0
 11
5599.4406685727
 21
8178.1577346671
 31
0.0
  0
LINE
  5
32D
330
1F
100
AcDbEntity
  8
0
  6
Continuous
 62
     7
370
    25
100
AcDbLine
 10
5596.9406113522
 20
8178.1577346671
 30
0.0
 11
5596.9406113522
 21
8256.9560585368
 31
0.0
  0
LINE
  5
32E
330
1F
100
AcDbEntity
  8
0
  6
Continuous
 62
     7
370
    25
100
AcDbLine
 10
5599.4406685727
 20
8178.1577346671
 30
0.0
 11
5599.4406685727
 21
8256.9560585368
 31
0.0
  0
LINE
  5
32F
330
1F
100
AcDbEntity
  8
0
  6
Continuous
 62
     7
370
    25
100
AcDbLine
 10
5654.4409737485
 20
8256.5330443728
 30
0.0
 11
5656.9410309689
 21
8256.5330443728
 31
0.0
  0
LINE
  5
330
330
1F
100
AcDbEntity
  8
0
  6
Continuous
 62
     7
370
    25
100
AcDbLine
 10
5654.4409737485
 20
8256.9560585368
 30
0.0
 11
5654.4409737485
 21
8256.5330443728
 31
0.0
  0
LINE
  5
331
330
1F
100
AcDbEntity
  8
0
  6
Continuous
 62
     7
370
    25
100
AcDbLine
 10
5656.9410309689
 20
8256.9560585368
 30
0.0
 11
5656.9410309689
 21
8256.5330443728
 31
0.0
  0
LINE
  5
332
330
1F
100
AcDbEntity
  8
0
  6
Continuous
 62
     7
370
    25
100
AcDbLine
 10
5656.9410309689
 20
8191.581117903
 30
0.0
 11
5654.4409737485
 21
8191.581117903
 31
0.0
  0
LINE
  5
333
330
1F
100
AcDbEntity
  8
0
  6
Continuous
 62
     7
370
    25
100
AcDbLine
 10
5654.4409737485
 20
8178.1577346671
 30
0.0
 11
5656.9410309689
 21
8178.1577346671
 31
0.0
  0
LINE
  5
334
330
1F
100
AcDbEntity
  8
0
  6
Continuous
 62
     7
370
    25
100
AcDbLine
 10
5654.4409737485
 20
8191.581117903
 30
0.0
 11
5654.4409737485
 21
8178.1577346671
 31
0.0
  0
LINE
  5
335
330
1F
100
AcDbEntity
  8
0
  6
Continuous
 62
     7
370
    25
100
AcDbLine
 10
5656.9410309689
 20
8191.581117903
 30
0.0
 11
5656.9410309689
 21
8178.1577346671
 31
0.0
  0
LINE
  5
336
330
1F
100
AcDbEntity
  8
0
  6
Continuous
 62
     7
370
    25
100
AcDbLine
 10
5654.4409737485
 20
8191.581117903
 30
0.0
 11
5654.4409737485
 21
8256.5330443728
 31
0.0
  0
LINE
  5
337
330
1F
100
AcDbEntity
  8
0
  6
Continuous
 62
     7
370
    25
100
AcDbLine
 10
5656.9410309689
 20
8191.581117903
 30
0.0
 11
5656.9410309689
 21
8256.5330443728
 31
0.0
  0
ARC
  5
338
330
1F
100
AcDbEntity
  8
0
  6
Continuous
 62
     7
370
    25
100
AcDbCircle
 10
5652.7219226005
 20
8178.4828624157
 30
0.0
 40
4.231617123204738
100
AcDbArc
 50
266.188669734
 51
355.593451781
  0
ARC
  5
339
330
1F
100
AcDbEntity
  8
0
  6
Continuous
 62
     7
370
    25
100
AcDbCircle
 10
5652.5655453791
 20
8178.3025423595
 30
0.0
 40
1.88101058911415
100
AcDbArc
 50
266.1926245654
 51
355.5847740149
  0
LINE
  5
33A
330
1F
100
AcDbEntity
  8
0
  6
Continuous
 62
     7
370
    25
100
AcDbLine
 10
5652.4406418698
 20
8174.2606041778
 30
0.0
 11
5652.4406418698
 21
8176.4256832946
 31
0.0
  0
ARC
  5
33B
330
1F
100
AcDbEntity
  8
0
  6
Continuous
 62
     7
370
    25
100
AcDbCircle
 10
5601.3162804501
 20
8178.3027542915
 30
0.0
 40
1.88120987830974
100
AcDbArc
 50
184.4212313458
 51
273.8013700738
  0
LINE
  5
33C
330
1F
100
AcDbEntity
  8
0
  6
Continuous
 62
     7
370
    25
100
AcDbLine
 10
5601.4410004513
 20
8176.4256832946
 30
0.0
 11
5601.4410004513
 21
8174.2606041778
 31
0.0
  0
ARC
  5
33D
330
1F
100
AcDbEntity
  8
0
  6
Continuous
 62
     7
370
    25
100
AcDbCircle
 10
5601.1599670826
 20
8178.4831480682
 30
0.0
 40
4.231885709824017
100
AcDbArc
 50
184.4101469371
 51
273.8077315479
  0
LINE
  5
33E
330
1F
100
AcDbEntity
  8
0
  6
Continuous
 62
     7
370
    25
100
AcDbLine
 10
5652.4406418698
 20
8176.4256832946
 30
0.0
 11
5601.4410004513
 21
8176.4256832946
 31
0.0
  0
LINE
  5
33F
330
1F
100
AcDbEntity
  8
0
  6
Continuous
 62
     7
370
    25
100
AcDbLine
 10
5652.4406418698
 20
8174.2606041778
 30
0.0
 11
5601.4410004513
 21
8174.2606041778
 31
0.0
  0
LINE
  5
340
330
1F
100
AcDbEntity
  8
0
  6
Continuous
 62
     7
370
    25
100
AcDbLine
 10
5620.4410538571
 20
8241.1756692279
 30
0.0
 11
5620.4410538571
 21
8256.9560585368
 31
0.0
  0
LWPOLYLINE
  5
341
330
1F
100
AcDbEntity
  8
0
  6
Continuous
 62
     7
370
    25
100
AcDbPolyline
 90
       14
 70
   128
 43
0.0
 10
5633.4410653012
 20
8241.1756692279
 10
5633.2517609494
 20
8240.3979180205
 10
5632.6962456601
 20
8239.6653173316
 10
5631.8059906857
 20
8239.0205440867
 10
5630.6334481137
 20
8238.5009703982
 10
5629.2458519833
 20
8238.1368754256
 10
5627.7242646115
 20
8237.9493890155
 10
5626.1573777096
 20
8237.9493890155
 10
5624.6357903378
 20
8238.1368754256
 10
5623.2481942074
 20
8238.5009703982
 10
5622.0756516354
 20
8239.0205440867
 10
5621.1853966611
 20
8239.6653173316
 10
5620.6298813718
 20
8240.3979180205
 10
5620.4410538571
 20
8241.1756692279
  0
LINE
  5
342
330
1F
100
AcDbEntity
  8
0
  6
Continuous
 62
     7
370
    25
100
AcDbLine
 10
5633.4410653012
 20
8256.9560585368
 30
0.0
 11
5633.4410653012
 21
8241.1756692279
 31
0.0
  0
LWPOLYLINE
  5
343
330
1F
100
AcDbEntity
  8
0
  6
Continuous
 62
     7
370
    25
100
AcDbPolyline
 90
       14
 70
   128
 43
0.0
 10
5620.4410538571
 20
8208.1756768573
 10
5620.6298813718
 20
8208.953457867
 10
5621.1853966611
 20
8209.6860287536
 10
5622.0756516354
 20
8210.3308318007
 10
5623.2481942074
 20
8210.8503756869
 10
5624.6357903378
 20
8211.2144706595
 10
5626.1573777096
 20
8211.401986872
 10
5627.7242646115
 20
8211.401986872
 10
5629.2458519833
 20
8211.2144706595
 10
5630.6334481137
 20
8210.8503756869
 10
5631.8059906857
 20
8210.3308318007
 10
5632.6962456601
 20
8209.6860287536
 10
5633.2517609494
 20
8208.953457867
 10
5633.4410653012
 20
8208.1756768573
  0
LINE
  5
344
330
1F
100
AcDbEntity
  8
0
  6
Continuous
 62
     7
370
    25
100
AcDbLine
 10
5620.4410538571
 20
8184.6756813872
 30
0.0
 11
5620.4410538571
 21
8208.1756768573
 31
0.0
  0
LWPOLYLINE
  5
345
330
1F
100
AcDbEntity
  8
0
  6
Continuous
 62
     7
370
    25
100
AcDbPolyline
 90
       14
 70
   128
 43
0.0
 10
5633.4410653012
 20
8184.6756813872
 10
5633.2517609494
 20
8183.8979003776
 10
5632.6962456601
 20
8183.1653294909
 10
5631.8059906857
 20
8182.5205264438
 10
5630.6334481137
 20
8182.0009825576
 10
5629.2458519833
 20
8181.636887585
 10
5627.7242646115
 20
8181.4493713725
 10
5626.1573777096
 20
8181.4493713725
 10
5624.6357903378
 20
8181.636887585
 10
5623.2481942074
 20
8182.0009825576
 10
5622.0756516354
 20
8182.5205264438
 10
5621.1853966611
 20
8183.1653294909
 10
5620.6298813718
 20
8183.8979003776
 10
5620.4410538571
 20
8184.6756813872
  0
LINE
  5
346
330
1F
100
AcDbEntity
  8
0
  6
Continuous
 62
     7
370
    25
100
AcDbLine
 10
5633.4410653012
 20
8208.1756768573
 30
0.0
 11
5633.4410653012
 21
8184.6756813872
 31
0.0
  0
LWPOLYLINE
  5
347
330
1F
100
AcDbEntity
  8
0
  6
Continuous
 62
     7
370
    25
100
AcDbPolyline
 90
       14
 70
   128
 43
0.0
 10
5633.4410653012
 20
8206.0106275428
 10
5633.2517609494
 20
8206.7883787501
 10
5632.6962456601
 20
8207.5209794391
 10
5631.8059906857
 20
8208.1657526839
 10
5630.6334481137
 20
8208.6853263724
 10
5629.2458519833
 20
8209.049421345
 10
5627.7242646115
 20
8209.2369077552
 10
5626.1573777096
 20
8209.2369077552
 10
5624.6357903378
 20
8209.049421345
 10
5623.2481942074
 20
8208.6853263724
 10
5622.0756516354
 20
8208.1657526839
 10
5621.1853966611
 20
8207.5209794391
 10
5620.6298813718
 20
8206.7883787501
 10
5620.4410538571
 20
8206.0106275428
  0
LINE
  5
348
330
1F
100
AcDbEntity
  8
0
  6
Continuous
 62
     7
370
    25
100
AcDbLine
 10
1356.9408402341
 20
7911.9044421065
 30
0.0
 11
1356.9408402341
 21
6344.0571008075
 31
0.0
  0
LINE
  5
349
330
1F
100
AcDbEntity
  8
0
  6
Continuous
 62
     7
370
    25
100
AcDbLine
 10
1356.9408402341
 20
6344.0571008075
 30
0.0
 11
1352.4408404278
 21
6344.0571008075
 31
0.0
  0
LINE
  5
34A
330
1F
100
AcDbEntity
  8
0
  6
Continuous
 62
     7
370
    25
100
AcDbLine
 10
1296.9408415752
 20
8256.9560585368
 30
0.0
 11
1296.9408415752
 21
6344.0571008075
 31
0.0
  0
LINE
  5
34B
330
1F
100
AcDbEntity
  8
0
  6
Continuous
 62
     7
370
    25
100
AcDbLine
 10
1301.4408395188
 20
6344.0571008075
 30
0.0
 11
1296.9408415752
 21
6344.0571008075
 31
0.0
  0
LINE
  5
34C
330
1F
100
AcDbEntity
  8
0
  6
Continuous
 62
     7
370
    25
100
AcDbLine
 10
1352.4408404278
 20
6344.0571008075
 30
0.0
 11
1301.4408395188
 21
6344.0571008075
 31
0.0
  0
LINE
  5
34D
330
1F
100
AcDbEntity
  8
0
  6
Continuous
 62
     7
370
    25
100
AcDbLine
 10
5536.9406685727
 20
8256.9560585368
 30
0.0
 11
5536.9406685727
 21
6344.0571008075
 31
0.0
  0
LINE
  5
34E
330
1F
100
AcDbEntity
  8
0
  6
Continuous
 62
     7
370
    25
100
AcDbLine
 10
5541.4410576718
 20
6344.0571008075
 30
0.0
 11
5536.9406685727
 21
6344.0571008075
 31
0.0
  0
LINE
  5
34F
330
1F
100
AcDbEntity
  8
0
  6
Continuous
 62
     7
370
    25
100
AcDbLine
 10
5592.4406990903
 20
6344.0571008075
 30
0.0
 11
5541.4410576718
 21
6344.0571008075
 31
0.0
  0
LINE
  5
350
330
1F
100
AcDbEntity
  8
0
  6
Continuous
 62
     7
370
    25
100
AcDbLine
 10
5596.9406113522
 20
7911.9044421065
 30
0.0
 11
5596.9406113522
 21
6344.0571008075
 31
0.0
  0
LINE
  5
351
330
1F
100
AcDbEntity
  8
0
  6
Continuous
 62
     7
370
    25
100
AcDbLine
 10
5596.9406113522
 20
6344.0571008075
 30
0.0
 11
5592.4406990903
 21
6344.0571008075
 31
0.0
  0
LINE
  5
352
330
1F
100
AcDbEntity
  8
0
  6
Continuous
 62
     7
370
    25
100
AcDbLine
 10
3222.4408135312
 20
6344.0571008075
 30
0.0
 11
3171.4408144849
 21
6344.0571008075
 31
0.0
  0
LINE
  5
353
330
1F
100
AcDbEntity
  8
0
  6
Continuous
 62
     7
370
    25
100
AcDbLine
 10
3226.9408450024
 20
7911.9044421065
 30
0.0
 11
3226.9408450024
 21
6344.0571008075
 31
0.0
  0
LINE
  5
354
330
1F
100
AcDbEntity
  8
0
  6
Continuous
 62
     7
370
    25
100
AcDbLine
 10
3226.9408450024
 20
6344.0571008075
 30
0.0
 11
3222.4408135312
 21
6344.0571008075
 31
0.0
  0
LINE
  5
355
330
1F
100
AcDbEntity
  8
0
  6
Continuous
 62
     7
370
    25
100
AcDbLine
 10
3166.9407830136
 20
8256.9560585368
 30
0.0
 11
3166.9407830136
 21
6344.0571008075
 31
0.0
  0
LINE
  5
356
330
1F
100
AcDbEntity
  8
0
  6
Continuous
 62
     7
370
    25
100
AcDbLine
 10
3171.4408144849
 20
6344.0571008075
 30
0.0
 11
3166.9407830136
 21
6344.0571008075
 31
0.0
  0
LINE
  5
357
330
1F
100
AcDbEntity
  8
0
  6
Continuous
 62
     8
370
    25
100
AcDbLine
 10
5600.4410729306
 20
8174.358057772
 30
0.0
 11
5600.4410729306
 21
8156.4018009055
 31
0.0
  0
LINE
  5
358
330
1F
100
AcDbEntity
  8
0
  6
Continuous
 62
     8
370
    25
100
AcDbLine
 10
3230.4408297436
 20
8174.358057772
 30
0.0
 11
3230.4408297436
 21
8156.4018009055
 31
0.0
  0
LINE
  5
359
330
1F
100
AcDbEntity
  8
0
  6
Continuous
 62
     8
370
    25
100
AcDbLine
 10
1360.4408403421
 20
8174.358057772
 30
0.0
 11
1360.4408403421
 21
8156.4018009055
 31
0.0
  0
LINE
  5
35A
330
1F
100
AcDbEntity
  8
0
  6
Continuous
 62
     8
370
    25
100
AcDbLine
 10
1353.440840126
 20
8255.9154210437
 30
0.0
 11
1353.440840126
 21
8256.9560585368
 31
0.0
  0
LINE
  5
35B
330
1F
100
AcDbEntity
  8
0
  6
Continuous
 62
     8
370
    25
100
AcDbLine
 10
1360.4408403421
 20
8155.0730643619
 30
0.0
 11
1360.4408403421
 21
8104.5811055053
 31
0.0
  0
LINE
  5
35C
330
1F
100
AcDbEntity
  8
0
  6
Continuous
 62
     8
370
    25
100
AcDbLine
 10
3230.4408297436
 20
8155.0730643619
 30
0.0
 11
3230.4408297436
 21
8104.5811055053
 31
0.0
  0
LINE
  5
35D
330
1F
100
AcDbEntity
  8
0
  6
Continuous
 62
     8
370
    25
100
AcDbLine
 10
5600.4410729306
 20
8155.0730643619
 30
0.0
 11
5600.4410729306
 21
8104.5811055053
 31
0.0
  0
LINE
  5
35E
330
1F
100
AcDbEntity
  8
0
  6
Continuous
 62
     8
370
    25
100
AcDbLine
 10
5593.440626611
 20
8255.9154210437
 30
0.0
 11
5593.440626611
 21
8256.9560585368
 31
0.0
  0
LINE
  5
35F
330
1F
100
AcDbEntity
  8
0
  6
Continuous
 62
     8
370
    25
100
AcDbLine
 10
3223.4408602612
 20
8255.9154210437
 30
0.0
 11
3223.4408602612
 21
8256.9560585368
 31
0.0
  0
LINE
  5
360
330
1F
100
AcDbEntity
  8
0
  6
Continuous
 62
     8
370
    25
100
AcDbLine
 10
4701.9408688443
 20
8426.2060699809
 30
0.0
 11
4681.9408879178
 21
8426.2060699809
 31
0.0
  0
LINE
  5
361
330
1F
100
AcDbEntity
  8
0
  6
Continuous
 62
     8
370
    25
100
AcDbLine
 10
4701.9408688443
 20
8421.4250026095
 30
0.0
 11
4681.9408879178
 21
8421.4250026095
 31
0.0
  0
LINE
  5
362
330
1F
100
AcDbEntity
  8
0
  6
Continuous
 62
     8
370
    25
100
AcDbLine
 10
5876.9408211606
 20
8421.4250026095
 30
0.0
 11
5841.9409737485
 21
8421.4250026095
 31
0.0
  0
LINE
  5
363
330
1F
100
AcDbEntity
  8
0
  6
Continuous
 62
     8
370
    25
100
AcDbLine
 10
5876.9408211606
 20
8426.2060699809
 30
0.0
 11
5841.9409737485
 21
8426.2060699809
 31
0.0
  0
LINE
  5
364
330
1F
100
AcDbEntity
  8
0
  6
Continuous
 62
     8
370
    25
100
AcDbLine
 10
3541.9407830136
 20
8426.2060699809
 30
0.0
 11
3506.9409356015
 21
8426.2060699809
 31
0.0
  0
LINE
  5
365
330
1F
100
AcDbEntity
  8
0
  6
Continuous
 62
     8
370
    25
100
AcDbLine
 10
3541.9407830136
 20
8421.4250026095
 30
0.0
 11
3506.9409356015
 21
8421.4250026095
 31
0.0
  0
LINE
  5
366
330
1F
100
AcDbEntity
  8
0
  6
Continuous
 62
     8
370
    25
100
AcDbLine
 10
5876.9408211606
 20
8340.8846435893
 30
0.0
 11
5841.9409737485
 21
8340.8846435893
 31
0.0
  0
LINE
  5
367
330
1F
100
AcDbEntity
  8
0
  6
Continuous
 62
     8
370
    25
100
AcDbLine
 10
4701.9408688443
 20
8340.8846435893
 30
0.0
 11
4681.9408879178
 21
8340.8846435893
 31
0.0
  0
LINE
  5
368
330
1F
100
AcDbEntity
  8
0
  6
Continuous
 62
     8
370
    25
100
AcDbLine
 10
3541.9407830136
 20
8340.8846435893
 30
0.0
 11
3506.9409356015
 21
8340.8846435893
 31
0.0
  0
LINE
  5
369
330
1F
100
AcDbEntity
  8
0
  6
Continuous
 62
     8
370
    25
100
AcDbLine
 10
5876.9408211606
 20
8447.7060613978
 30
0.0
 11
5841.8408379452
 21
8447.7060613978
 31
0.0
  0
LINE
  5
36A
330
1F
100
AcDbEntity
  8
0
  6
Continuous
 62
     8
370
    25
100
AcDbLine
 10
4702.0407662289
 20
8447.7060613978
 30
0.0
 11
4681.8407521146
 21
8447.7060613978
 31
0.0
  0
LINE
  5
36B
330
1F
100
AcDbEntity
  8
0
  6
Continuous
 62
     8
370
    25
100
AcDbLine
 10
3542.0409188168
 20
8447.7060613978
 30
0.0
 11
3506.9409356015
 21
8447.7060613978
 31
0.0
  0
LINE
  5
36C
330
1F
100
AcDbEntity
  8
0
  6
Continuous
 62
     8
370
    25
100
AcDbLine
 10
5857.5130448239
 20
8362.4025760043
 30
0.0
 11
5846.3688835995
 21
8362.4025760043
 31
0.0
  0
LINE
  5
36D
330
1F
100
AcDbEntity
  8
0
  6
Continuous
 62
     8
370
    25
100
AcDbLine
 10
3537.5131115811
 20
8362.4025760043
 30
0.0
 11
3526.3687119382
 21
8362.4025760043
 31
0.0
  0
LINE
  5
36E
330
1F
100
AcDbEntity
  8
0
  6
Continuous
 62
     8
370
    25
100
AcDbLine
 10
4702.0407662289
 20
9163.2061181415
 30
0.0
 11
4681.8407521146
 21
9163.2061181415
 31
0.0
  0
LINE
  5
36F
330
1F
100
AcDbEntity
  8
0
  6
Continuous
 62
     8
370
    25
100
AcDbLine
 10
4702.0407662289
 20
9158.4249911654
 30
0.0
 11
4681.8407521146
 21
9158.4249911654
 31
0.0
  0
LINE
  5
370
330
1F
100
AcDbEntity
  8
0
  6
Continuous
 62
     8
370
    25
100
AcDbLine
 10
5876.9408211606
 20
9158.4249911654
 30
0.0
 11
5841.8408379452
 21
9158.4249911654
 31
0.0
  0
LINE
  5
371
330
1F
100
AcDbEntity
  8
0
  6
Continuous
 62
     8
370
    25
100
AcDbLine
 10
5876.9408211606
 20
9163.2061181415
 30
0.0
 11
5841.8408379452
 21
9163.2061181415
 31
0.0
  0
LINE
  5
372
330
1F
100
AcDbEntity
  8
0
  6
Continuous
 62
     8
370
    25
100
AcDbLine
 10
3542.0409188168
 20
9163.2061181415
 30
0.0
 11
3506.9409356015
 21
9163.2061181415
 31
0.0
  0
LINE
  5
373
330
1F
100
AcDbEntity
  8
0
  6
Continuous
 62
     8
370
    25
100
AcDbLine
 10
3542.0409188168
 20
9158.4249911654
 30
0.0
 11
3506.9409356015
 21
9158.4249911654
 31
0.0
  0
LINE
  5
374
330
1F
100
AcDbEntity
  8
0
  6
Continuous
 62
     8
370
    25
100
AcDbLine
 10
5876.9408211606
 20
9077.8845725406
 30
0.0
 11
5841.9409737485
 21
9077.8845725406
 31
0.0
  0
LINE
  5
375
330
1F
100
AcDbEntity
  8
0
  6
Continuous
 62
     8
370
    25
100
AcDbLine
 10
4701.9408688443
 20
9077.8845725406
 30
0.0
 11
4681.9408879178
 21
9077.8845725406
 31
0.0
  0
LINE
  5
376
330
1F
100
AcDbEntity
  8
0
  6
Continuous
 62
     8
370
    25
100
AcDbLine
 10
3541.9407830136
 20
9077.8845725406
 30
0.0
 11
3506.9409356015
 21
9077.8845725406
 31
0.0
  0
LINE
  5
377
330
1F
100
AcDbEntity
  8
0
  6
Continuous
 62
     8
370
    25
100
AcDbLine
 10
5876.9408211606
 20
9184.7061095584
 30
0.0
 11
5841.8408379452
 21
9184.7061095584
 31
0.0
  0
LINE
  5
378
330
1F
100
AcDbEntity
  8
0
  6
Continuous
 62
     8
370
    25
100
AcDbLine
 10
4702.0407662289
 20
9184.7061095584
 30
0.0
 11
4681.8407521146
 21
9184.7061095584
 31
0.0
  0
LINE
  5
379
330
1F
100
AcDbEntity
  8
0
  6
Continuous
 62
     8
370
    25
100
AcDbLine
 10
3542.0409188168
 20
9184.7061095584
 30
0.0
 11
3506.9409356015
 21
9184.7061095584
 31
0.0
  0
LINE
  5
37A
330
1F
100
AcDbEntity
  8
0
  6
Continuous
 62
     8
370
    25
100
AcDbLine
 10
5857.5130448239
 20
9099.4025645602
 30
0.0
 11
5846.3688835995
 21
9099.4025645602
 31
0.0
  0
LINE
  5
37B
330
1F
100
AcDbEntity
  8
0
  6
Continuous
 62
     8
370
    25
100
AcDbLine
 10
3537.5131115811
 20
9099.4025645602
 30
0.0
 11
3526.3687119382
 21
9099.4025645602
 31
0.0
  0
LINE
  5
37C
330
1F
100
AcDbEntity
  8
0
  6
Continuous
 62
     8
370
    25
100
AcDbLine
 10
2331.9408640759
 20
8426.2060699809
 30
0.0
 11
2311.9408235448
 21
8426.2060699809
 31
0.0
  0
LINE
  5
37D
330
1F
100
AcDbEntity
  8
0
  6
Continuous
 62
     8
370
    25
100
AcDbLine
 10
2331.9408640759
 20
8421.4250026095
 30
0.0
 11
2311.9408235448
 21
8421.4250026095
 31
0.0
  0
LINE
  5
37E
330
1F
100
AcDbEntity
  8
0
  6
Continuous
 62
     8
370
    25
100
AcDbLine
 10
3506.9409356015
 20
8421.4250026095
 30
0.0
 11
3471.9408497708
 21
8421.4250026095
 31
0.0
  0
LINE
  5
37F
330
1F
100
AcDbEntity
  8
0
  6
Continuous
 62
     8
370
    25
100
AcDbLine
 10
3506.9409356015
 20
8426.2060699809
 30
0.0
 11
3471.9408497708
 21
8426.2060699809
 31
0.0
  0
LINE
  5
380
330
1F
100
AcDbEntity
  8
0
  6
Continuous
 62
     8
370
    25
100
AcDbLine
 10
1171.9408378499
 20
8426.2060699809
 30
0.0
 11
1136.9408414262
 21
8426.2060699809
 31
0.0
  0
LINE
  5
381
330
1F
100
AcDbEntity
  8
0
  6
Continuous
 62
     8
370
    25
100
AcDbLine
 10
1171.9408378499
 20
8421.4250026095
 30
0.0
 11
1136.9408414262
 21
8421.4250026095
 31
0.0
  0
LINE
  5
382
330
1F
100
AcDbEntity
  8
0
  6
Continuous
 62
     8
370
    25
100
AcDbLine
 10
3506.9409356015
 20
8340.8846435893
 30
0.0
 11
3471.9408497708
 21
8340.8846435893
 31
0.0
  0
LINE
  5
383
330
1F
100
AcDbEntity
  8
0
  6
Continuous
 62
     8
370
    25
100
AcDbLine
 10
2331.9408640759
 20
8340.8846435893
 30
0.0
 11
2311.9408235448
 21
8340.8846435893
 31
0.0
  0
LINE
  5
384
330
1F
100
AcDbEntity
  8
0
  6
Continuous
 62
     8
370
    25
100
AcDbLine
 10
1171.9408378499
 20
8340.8846435893
 30
0.0
 11
1136.9408414262
 21
8340.8846435893
 31
0.0
  0
LINE
  5
385
330
1F
100
AcDbEntity
  8
0
  6
Continuous
 62
     8
370
    25
100
AcDbLine
 10
3506.9409356015
 20
8447.7060613978
 30
0.0
 11
3471.8409523862
 21
8447.7060613978
 31
0.0
  0
LINE
  5
386
330
1F
100
AcDbEntity
  8
0
  6
Continuous
 62
     8
370
    25
100
AcDbLine
 10
2332.0408210652
 20
8447.7060613978
 30
0.0
 11
2311.8408665555
 21
8447.7060613978
 31
0.0
  0
LINE
  5
387
330
1F
100
AcDbEntity
  8
0
  6
Continuous
 62
     8
370
    25
100
AcDbLine
 10
1172.0408395426
 20
8447.7060613978
 30
0.0
 11
1136.9408414262
 21
8447.7060613978
 31
0.0
  0
LINE
  5
388
330
1F
100
AcDbEntity
  8
0
  6
Continuous
 62
     8
370
    25
100
AcDbLine
 10
3487.5129208462
 20
8362.4025760043
 30
0.0
 11
3476.3687596219
 21
8362.4025760043
 31
0.0
  0
LINE
  5
389
330
1F
100
AcDbEntity
  8
0
  6
Continuous
 62
     8
370
    25
100
AcDbLine
 10
1167.5130025046
 20
8362.4025760043
 30
0.0
 11
1156.3686773675
 21
8362.4025760043
 31
0.0
  0
LINE
  5
38A
330
1F
100
AcDbEntity
  8
0
  6
Continuous
 62
     8
370
    25
100
AcDbLine
 10
2332.0408210652
 20
9163.2061181415
 30
0.0
 11
2311.8408665555
 21
9163.2061181415
 31
0.0
  0
LINE
  5
38B
330
1F
100
AcDbEntity
  8
0
  6
Continuous
 62
     8
370
    25
100
AcDbLine
 10
2332.0408210652
 20
9158.4249911654
 30
0.0
 11
2311.8408665555
 21
9158.4249911654
 31
0.0
  0
LINE
  5
38C
330
1F
100
AcDbEntity
  8
0
  6
Continuous
 62
     8
370
    25
100
AcDbLine
 10
3506.9409356015
 20
9158.4249911654
 30
0.0
 11
3471.8409523862
 21
9158.4249911654
 31
0.0
  0
LINE
  5
38D
330
1F
100
AcDbEntity
  8
0
  6
Continuous
 62
     8
370
    25
100
AcDbLine
 10
3506.9409356015
 20
9163.2061181415
 30
0.0
 11
3471.8409523862
 21
9163.2061181415
 31
0.0
  0
LINE
  5
38E
330
1F
100
AcDbEntity
  8
0
  6
Continuous
 62
     8
370
    25
100
AcDbLine
 10
1172.0408395426
 20
9163.2061181415
 30
0.0
 11
1136.9408414262
 21
9163.2061181415
 31
0.0
  0
LINE
  5
38F
330
1F
100
AcDbEntity
  8
0
  6
Continuous
 62
     8
370
    25
100
AcDbLine
 10
1172.0408395426
 20
9158.4249911654
 30
0.0
 11
1136.9408414262
 21
9158.4249911654
 31
0.0
  0
LINE
  5
390
330
1F
100
AcDbEntity
  8
0
  6
Continuous
 62
     8
370
    25
100
AcDbLine
 10
3506.9409356015
 20
9077.8845725406
 30
0.0
 11
3471.9408497708
 21
9077.8845725406
 31
0.0
  0
LINE
  5
391
330
1F
100
AcDbEntity
  8
0
  6
Continuous
 62
     8
370
    25
100
AcDbLine
 10
2331.9408640759
 20
9077.8845725406
 30
0.0
 11
2311.9408235448
 21
9077.8845725406
 31
0.0
  0
LINE
  5
392
330
1F
100
AcDbEntity
  8
0
  6
Continuous
 62
     8
370
    25
100
AcDbLine
 10
1171.9408378499
 20
9077.8845725406
 30
0.0
 11
1136.9408414262
 21
9077.8845725406
 31
0.0
  0
LINE
  5
393
330
1F
100
AcDbEntity
  8
0
  6
Continuous
 62
     8
370
    25
100
AcDbLine
 10
3506.9409356015
 20
9184.7061095584
 30
0.0
 11
3471.8409523862
 21
9184.7061095584
 31
0.0
  0
LINE
  5
394
330
1F
100
AcDbEntity
  8
0
  6
Continuous
 62
     8
370
    25
100
AcDbLine
 10
2332.0408210652
 20
9184.7061095584
 30
0.0
 11
2311.8408665555
 21
9184.7061095584
 31
0.0
  0
LINE
  5
395
330
1F
100
AcDbEntity
  8
0
  6
Continuous
 62
     8
370
    25
100
AcDbLine
 10
1172.0408395426
 20
9184.7061095584
 30
0.0
 11
1136.9408414262
 21
9184.7061095584
 31
0.0
  0
LINE
  5
396
330
1F
100
AcDbEntity
  8
0
  6
Continuous
 62
     8
370
    25
100
AcDbLine
 10
3487.5129208462
 20
9099.4025645602
 30
0.0
 11
3476.3687596219
 21
9099.4025645602
 31
0.0
  0
LINE
  5
397
330
1F
100
AcDbEntity
  8
0
  6
Continuous
 62
     8
370
    25
100
AcDbLine
 10
1167.5130025046
 20
9099.4025645602
 30
0.0
 11
1156.3686773675
 21
9099.4025645602
 31
0.0
  0
LINE
  5
398
330
1F
100
AcDbEntity
  8
0
  6
Continuous
 62
     8
370
    25
100
AcDbLine
 10
3231.4408764737
 20
8176.4256832946
 30
0.0
 11
3231.4408764737
 21
8256.9560585368
 31
0.0
  0
LINE
  5
399
330
1F
100
AcDbEntity
  8
0
  6
Continuous
 62
     8
370
    25
100
AcDbLine
 10
3282.44087552
 20
8176.4256832946
 30
0.0
 11
3282.44087552
 21
8256.9560585368
 31
0.0
  0
LINE
  5
39A
330
1F
100
AcDbEntity
  8
0
  6
Continuous
 62
     8
370
    25
100
AcDbLine
 10
1361.4408400403
 20
8176.4256832946
 30
0.0
 11
1361.4408400403
 21
8256.9560585368
 31
0.0
  0
LINE
  5
39B
330
1F
100
AcDbEntity
  8
0
  6
Continuous
 62
     8
370
    25
100
AcDbLine
 10
1412.4408409493
 20
8176.4256832946
 30
0.0
 11
1412.4408409493
 21
8256.9560585368
 31
0.0
  0
LINE
  5
39C
330
1F
100
AcDbEntity
  8
0
  6
Continuous
 62
     8
370
    25
100
AcDbLine
 10
5652.4406418698
 20
8176.4256832946
 30
0.0
 11
5652.4406418698
 21
8256.9560585368
 31
0.0
  0
LINE
  5
39D
330
1F
100
AcDbEntity
  8
0
  6
Continuous
 62
     8
370
    25
100
AcDbLine
 10
5601.4410004513
 20
8176.4256832946
 30
0.0
 11
5601.4410004513
 21
8256.9560585368
 31
0.0
  0
LINE
  5
39E
330
1F
100
AcDbEntity
  8
0
  6
Continuous
 62
     8
370
    25
100
AcDbLine
 10
1352.4408404278
 20
8030.8650014747
 30
0.0
 11
1352.4408404278
 21
6344.0571008075
 31
0.0
  0
LINE
  5
39F
330
1F
100
AcDbEntity
  8
0
  6
Continuous
 62
     8
370
    25
100
AcDbLine
 10
1301.4408395188
 20
8256.9560585368
 30
0.0
 11
1301.4408395188
 21
6344.0571008075
 31
0.0
  0
LINE
  5
3A0
330
1F
100
AcDbEntity
  8
0
  6
Continuous
 62
     8
370
    25
100
AcDbLine
 10
5541.4410576718
 20
8256.9560585368
 30
0.0
 11
5541.4410576718
 21
6344.0571008075
 31
0.0
  0
LINE
  5
3A1
330
1F
100
AcDbEntity
  8
0
  6
Continuous
 62
     8
370
    25
100
AcDbLine
 10
5592.4406990903
 20
8030.8650014747
 30
0.0
 11
5592.4406990903
 21
6344.0571008075
 31
0.0
  0
LINE
  5
3A2
330
1F
100
AcDbEntity
  8
0
  6
Continuous
 62
     8
370
    25
100
AcDbLine
 10
3171.4408144849
 20
8256.9560585368
 30
0.0
 11
3171.4408144849
 21
6344.0571008075
 31
0.0
  0
LINE
  5
3A3
330
1F
100
AcDbEntity
  8
0
  6
Continuous
 62
     8
370
    25
100
AcDbLine
 10
3222.4408135312
 20
8030.8650014747
 30
0.0
 11
3222.4408135312
 21
6344.0571008075
 31
0.0
  0
POINT
  5
3A4
330
1F
100
AcDbEntity
  8
0
  6
Continuous
 62
     7
370
     0
100
AcDbPoint
 10
3196.9408402341
 20
6344.0570769656
 30
0.0
  0
POINT
  5
3A5
330
1F
100
AcDbEntity
  8
0
  6
Continuous
 62
     7
370
     0
100
AcDbPoint
 10
1326.9408402341
 20
6344.0570769656
 30
0.0
  0
POINT
  5
3A6
330
1F
100
AcDbEntity
  8
0
  6
Continuous
 62
     7
370
     0
100
AcDbPoint
 10
5566.9408402341
 20
6344.0570769656
 30
0.0
  0
DIMENSION
  5
3A7
330
1F
100
AcDbEntity
  8
0
  6
Continuous
 62
     7
370
    18
100
AcDbDimension
  2
_D_8
 10
3196.9408402341
 20
6094.0570769656
 30
0.0
 11
2225.9932131198
 21
6094.0570769656
 31
0.0
 70
   160
  1
<>
 71
     2
 42
-1.0
  3
SLDDIMSTYLE0
100
AcDbAlignedDimension
 13
1326.9408402341
 23
6344.0570769656
 33
0.0
 14
3196.9408402341
 24
6344.0570769656
 34
0.0
 50
0.0
100
AcDbRotatedDimension
  0
DIMENSION
  5
3B1
330
1F
100
AcDbEntity
  8
0
  6
Continuous
 62
     7
370
    18
100
AcDbDimension
  2
_D_9
 10
5566.9408402341
 20
6094.0570769656
 30
0.0
 11
4482.2138657231
 21
6094.0570769656
 31
0.0
 70
   160
  1
<>
 71
     2
 42
-1.0
  3
SLDDIMSTYLE0
100
AcDbAlignedDimension
 13
3196.9408402341
 23
6344.0570769656
 33
0.0
 14
5566.9408402341
 24
6344.0570769656
 34
0.0
 50
0.0
100
AcDbRotatedDimension
  0
DIMENSION
  5
3BB
330
1F
100
AcDbEntity
  8
0
  6
Continuous
 62
     7
370
    18
100
AcDbDimension
  2
_D_10
 10
2311.940840234
 20
9681.5970942131
 30
0.0
 11
1785.5669841685
 21
9681.597094213
 31
0.0
 70
   160
  1
<>
 71
     2
 42
-1.0
  3
SLDDIMSTYLE0
100
AcDbAlignedDimension
 13
1171.940840234
 23
9348.0102685446
 33
0.0
 14
2311.940840234
 24
9348.0102685446
 34
0.0
 50
0.0
100
AcDbRotatedDimension
  0
LINE
  5
3C5
330
1F
100
AcDbEntity
  8
0
  6
Continuous
 62
     7
370
    25
100
AcDbLine
 10
5841.8408379452
 20
3319.3439765045
 30
0.0
 11
5876.9408211606
 21
3319.3439765045
 31
0.0
  0
LINE
  5
3C6
330
1F
100
AcDbEntity
  8
0
  6
Continuous
 62
     7
370
    25
100
AcDbLine
 10
3506.9409356015
 20
3319.3439765045
 30
0.0
 11
3542.0409188168
 21
3319.3439765045
 31
0.0
  0
LINE
  5
3C7
330
1F
100
AcDbEntity
  8
0
  6
Continuous
 62
     7
370
    25
100
AcDbLine
 10
4681.8407521146
 20
3319.3439765045
 30
0.0
 11
4702.0407662289
 21
3319.3439765045
 31
0.0
  0
LINE
  5
3C8
330
1F
100
AcDbEntity
  8
0
  6
Continuous
 62
     7
370
    25
100
AcDbLine
 10
5876.9408211606
 20
3410.0829882691
 30
0.0
 11
5841.8408379452
 21
3410.0829882691
 31
0.0
  0
LINE
  5
3C9
330
1F
100
AcDbEntity
  8
0
  6
Continuous
 62
     7
370
    25
100
AcDbLine
 10
4702.0407662289
 20
3410.0829882691
 30
0.0
 11
4681.8407521146
 21
3410.0829882691
 31
0.0
  0
LINE
  5
3CA
330
1F
100
AcDbEntity
  8
0
  6
Continuous
 62
     7
370
    25
100
AcDbLine
 10
3542.0409188168
 20
3410.0829882691
 30
0.0
 11
3506.9409356015
 21
3410.0829882691
 31
0.0
  0
LINE
  5
3CB
330
1F
100
AcDbEntity
  8
0
  6
Continuous
 62
     7
370
    25
100
AcDbLine
 10
5841.8408379452
 20
4595.8654208252
 30
0.0
 11
5876.9408211606
 21
4595.8654208252
 31
0.0
  0
LINE
  5
3CC
330
1F
100
AcDbEntity
  8
0
  6
Continuous
 62
     7
370
    25
100
AcDbLine
 10
3506.9409356015
 20
4595.8654208252
 30
0.0
 11
3542.0409188168
 21
4595.8654208252
 31
0.0
  0
LINE
  5
3CD
330
1F
100
AcDbEntity
  8
0
  6
Continuous
 62
     7
370
    25
100
AcDbLine
 10
4681.8407521146
 20
4595.8654208252
 30
0.0
 11
4702.0407662289
 21
4595.8654208252
 31
0.0
  0
LINE
  5
3CE
330
1F
100
AcDbEntity
  8
0
  6
Continuous
 62
     7
370
    25
100
AcDbLine
 10
5876.9408211606
 20
4686.6044325897
 30
0.0
 11
5841.8408379452
 21
4686.6044325897
 31
0.0
  0
LINE
  5
3CF
330
1F
100
AcDbEntity
  8
0
  6
Continuous
 62
     7
370
    25
100
AcDbLine
 10
4702.0407662289
 20
4686.6044325897
 30
0.0
 11
4681.8407521146
 21
4686.6044325897
 31
0.0
  0
LINE
  5
3D0
330
1F
100
AcDbEntity
  8
0
  6
Continuous
 62
     7
370
    25
100
AcDbLine
 10
3542.0409188168
 20
4686.6044325897
 30
0.0
 11
3506.9409356015
 21
4686.6044325897
 31
0.0
  0
LINE
  5
3D1
330
1F
100
AcDbEntity
  8
0
  6
Continuous
 62
     7
370
    25
100
AcDbLine
 10
3471.8409523862
 20
3319.3439765045
 30
0.0
 11
3506.9409356015
 21
3319.3439765045
 31
0.0
  0
LINE
  5
3D2
330
1F
100
AcDbEntity
  8
0
  6
Continuous
 62
     7
370
    25
100
AcDbLine
 10
1136.9408414262
 20
3319.3439765045
 30
0.0
 11
1172.0408395426
 21
3319.3439765045
 31
0.0
  0
LINE
  5
3D3
330
1F
100
AcDbEntity
  8
0
  6
Continuous
 62
     7
370
    25
100
AcDbLine
 10
2311.8408665555
 20
3319.3439765045
 30
0.0
 11
2332.0408210652
 21
3319.3439765045
 31
0.0
  0
LINE
  5
3D4
330
1F
100
AcDbEntity
  8
0
  6
Continuous
 62
     7
370
    25
100
AcDbLine
 10
3506.9409356015
 20
3410.0829882691
 30
0.0
 11
3471.8409523862
 21
3410.0829882691
 31
0.0
  0
LINE
  5
3D5
330
1F
100
AcDbEntity
  8
0
  6
Continuous
 62
     7
370
    25
100
AcDbLine
 10
2332.0408210652
 20
3410.0829882691
 30
0.0
 11
2311.8408665555
 21
3410.0829882691
 31
0.0
  0
LINE
  5
3D6
330
1F
100
AcDbEntity
  8
0
  6
Continuous
 62
     7
370
    25
100
AcDbLine
 10
1172.0408395426
 20
3410.0829882691
 30
0.0
 11
1136.9408414262
 21
3410.0829882691
 31
0.0
  0
LINE
  5
3D7
330
1F
100
AcDbEntity
  8
0
  6
Continuous
 62
     7
370
    25
100
AcDbLine
 10
3471.8409523862
 20
4595.8654208252
 30
0.0
 11
3506.9409356015
 21
4595.8654208252
 31
0.0
  0
LINE
  5
3D8
330
1F
100
AcDbEntity
  8
0
  6
Continuous
 62
     7
370
    25
100
AcDbLine
 10
1136.9408414262
 20
4595.8654208252
 30
0.0
 11
1172.0408395426
 21
4595.8654208252
 31
0.0
  0
LINE
  5
3D9
330
1F
100
AcDbEntity
  8
0
  6
Continuous
 62
     7
370
    25
100
AcDbLine
 10
2311.8408665555
 20
4595.8654208252
 30
0.0
 11
2332.0408210652
 21
4595.8654208252
 31
0.0
  0
LINE
  5
3DA
330
1F
100
AcDbEntity
  8
0
  6
Continuous
 62
     7
370
    25
100
AcDbLine
 10
3506.9409356015
 20
4686.6044325897
 30
0.0
 11
3471.8409523862
 21
4686.6044325897
 31
0.0
  0
LINE
  5
3DB
330
1F
100
AcDbEntity
  8
0
  6
Continuous
 62
     7
370
    25
100
AcDbLine
 10
2332.0408210652
 20
4686.6044325897
 30
0.0
 11
2311.8408665555
 21
4686.6044325897
 31
0.0
  0
LINE
  5
3DC
330
1F
100
AcDbEntity
  8
0
  6
Continuous
 62
     7
370
    25
100
AcDbLine
 10
1172.0408395426
 20
4686.6044325897
 30
0.0
 11
1136.9408414262
 21
4686.6044325897
 31
0.0
  0
LINE
  5
3DD
330
1F
100
AcDbEntity
  8
0
  6
Continuous
 62
     7
370
    25
100
AcDbLine
 10
1171.9408378499
 20
3007.9442782471
 30
0.0
 11
2311.9408235448
 21
3007.9442782471
 31
0.0
  0
LINE
  5
3DE
330
1F
100
AcDbEntity
  8
0
  6
Continuous
 62
     7
370
    25
100
AcDbLine
 10
1171.9408378499
 20
3254.7616286347
 30
0.0
 11
1171.9408378499
 21
3007.9442782471
 31
0.0
  0
LINE
  5
3DF
330
1F
100
AcDbEntity
  8
0
  6
Continuous
 62
     7
370
    25
100
AcDbLine
 10
1172.0408395426
 20
3254.7616286347
 30
0.0
 11
1171.9408378499
 21
3254.7616286347
 31
0.0
  0
LINE
  5
3E0
330
1F
100
AcDbEntity
  8
0
  6
Continuous
 62
     7
370
    25
100
AcDbLine
 10
1172.0408395426
 20
3254.7616286347
 30
0.0
 11
1172.0408395426
 21
3501.5787406037
 31
0.0
  0
LINE
  5
3E1
330
1F
100
AcDbEntity
  8
0
  6
Continuous
 62
     7
370
    25
100
AcDbLine
 10
1172.0408395426
 20
3501.5787406037
 30
0.0
 11
1171.9408378499
 21
3501.5787406037
 31
0.0
  0
LINE
  5
3E2
330
1F
100
AcDbEntity
  8
0
  6
Continuous
 62
     7
370
    25
100
AcDbLine
 10
1171.9408378499
 20
4488.8479037354
 30
0.0
 11
1171.9408378499
 21
3501.5787406037
 31
0.0
  0
LINE
  5
3E3
330
1F
100
AcDbEntity
  8
0
  6
Continuous
 62
     7
370
    25
100
AcDbLine
 10
1172.0408395426
 20
4488.8479037354
 30
0.0
 11
1171.9408378499
 21
4488.8479037354
 31
0.0
  0
LINE
  5
3E4
330
1F
100
AcDbEntity
  8
0
  6
Continuous
 62
     7
370
    25
100
AcDbLine
 10
1172.0408395426
 20
4488.8479037354
 30
0.0
 11
1172.0408395426
 21
4735.6650157044
 31
0.0
  0
LINE
  5
3E5
330
1F
100
AcDbEntity
  8
0
  6
Continuous
 62
     7
370
    25
100
AcDbLine
 10
1172.0408395426
 20
4735.6650157044
 30
0.0
 11
1171.9408378499
 21
4735.6650157044
 31
0.0
  0
LINE
  5
3E6
330
1F
100
AcDbEntity
  8
0
  6
Continuous
 62
     7
370
    25
100
AcDbLine
 10
1171.9408378499
 20
4982.4823660919
 30
0.0
 11
1171.9408378499
 21
4735.6650157044
 31
0.0
  0
LINE
  5
3E7
330
1F
100
AcDbEntity
  8
0
  6
Continuous
 62
     7
370
    25
100
AcDbLine
 10
2311.9408235448
 20
4982.4823660919
 30
0.0
 11
1171.9408378499
 21
4982.4823660919
 31
0.0
  0
LINE
  5
3E8
330
1F
100
AcDbEntity
  8
0
  6
Continuous
 62
     7
370
    25
100
AcDbLine
 10
2311.9408235448
 20
4735.6650157044
 30
0.0
 11
2311.9408235448
 21
4982.4823660919
 31
0.0
  0
LINE
  5
3E9
330
1F
100
AcDbEntity
  8
0
  6
Continuous
 62
     7
370
    25
100
AcDbLine
 10
2311.8408665555
 20
4735.6650157044
 30
0.0
 11
2311.9408235448
 21
4735.6650157044
 31
0.0
  0
LINE
  5
3EA
330
1F
100
AcDbEntity
  8
0
  6
Continuous
 62
     7
370
    25
100
AcDbLine
 10
2311.8408665555
 20
4488.8479037354
 30
0.0
 11
2311.8408665555
 21
4735.6650157044
 31
0.0
  0
LINE
  5
3EB
330
1F
100
AcDbEntity
  8
0
  6
Continuous
 62
     7
370
    25
100
AcDbLine
 10
2311.8408665555
 20
4488.8479037354
 30
0.0
 11
2311.9408235448
 21
4488.8479037354
 31
0.0
  0
LINE
  5
3EC
330
1F
100
AcDbEntity
  8
0
  6
Continuous
 62
     7
370
    25
100
AcDbLine
 10
2311.9408235448
 20
3501.5787406037
 30
0.0
 11
2311.9408235448
 21
4488.8479037354
 31
0.0
  0
LINE
  5
3ED
330
1F
100
AcDbEntity
  8
0
  6
Continuous
 62
     7
370
    25
100
AcDbLine
 10
2311.8408665555
 20
3501.5787406037
 30
0.0
 11
2311.9408235448
 21
3501.5787406037
 31
0.0
  0
LINE
  5
3EE
330
1F
100
AcDbEntity
  8
0
  6
Continuous
 62
     7
370
    25
100
AcDbLine
 10
2311.8408665555
 20
3254.7616286347
 30
0.0
 11
2311.8408665555
 21
3501.5787406037
 31
0.0
  0
LINE
  5
3EF
330
1F
100
AcDbEntity
  8
0
  6
Continuous
 62
     7
370
    25
100
AcDbLine
 10
2311.8408665555
 20
3254.7616286347
 30
0.0
 11
2311.9408235448
 21
3254.7616286347
 31
0.0
  0
LINE
  5
3F0
330
1F
100
AcDbEntity
  8
0
  6
Continuous
 62
     7
370
    25
100
AcDbLine
 10
2311.9408235448
 20
3007.9442782471
 30
0.0
 11
2311.9408235448
 21
3254.7616286347
 31
0.0
  0
LINE
  5
3F1
330
1F
100
AcDbEntity
  8
0
  6
Continuous
 62
     7
370
    25
100
AcDbLine
 10
1180.9408411877
 20
4974.687985904
 30
0.0
 11
2302.9408202069
 21
4974.687985904
 31
0.0
  0
LINE
  5
3F2
330
1F
100
AcDbEntity
  8
0
  6
Continuous
 62
     7
370
    25
100
AcDbLine
 10
1180.9408411877
 20
3015.7386584351
 30
0.0
 11
1180.9408411877
 21
4974.687985904
 31
0.0
  0
LINE
  5
3F3
330
1F
100
AcDbEntity
  8
0
  6
Continuous
 62
     7
370
    25
100
AcDbLine
 10
2302.9408202069
 20
3015.7386584351
 30
0.0
 11
1180.9408411877
 21
3015.7386584351
 31
0.0
  0
LINE
  5
3F4
330
1F
100
AcDbEntity
  8
0
  6
Continuous
 62
     7
370
    25
100
AcDbLine
 10
2302.9408202069
 20
4974.687985904
 30
0.0
 11
2302.9408202069
 21
3015.7386584351
 31
0.0
  0
LINE
  5
3F5
330
1F
100
AcDbEntity
  8
0
  6
Continuous
 62
     7
370
    25
100
AcDbLine
 10
1171.9408378499
 20
5002.4823470185
 30
0.0
 11
1171.9408378499
 21
4982.4823660919
 31
0.0
  0
LINE
  5
3F6
330
1F
100
AcDbEntity
  8
0
  6
Continuous
 62
     7
370
    25
100
AcDbLine
 10
2311.9408235448
 20
5002.4823470185
 30
0.0
 11
1171.9408378499
 21
5002.4823470185
 31
0.0
  0
LINE
  5
3F7
330
1F
100
AcDbEntity
  8
0
  6
Continuous
 62
     7
370
    25
100
AcDbLine
 10
2311.9408235448
 20
5002.4823470185
 30
0.0
 11
2311.9408235448
 21
4982.4823660919
 31
0.0
  0
LINE
  5
3F8
330
1F
100
AcDbEntity
  8
0
  6
Continuous
 62
     7
370
    25
100
AcDbLine
 10
2301.9408330815
 20
4974.1107745239
 30
0.0
 11
1181.9408432143
 21
4974.1107745239
 31
0.0
  0
LINE
  5
3F9
330
1F
100
AcDbEntity
  8
0
  6
Continuous
 62
     7
370
    25
100
AcDbLine
 10
1181.9408432143
 20
4974.1107745239
 30
0.0
 11
1180.9408411877
 21
4974.687985904
 31
0.0
  0
LINE
  5
3FA
330
1F
100
AcDbEntity
  8
0
  6
Continuous
 62
     7
370
    25
100
AcDbLine
 10
2302.9408202069
 20
4974.687985904
 30
0.0
 11
2301.9408330815
 21
4974.1107745239
 31
0.0
  0
LINE
  5
3FB
330
1F
100
AcDbEntity
  8
0
  6
Continuous
 62
     7
370
    25
100
AcDbLine
 10
1181.9408432143
 20
4974.1107745239
 30
0.0
 11
1181.9408432143
 21
3016.8930811951
 31
0.0
  0
LINE
  5
3FC
330
1F
100
AcDbEntity
  8
0
  6
Continuous
 62
     7
370
    25
100
AcDbLine
 10
1181.9408432143
 20
3016.8930811951
 30
0.0
 11
1180.9408411877
 21
3015.7386584351
 31
0.0
  0
LINE
  5
3FD
330
1F
100
AcDbEntity
  8
0
  6
Continuous
 62
     7
370
    25
100
AcDbLine
 10
2302.9408202069
 20
3015.7386584351
 30
0.0
 11
2301.9408330815
 21
3016.8930811951
 31
0.0
  0
LINE
  5
3FE
330
1F
100
AcDbEntity
  8
0
  6
Continuous
 62
     7
370
    25
100
AcDbLine
 10
2301.9408330815
 20
3016.8930811951
 30
0.0
 11
2301.9408330815
 21
4974.1107745239
 31
0.0
  0
LINE
  5
3FF
330
1F
100
AcDbEntity
  8
0
  6
Continuous
 62
     7
370
    25
100
AcDbLine
 10
1181.9408432143
 20
3017.3546595642
 30
0.0
 11
2301.9408330815
 21
3017.3546595642
 31
0.0
  0
LINE
  5
400
330
1F
100
AcDbEntity
  8
0
  6
Continuous
 62
     7
370
    25
100
AcDbLine
 10
1171.9408378499
 20
4508.8478846619
 30
0.0
 11
1171.9408378499
 21
4488.8479037354
 31
0.0
  0
LINE
  5
401
330
1F
100
AcDbEntity
  8
0
  6
Continuous
 62
     7
370
    25
100
AcDbLine
 10
1172.0408395426
 20
4508.8478846619
 30
0.0
 11
1171.9408378499
 21
4508.8478846619
 31
0.0
  0
LINE
  5
402
330
1F
100
AcDbEntity
  8
0
  6
Continuous
 62
     7
370
    25
100
AcDbLine
 10
2311.9408235448
 20
4508.8478846619
 30
0.0
 11
2311.9408235448
 21
4488.8479037354
 31
0.0
  0
LINE
  5
403
330
1F
100
AcDbEntity
  8
0
  6
Continuous
 62
     7
370
    25
100
AcDbLine
 10
2311.8408665555
 20
4508.8478846619
 30
0.0
 11
2311.9408235448
 21
4508.8478846619
 31
0.0
  0
LINE
  5
404
330
1F
100
AcDbEntity
  8
0
  6
Continuous
 62
     7
370
    25
100
AcDbLine
 10
1171.9408378499
 20
3274.7616095612
 30
0.0
 11
1171.9408378499
 21
3254.7616286347
 31
0.0
  0
LINE
  5
405
330
1F
100
AcDbEntity
  8
0
  6
Continuous
 62
     7
370
    25
100
AcDbLine
 10
1172.0408395426
 20
3274.7616095612
 30
0.0
 11
1171.9408378499
 21
3274.7616095612
 31
0.0
  0
LINE
  5
406
330
1F
100
AcDbEntity
  8
0
  6
Continuous
 62
     7
370
    25
100
AcDbLine
 10
2311.9408235448
 20
3274.7616095612
 30
0.0
 11
2311.9408235448
 21
3254.7616286347
 31
0.0
  0
LINE
  5
407
330
1F
100
AcDbEntity
  8
0
  6
Continuous
 62
     7
370
    25
100
AcDbLine
 10
2311.8408665555
 20
3274.7616095612
 30
0.0
 11
2311.9408235448
 21
3274.7616095612
 31
0.0
  0
LINE
  5
408
330
1F
100
AcDbEntity
  8
0
  6
Continuous
 62
     7
370
    25
100
AcDbLine
 10
1181.9408432143
 20
3016.8930811951
 30
0.0
 11
2301.9408330815
 21
3016.8930811951
 31
0.0
  0
LINE
  5
409
330
1F
100
AcDbEntity
  8
0
  6
Continuous
 62
     7
370
    25
100
AcDbLine
 10
2331.9408640759
 20
3007.9442782471
 30
0.0
 11
3471.9408497708
 21
3007.9442782471
 31
0.0
  0
LINE
  5
40A
330
1F
100
AcDbEntity
  8
0
  6
Continuous
 62
     7
370
    25
100
AcDbLine
 10
2331.9408640759
 20
3254.7616286347
 30
0.0
 11
2331.9408640759
 21
3007.9442782471
 31
0.0
  0
LINE
  5
40B
330
1F
100
AcDbEntity
  8
0
  6
Continuous
 62
     7
370
    25
100
AcDbLine
 10
2332.0408210652
 20
3254.7616286347
 30
0.0
 11
2331.9408640759
 21
3254.7616286347
 31
0.0
  0
LINE
  5
40C
330
1F
100
AcDbEntity
  8
0
  6
Continuous
 62
     7
370
    25
100
AcDbLine
 10
2332.0408210652
 20
3254.7616286347
 30
0.0
 11
2332.0408210652
 21
3501.5787406037
 31
0.0
  0
LINE
  5
40D
330
1F
100
AcDbEntity
  8
0
  6
Continuous
 62
     7
370
    25
100
AcDbLine
 10
2332.0408210652
 20
3501.5787406037
 30
0.0
 11
2331.9408640759
 21
3501.5787406037
 31
0.0
  0
LINE
  5
40E
330
1F
100
AcDbEntity
  8
0
  6
Continuous
 62
     7
370
    25
100
AcDbLine
 10
2331.9408640759
 20
4488.8479037354
 30
0.0
 11
2331.9408640759
 21
3501.5787406037
 31
0.0
  0
LINE
  5
40F
330
1F
100
AcDbEntity
  8
0
  6
Continuous
 62
     7
370
    25
100
AcDbLine
 10
2332.0408210652
 20
4488.8479037354
 30
0.0
 11
2331.9408640759
 21
4488.8479037354
 31
0.0
  0
LINE
  5
410
330
1F
100
AcDbEntity
  8
0
  6
Continuous
 62
     7
370
    25
100
AcDbLine
 10
2332.0408210652
 20
4488.8479037354
 30
0.0
 11
2332.0408210652
 21
4735.6650157044
 31
0.0
  0
LINE
  5
411
330
1F
100
AcDbEntity
  8
0
  6
Continuous
 62
     7
370
    25
100
AcDbLine
 10
2332.0408210652
 20
4735.6650157044
 30
0.0
 11
2331.9408640759
 21
4735.6650157044
 31
0.0
  0
LINE
  5
412
330
1F
100
AcDbEntity
  8
0
  6
Continuous
 62
     7
370
    25
100
AcDbLine
 10
2331.9408640759
 20
4982.4823660919
 30
0.0
 11
2331.9408640759
 21
4735.6650157044
 31
0.0
  0
LINE
  5
413
330
1F
100
AcDbEntity
  8
0
  6
Continuous
 62
     7
370
    25
100
AcDbLine
 10
3471.9408497708
 20
4982.4823660919
 30
0.0
 11
2331.9408640759
 21
4982.4823660919
 31
0.0
  0
LINE
  5
414
330
1F
100
AcDbEntity
  8
0
  6
Continuous
 62
     7
370
    25
100
AcDbLine
 10
3471.9408497708
 20
4735.6650157044
 30
0.0
 11
3471.9408497708
 21
4982.4823660919
 31
0.0
  0
LINE
  5
415
330
1F
100
AcDbEntity
  8
0
  6
Continuous
 62
     7
370
    25
100
AcDbLine
 10
3471.8409523862
 20
4735.6650157044
 30
0.0
 11
3471.9408497708
 21
4735.6650157044
 31
0.0
  0
LINE
  5
416
330
1F
100
AcDbEntity
  8
0
  6
Continuous
 62
     7
370
    25
100
AcDbLine
 10
3471.8409523862
 20
4488.8479037354
 30
0.0
 11
3471.8409523862
 21
4735.6650157044
 31
0.0
  0
LINE
  5
417
330
1F
100
AcDbEntity
  8
0
  6
Continuous
 62
     7
370
    25
100
AcDbLine
 10
3471.8409523862
 20
4488.8479037354
 30
0.0
 11
3471.9408497708
 21
4488.8479037354
 31
0.0
  0
LINE
  5
418
330
1F
100
AcDbEntity
  8
0
  6
Continuous
 62
     7
370
    25
100
AcDbLine
 10
3471.9408497708
 20
3501.5787406037
 30
0.0
 11
3471.9408497708
 21
4488.8479037354
 31
0.0
  0
LINE
  5
419
330
1F
100
AcDbEntity
  8
0
  6
Continuous
 62
     7
370
    25
100
AcDbLine
 10
3471.8409523862
 20
3501.5787406037
 30
0.0
 11
3471.9408497708
 21
3501.5787406037
 31
0.0
  0
LINE
  5
41A
330
1F
100
AcDbEntity
  8
0
  6
Continuous
 62
     7
370
    25
100
AcDbLine
 10
3471.8409523862
 20
3254.7616286347
 30
0.0
 11
3471.8409523862
 21
3501.5787406037
 31
0.0
  0
LINE
  5
41B
330
1F
100
AcDbEntity
  8
0
  6
Continuous
 62
     7
370
    25
100
AcDbLine
 10
3471.8409523862
 20
3254.7616286347
 30
0.0
 11
3471.9408497708
 21
3254.7616286347
 31
0.0
  0
LINE
  5
41C
330
1F
100
AcDbEntity
  8
0
  6
Continuous
 62
     7
370
    25
100
AcDbLine
 10
3471.9408497708
 20
3007.9442782471
 30
0.0
 11
3471.9408497708
 21
3254.7616286347
 31
0.0
  0
LINE
  5
41D
330
1F
100
AcDbEntity
  8
0
  6
Continuous
 62
     7
370
    25
100
AcDbLine
 10
2340.9408674138
 20
4974.687985904
 30
0.0
 11
3462.9407868283
 21
4974.687985904
 31
0.0
  0
LINE
  5
41E
330
1F
100
AcDbEntity
  8
0
  6
Continuous
 62
     7
370
    25
100
AcDbLine
 10
2340.9408674138
 20
3015.7386584351
 30
0.0
 11
2340.9408674138
 21
4974.687985904
 31
0.0
  0
LINE
  5
41F
330
1F
100
AcDbEntity
  8
0
  6
Continuous
 62
     7
370
    25
100
AcDbLine
 10
3462.9407868283
 20
3015.7386584351
 30
0.0
 11
2340.9408674138
 21
3015.7386584351
 31
0.0
  0
LINE
  5
420
330
1F
100
AcDbEntity
  8
0
  6
Continuous
 62
     7
370
    25
100
AcDbLine
 10
3462.9407868283
 20
4974.687985904
 30
0.0
 11
3462.9407868283
 21
3015.7386584351
 31
0.0
  0
LINE
  5
421
330
1F
100
AcDbEntity
  8
0
  6
Continuous
 62
     7
370
    25
100
AcDbLine
 10
2331.9408640759
 20
5002.4823470185
 30
0.0
 11
2331.9408640759
 21
4982.4823660919
 31
0.0
  0
LINE
  5
422
330
1F
100
AcDbEntity
  8
0
  6
Continuous
 62
     7
370
    25
100
AcDbLine
 10
3471.9408497708
 20
5002.4823470185
 30
0.0
 11
2331.9408640759
 21
5002.4823470185
 31
0.0
  0
LINE
  5
423
330
1F
100
AcDbEntity
  8
0
  6
Continuous
 62
     7
370
    25
100
AcDbLine
 10
3471.9408497708
 20
5002.4823470185
 30
0.0
 11
3471.9408497708
 21
4982.4823660919
 31
0.0
  0
LINE
  5
424
330
1F
100
AcDbEntity
  8
0
  6
Continuous
 62
     7
370
    25
100
AcDbLine
 10
3461.9408593075
 20
4974.1107745239
 30
0.0
 11
2341.9408545392
 21
4974.1107745239
 31
0.0
  0
LINE
  5
425
330
1F
100
AcDbEntity
  8
0
  6
Continuous
 62
     7
370
    25
100
AcDbLine
 10
2341.9408545392
 20
4974.1107745239
 30
0.0
 11
2340.9408674138
 21
4974.687985904
 31
0.0
  0
LINE
  5
426
330
1F
100
AcDbEntity
  8
0
  6
Continuous
 62
     7
370
    25
100
AcDbLine
 10
3462.9407868283
 20
4974.687985904
 30
0.0
 11
3461.9408593075
 21
4974.1107745239
 31
0.0
  0
LINE
  5
427
330
1F
100
AcDbEntity
  8
0
  6
Continuous
 62
     7
370
    25
100
AcDbLine
 10
2341.9408545392
 20
4974.1107745239
 30
0.0
 11
2341.9408545392
 21
3016.8930811951
 31
0.0
  0
LINE
  5
428
330
1F
100
AcDbEntity
  8
0
  6
Continuous
 62
     7
370
    25
100
AcDbLine
 10
2341.9408545392
 20
3016.8930811951
 30
0.0
 11
2340.9408674138
 21
3015.7386584351
 31
0.0
  0
LINE
  5
429
330
1F
100
AcDbEntity
  8
0
  6
Continuous
 62
     7
370
    25
100
AcDbLine
 10
3462.9407868283
 20
3015.7386584351
 30
0.0
 11
3461.9408593075
 21
3016.8930811951
 31
0.0
  0
LINE
  5
42A
330
1F
100
AcDbEntity
  8
0
  6
Continuous
 62
     7
370
    25
100
AcDbLine
 10
3461.9408593075
 20
3016.8930811951
 30
0.0
 11
3461.9408593075
 21
4974.1107745239
 31
0.0
  0
LINE
  5
42B
330
1F
100
AcDbEntity
  8
0
  6
Continuous
 62
     7
370
    25
100
AcDbLine
 10
2341.9408545392
 20
3017.3546595642
 30
0.0
 11
3461.9408593075
 21
3017.3546595642
 31
0.0
  0
LINE
  5
42C
330
1F
100
AcDbEntity
  8
0
  6
Continuous
 62
     7
370
    25
100
AcDbLine
 10
2331.9408640759
 20
4508.8478846619
 30
0.0
 11
2331.9408640759
 21
4488.8479037354
 31
0.0
  0
LINE
  5
42D
330
1F
100
AcDbEntity
  8
0
  6
Continuous
 62
     7
370
    25
100
AcDbLine
 10
2332.0408210652
 20
4508.8478846619
 30
0.0
 11
2331.9408640759
 21
4508.8478846619
 31
0.0
  0
LINE
  5
42E
330
1F
100
AcDbEntity
  8
0
  6
Continuous
 62
     7
370
    25
100
AcDbLine
 10
3471.9408497708
 20
4508.8478846619
 30
0.0
 11
3471.9408497708
 21
4488.8479037354
 31
0.0
  0
LINE
  5
42F
330
1F
100
AcDbEntity
  8
0
  6
Continuous
 62
     7
370
    25
100
AcDbLine
 10
3471.8409523862
 20
4508.8478846619
 30
0.0
 11
3471.9408497708
 21
4508.8478846619
 31
0.0
  0
LINE
  5
430
330
1F
100
AcDbEntity
  8
0
  6
Continuous
 62
     7
370
    25
100
AcDbLine
 10
2331.9408640759
 20
3274.7616095612
 30
0.0
 11
2331.9408640759
 21
3254.7616286347
 31
0.0
  0
LINE
  5
431
330
1F
100
AcDbEntity
  8
0
  6
Continuous
 62
     7
370
    25
100
AcDbLine
 10
2332.0408210652
 20
3274.7616095612
 30
0.0
 11
2331.9408640759
 21
3274.7616095612
 31
0.0
  0
LINE
  5
432
330
1F
100
AcDbEntity
  8
0
  6
Continuous
 62
     7
370
    25
100
AcDbLine
 10
3471.9408497708
 20
3274.7616095612
 30
0.0
 11
3471.9408497708
 21
3254.7616286347
 31
0.0
  0
LINE
  5
433
330
1F
100
AcDbEntity
  8
0
  6
Continuous
 62
     7
370
    25
100
AcDbLine
 10
3471.8409523862
 20
3274.7616095612
 30
0.0
 11
3471.9408497708
 21
3274.7616095612
 31
0.0
  0
LINE
  5
434
330
1F
100
AcDbEntity
  8
0
  6
Continuous
 62
     7
370
    25
100
AcDbLine
 10
2341.9408545392
 20
3016.8930811951
 30
0.0
 11
3461.9408593075
 21
3016.8930811951
 31
0.0
  0
LINE
  5
435
330
1F
100
AcDbEntity
  8
0
  6
Continuous
 62
     7
370
    25
100
AcDbLine
 10
3541.9407830136
 20
3007.9442782471
 30
0.0
 11
4681.9408879178
 21
3007.9442782471
 31
0.0
  0
LINE
  5
436
330
1F
100
AcDbEntity
  8
0
  6
Continuous
 62
     7
370
    25
100
AcDbLine
 10
3541.9407830136
 20
3254.7616286347
 30
0.0
 11
3541.9407830136
 21
3007.9442782471
 31
0.0
  0
LINE
  5
437
330
1F
100
AcDbEntity
  8
0
  6
Continuous
 62
     7
370
    25
100
AcDbLine
 10
3542.0409188168
 20
3254.7616286347
 30
0.0
 11
3541.9407830136
 21
3254.7616286347
 31
0.0
  0
LINE
  5
438
330
1F
100
AcDbEntity
  8
0
  6
Continuous
 62
     7
370
    25
100
AcDbLine
 10
3542.0409188168
 20
3254.7616286347
 30
0.0
 11
3542.0409188168
 21
3501.5787406037
 31
0.0
  0
LINE
  5
439
330
1F
100
AcDbEntity
  8
0
  6
Continuous
 62
     7
370
    25
100
AcDbLine
 10
3542.0409188168
 20
3501.5787406037
 30
0.0
 11
3541.9407830136
 21
3501.5787406037
 31
0.0
  0
LINE
  5
43A
330
1F
100
AcDbEntity
  8
0
  6
Continuous
 62
     7
370
    25
100
AcDbLine
 10
3541.9407830136
 20
4488.8479037354
 30
0.0
 11
3541.9407830136
 21
3501.5787406037
 31
0.0
  0
LINE
  5
43B
330
1F
100
AcDbEntity
  8
0
  6
Continuous
 62
     7
370
    25
100
AcDbLine
 10
3542.0409188168
 20
4488.8479037354
 30
0.0
 11
3541.9407830136
 21
4488.8479037354
 31
0.0
  0
LINE
  5
43C
330
1F
100
AcDbEntity
  8
0
  6
Continuous
 62
     7
370
    25
100
AcDbLine
 10
3542.0409188168
 20
4488.8479037354
 30
0.0
 11
3542.0409188168
 21
4735.6650157044
 31
0.0
  0
LINE
  5
43D
330
1F
100
AcDbEntity
  8
0
  6
Continuous
 62
     7
370
    25
100
AcDbLine
 10
3542.0409188168
 20
4735.6650157044
 30
0.0
 11
3541.9407830136
 21
4735.6650157044
 31
0.0
  0
LINE
  5
43E
330
1F
100
AcDbEntity
  8
0
  6
Continuous
 62
     7
370
    25
100
AcDbLine
 10
3541.9407830136
 20
4982.4823660919
 30
0.0
 11
3541.9407830136
 21
4735.6650157044
 31
0.0
  0
LINE
  5
43F
330
1F
100
AcDbEntity
  8
0
  6
Continuous
 62
     7
370
    25
100
AcDbLine
 10
4681.9408879178
 20
4982.4823660919
 30
0.0
 11
3541.9407830136
 21
4982.4823660919
 31
0.0
  0
LINE
  5
440
330
1F
100
AcDbEntity
  8
0
  6
Continuous
 62
     7
370
    25
100
AcDbLine
 10
4681.9408879178
 20
4735.6650157044
 30
0.0
 11
4681.9408879178
 21
4982.4823660919
 31
0.0
  0
LINE
  5
441
330
1F
100
AcDbEntity
  8
0
  6
Continuous
 62
     7
370
    25
100
AcDbLine
 10
4681.8407521146
 20
4735.6650157044
 30
0.0
 11
4681.9408879178
 21
4735.6650157044
 31
0.0
  0
LINE
  5
442
330
1F
100
AcDbEntity
  8
0
  6
Continuous
 62
     7
370
    25
100
AcDbLine
 10
4681.8407521146
 20
4488.8479037354
 30
0.0
 11
4681.8407521146
 21
4735.6650157044
 31
0.0
  0
LINE
  5
443
330
1F
100
AcDbEntity
  8
0
  6
Continuous
 62
     7
370
    25
100
AcDbLine
 10
4681.8407521146
 20
4488.8479037354
 30
0.0
 11
4681.9408879178
 21
4488.8479037354
 31
0.0
  0
LINE
  5
444
330
1F
100
AcDbEntity
  8
0
  6
Continuous
 62
     7
370
    25
100
AcDbLine
 10
4681.9408879178
 20
3501.5787406037
 30
0.0
 11
4681.9408879178
 21
4488.8479037354
 31
0.0
  0
LINE
  5
445
330
1F
100
AcDbEntity
  8
0
  6
Continuous
 62
     7
370
    25
100
AcDbLine
 10
4681.8407521146
 20
3501.5787406037
 30
0.0
 11
4681.9408879178
 21
3501.5787406037
 31
0.0
  0
LINE
  5
446
330
1F
100
AcDbEntity
  8
0
  6
Continuous
 62
     7
370
    25
100
AcDbLine
 10
4681.8407521146
 20
3254.7616286347
 30
0.0
 11
4681.8407521146
 21
3501.5787406037
 31
0.0
  0
LINE
  5
447
330
1F
100
AcDbEntity
  8
0
  6
Continuous
 62
     7
370
    25
100
AcDbLine
 10
4681.8407521146
 20
3254.7616286347
 30
0.0
 11
4681.9408879178
 21
3254.7616286347
 31
0.0
  0
LINE
  5
448
330
1F
100
AcDbEntity
  8
0
  6
Continuous
 62
     7
370
    25
100
AcDbLine
 10
4681.9408879178
 20
3007.9442782471
 30
0.0
 11
4681.9408879178
 21
3254.7616286347
 31
0.0
  0
LINE
  5
449
330
1F
100
AcDbEntity
  8
0
  6
Continuous
 62
     7
370
    25
100
AcDbLine
 10
3550.9408459561
 20
4974.687985904
 30
0.0
 11
4672.9408249753
 21
4974.687985904
 31
0.0
  0
LINE
  5
44A
330
1F
100
AcDbEntity
  8
0
  6
Continuous
 62
     7
370
    25
100
AcDbLine
 10
3550.9408459561
 20
3015.7386584351
 30
0.0
 11
3550.9408459561
 21
4974.687985904
 31
0.0
  0
LINE
  5
44B
330
1F
100
AcDbEntity
  8
0
  6
Continuous
 62
     7
370
    25
100
AcDbLine
 10
4672.9408249753
 20
3015.7386584351
 30
0.0
 11
3550.9408459561
 21
3015.7386584351
 31
0.0
  0
LINE
  5
44C
330
1F
100
AcDbEntity
  8
0
  6
Continuous
 62
     7
370
    25
100
AcDbLine
 10
4672.9408249753
 20
4974.687985904
 30
0.0
 11
4672.9408249753
 21
3015.7386584351
 31
0.0
  0
LINE
  5
44D
330
1F
100
AcDbEntity
  8
0
  6
Continuous
 62
     7
370
    25
100
AcDbLine
 10
3541.9407830136
 20
5002.4823470185
 30
0.0
 11
3541.9407830136
 21
4982.4823660919
 31
0.0
  0
LINE
  5
44E
330
1F
100
AcDbEntity
  8
0
  6
Continuous
 62
     7
370
    25
100
AcDbLine
 10
4681.9408879178
 20
5002.4823470185
 30
0.0
 11
3541.9407830136
 21
5002.4823470185
 31
0.0
  0
LINE
  5
44F
330
1F
100
AcDbEntity
  8
0
  6
Continuous
 62
     7
370
    25
100
AcDbLine
 10
4681.9408879178
 20
5002.4823470185
 30
0.0
 11
4681.9408879178
 21
4982.4823660919
 31
0.0
  0
LINE
  5
450
330
1F
100
AcDbEntity
  8
0
  6
Continuous
 62
     7
370
    25
100
AcDbLine
 10
4671.9408974545
 20
4974.1107745239
 30
0.0
 11
3551.9407734769
 21
4974.1107745239
 31
0.0
  0
LINE
  5
451
330
1F
100
AcDbEntity
  8
0
  6
Continuous
 62
     7
370
    25
100
AcDbLine
 10
3551.9407734769
 20
4974.1107745239
 30
0.0
 11
3550.9408459561
 21
4974.687985904
 31
0.0
  0
LINE
  5
452
330
1F
100
AcDbEntity
  8
0
  6
Continuous
 62
     7
370
    25
100
AcDbLine
 10
4672.9408249753
 20
4974.687985904
 30
0.0
 11
4671.9408974545
 21
4974.1107745239
 31
0.0
  0
LINE
  5
453
330
1F
100
AcDbEntity
  8
0
  6
Continuous
 62
     7
370
    25
100
AcDbLine
 10
3551.9407734769
 20
4974.1107745239
 30
0.0
 11
3551.9407734769
 21
3016.8930811951
 31
0.0
  0
LINE
  5
454
330
1F
100
AcDbEntity
  8
0
  6
Continuous
 62
     7
370
    25
100
AcDbLine
 10
3551.9407734769
 20
3016.8930811951
 30
0.0
 11
3550.9408459561
 21
3015.7386584351
 31
0.0
  0
LINE
  5
455
330
1F
100
AcDbEntity
  8
0
  6
Continuous
 62
     7
370
    25
100
AcDbLine
 10
4672.9408249753
 20
3015.7386584351
 30
0.0
 11
4671.9408974545
 21
3016.8930811951
 31
0.0
  0
LINE
  5
456
330
1F
100
AcDbEntity
  8
0
  6
Continuous
 62
     7
370
    25
100
AcDbLine
 10
4671.9408974545
 20
3016.8930811951
 30
0.0
 11
4671.9408974545
 21
4974.1107745239
 31
0.0
  0
LINE
  5
457
330
1F
100
AcDbEntity
  8
0
  6
Continuous
 62
     7
370
    25
100
AcDbLine
 10
3551.9407734769
 20
3017.3546595642
 30
0.0
 11
4671.9408974545
 21
3017.3546595642
 31
0.0
  0
LINE
  5
458
330
1F
100
AcDbEntity
  8
0
  6
Continuous
 62
     7
370
    25
100
AcDbLine
 10
3541.9407830136
 20
4508.8478846619
 30
0.0
 11
3541.9407830136
 21
4488.8479037354
 31
0.0
  0
LINE
  5
459
330
1F
100
AcDbEntity
  8
0
  6
Continuous
 62
     7
370
    25
100
AcDbLine
 10
3542.0409188168
 20
4508.8478846619
 30
0.0
 11
3541.9407830136
 21
4508.8478846619
 31
0.0
  0
LINE
  5
45A
330
1F
100
AcDbEntity
  8
0
  6
Continuous
 62
     7
370
    25
100
AcDbLine
 10
4681.9408879178
 20
4508.8478846619
 30
0.0
 11
4681.9408879178
 21
4488.8479037354
 31
0.0
  0
LINE
  5
45B
330
1F
100
AcDbEntity
  8
0
  6
Continuous
 62
     7
370
    25
100
AcDbLine
 10
4681.8407521146
 20
4508.8478846619
 30
0.0
 11
4681.9408879178
 21
4508.8478846619
 31
0.0
  0
LINE
  5
45C
330
1F
100
AcDbEntity
  8
0
  6
Continuous
 62
     7
370
    25
100
AcDbLine
 10
3541.9407830136
 20
3274.7616095612
 30
0.0
 11
3541.9407830136
 21
3254.7616286347
 31
0.0
  0
LINE
  5
45D
330
1F
100
AcDbEntity
  8
0
  6
Continuous
 62
     7
370
    25
100
AcDbLine
 10
3542.0409188168
 20
3274.7616095612
 30
0.0
 11
3541.9407830136
 21
3274.7616095612
 31
0.0
  0
LINE
  5
45E
330
1F
100
AcDbEntity
  8
0
  6
Continuous
 62
     7
370
    25
100
AcDbLine
 10
4681.9408879178
 20
3274.7616095612
 30
0.0
 11
4681.9408879178
 21
3254.7616286347
 31
0.0
  0
LINE
  5
45F
330
1F
100
AcDbEntity
  8
0
  6
Continuous
 62
     7
370
    25
100
AcDbLine
 10
4681.8407521146
 20
3274.7616095612
 30
0.0
 11
4681.9408879178
 21
3274.7616095612
 31
0.0
  0
LINE
  5
460
330
1F
100
AcDbEntity
  8
0
  6
Continuous
 62
     7
370
    25
100
AcDbLine
 10
3551.9407734769
 20
3016.8930811951
 30
0.0
 11
4671.9408974545
 21
3016.8930811951
 31
0.0
  0
LINE
  5
461
330
1F
100
AcDbEntity
  8
0
  6
Continuous
 62
     7
370
    25
100
AcDbLine
 10
4701.9408688443
 20
3007.9442782471
 30
0.0
 11
5841.9409737485
 21
3007.9442782471
 31
0.0
  0
LINE
  5
462
330
1F
100
AcDbEntity
  8
0
  6
Continuous
 62
     7
370
    25
100
AcDbLine
 10
4701.9408688443
 20
3254.7616286347
 30
0.0
 11
4701.9408688443
 21
3007.9442782471
 31
0.0
  0
LINE
  5
463
330
1F
100
AcDbEntity
  8
0
  6
Continuous
 62
     7
370
    25
100
AcDbLine
 10
4702.0407662289
 20
3254.7616286347
 30
0.0
 11
4701.9408688443
 21
3254.7616286347
 31
0.0
  0
LINE
  5
464
330
1F
100
AcDbEntity
  8
0
  6
Continuous
 62
     7
370
    25
100
AcDbLine
 10
4702.0407662289
 20
3254.7616286347
 30
0.0
 11
4702.0407662289
 21
3501.5787406037
 31
0.0
  0
LINE
  5
465
330
1F
100
AcDbEntity
  8
0
  6
Continuous
 62
     7
370
    25
100
AcDbLine
 10
4702.0407662289
 20
3501.5787406037
 30
0.0
 11
4701.9408688443
 21
3501.5787406037
 31
0.0
  0
LINE
  5
466
330
1F
100
AcDbEntity
  8
0
  6
Continuous
 62
     7
370
    25
100
AcDbLine
 10
4701.9408688443
 20
4488.8479037354
 30
0.0
 11
4701.9408688443
 21
3501.5787406037
 31
0.0
  0
LINE
  5
467
330
1F
100
AcDbEntity
  8
0
  6
Continuous
 62
     7
370
    25
100
AcDbLine
 10
4702.0407662289
 20
4488.8479037354
 30
0.0
 11
4701.9408688443
 21
4488.8479037354
 31
0.0
  0
LINE
  5
468
330
1F
100
AcDbEntity
  8
0
  6
Continuous
 62
     7
370
    25
100
AcDbLine
 10
4702.0407662289
 20
4488.8479037354
 30
0.0
 11
4702.0407662289
 21
4735.6650157044
 31
0.0
  0
LINE
  5
469
330
1F
100
AcDbEntity
  8
0
  6
Continuous
 62
     7
370
    25
100
AcDbLine
 10
4702.0407662289
 20
4735.6650157044
 30
0.0
 11
4701.9408688443
 21
4735.6650157044
 31
0.0
  0
LINE
  5
46A
330
1F
100
AcDbEntity
  8
0
  6
Continuous
 62
     7
370
    25
100
AcDbLine
 10
4701.9408688443
 20
4982.4823660919
 30
0.0
 11
4701.9408688443
 21
4735.6650157044
 31
0.0
  0
LINE
  5
46B
330
1F
100
AcDbEntity
  8
0
  6
Continuous
 62
     7
370
    25
100
AcDbLine
 10
5841.9409737485
 20
4982.4823660919
 30
0.0
 11
4701.9408688443
 21
4982.4823660919
 31
0.0
  0
LINE
  5
46C
330
1F
100
AcDbEntity
  8
0
  6
Continuous
 62
     7
370
    25
100
AcDbLine
 10
5841.9409737485
 20
4735.6650157044
 30
0.0
 11
5841.9409737485
 21
4982.4823660919
 31
0.0
  0
LINE
  5
46D
330
1F
100
AcDbEntity
  8
0
  6
Continuous
 62
     7
370
    25
100
AcDbLine
 10
5841.8408379452
 20
4735.6650157044
 30
0.0
 11
5841.9409737485
 21
4735.6650157044
 31
0.0
  0
LINE
  5
46E
330
1F
100
AcDbEntity
  8
0
  6
Continuous
 62
     7
370
    25
100
AcDbLine
 10
5841.8408379452
 20
4488.8479037354
 30
0.0
 11
5841.8408379452
 21
4735.6650157044
 31
0.0
  0
LINE
  5
46F
330
1F
100
AcDbEntity
  8
0
  6
Continuous
 62
     7
370
    25
100
AcDbLine
 10
5841.8408379452
 20
4488.8479037354
 30
0.0
 11
5841.9409737485
 21
4488.8479037354
 31
0.0
  0
LINE
  5
470
330
1F
100
AcDbEntity
  8
0
  6
Continuous
 62
     7
370
    25
100
AcDbLine
 10
5841.9409737485
 20
3501.5787406037
 30
0.0
 11
5841.9409737485
 21
4488.8479037354
 31
0.0
  0
LINE
  5
471
330
1F
100
AcDbEntity
  8
0
  6
Continuous
 62
     7
370
    25
100
AcDbLine
 10
5841.8408379452
 20
3501.5787406037
 30
0.0
 11
5841.9409737485
 21
3501.5787406037
 31
0.0
  0
LINE
  5
472
330
1F
100
AcDbEntity
  8
0
  6
Continuous
 62
     7
370
    25
100
AcDbLine
 10
5841.8408379452
 20
3254.7616286347
 30
0.0
 11
5841.8408379452
 21
3501.5787406037
 31
0.0
  0
LINE
  5
473
330
1F
100
AcDbEntity
  8
0
  6
Continuous
 62
     7
370
    25
100
AcDbLine
 10
5841.8408379452
 20
3254.7616286347
 30
0.0
 11
5841.9409737485
 21
3254.7616286347
 31
0.0
  0
LINE
  5
474
330
1F
100
AcDbEntity
  8
0
  6
Continuous
 62
     7
370
    25
100
AcDbLine
 10
5841.9409737485
 20
3007.9442782471
 30
0.0
 11
5841.9409737485
 21
3254.7616286347
 31
0.0
  0
LINE
  5
475
330
1F
100
AcDbEntity
  8
0
  6
Continuous
 62
     7
370
    25
100
AcDbLine
 10
4710.9409317868
 20
4974.687985904
 30
0.0
 11
5832.9406723874
 21
4974.687985904
 31
0.0
  0
LINE
  5
476
330
1F
100
AcDbEntity
  8
0
  6
Continuous
 62
     7
370
    25
100
AcDbLine
 10
4710.9409317868
 20
3015.7386584351
 30
0.0
 11
4710.9409317868
 21
4974.687985904
 31
0.0
  0
LINE
  5
477
330
1F
100
AcDbEntity
  8
0
  6
Continuous
 62
     7
370
    25
100
AcDbLine
 10
5832.9406723874
 20
3015.7386584351
 30
0.0
 11
4710.9409317868
 21
3015.7386584351
 31
0.0
  0
LINE
  5
478
330
1F
100
AcDbEntity
  8
0
  6
Continuous
 62
     7
370
    25
100
AcDbLine
 10
5832.9406723874
 20
4974.687985904
 30
0.0
 11
5832.9406723874
 21
3015.7386584351
 31
0.0
  0
LINE
  5
479
330
1F
100
AcDbEntity
  8
0
  6
Continuous
 62
     7
370
    25
100
AcDbLine
 10
4701.9408688443
 20
5002.4823470185
 30
0.0
 11
4701.9408688443
 21
4982.4823660919
 31
0.0
  0
LINE
  5
47A
330
1F
100
AcDbEntity
  8
0
  6
Continuous
 62
     7
370
    25
100
AcDbLine
 10
5841.9409737485
 20
5002.4823470185
 30
0.0
 11
4701.9408688443
 21
5002.4823470185
 31
0.0
  0
LINE
  5
47B
330
1F
100
AcDbEntity
  8
0
  6
Continuous
 62
     7
370
    25
100
AcDbLine
 10
5841.9409737485
 20
5002.4823470185
 30
0.0
 11
5841.9409737485
 21
4982.4823660919
 31
0.0
  0
LINE
  5
47C
330
1F
100
AcDbEntity
  8
0
  6
Continuous
 62
     7
370
    25
100
AcDbLine
 10
5831.9407448666
 20
4974.1107745239
 30
0.0
 11
4711.9408593075
 21
4974.1107745239
 31
0.0
  0
LINE
  5
47D
330
1F
100
AcDbEntity
  8
0
  6
Continuous
 62
     7
370
    25
100
AcDbLine
 10
4711.9408593075
 20
4974.1107745239
 30
0.0
 11
4710.9409317868
 21
4974.687985904
 31
0.0
  0
LINE
  5
47E
330
1F
100
AcDbEntity
  8
0
  6
Continuous
 62
     7
370
    25
100
AcDbLine
 10
5832.9406723874
 20
4974.687985904
 30
0.0
 11
5831.9407448666
 21
4974.1107745239
 31
0.0
  0
LINE
  5
47F
330
1F
100
AcDbEntity
  8
0
  6
Continuous
 62
     7
370
    25
100
AcDbLine
 10
4711.9408593075
 20
4974.1107745239
 30
0.0
 11
4711.9408593075
 21
3016.8930811951
 31
0.0
  0
LINE
  5
480
330
1F
100
AcDbEntity
  8
0
  6
Continuous
 62
     7
370
    25
100
AcDbLine
 10
4711.9408593075
 20
3016.8930811951
 30
0.0
 11
4710.9409317868
 21
3015.7386584351
 31
0.0
  0
LINE
  5
481
330
1F
100
AcDbEntity
  8
0
  6
Continuous
 62
     7
370
    25
100
AcDbLine
 10
5832.9406723874
 20
3015.7386584351
 30
0.0
 11
5831.9407448666
 21
3016.8930811951
 31
0.0
  0
LINE
  5
482
330
1F
100
AcDbEntity
  8
0
  6
Continuous
 62
     7
370
    25
100
AcDbLine
 10
5831.9407448666
 20
3016.8930811951
 30
0.0
 11
5831.9407448666
 21
4974.1107745239
 31
0.0
  0
LINE
  5
483
330
1F
100
AcDbEntity
  8
0
  6
Continuous
 62
     7
370
    25
100
AcDbLine
 10
4711.9408593075
 20
3017.3546595642
 30
0.0
 11
5831.9407448666
 21
3017.3546595642
 31
0.0
  0
LINE
  5
484
330
1F
100
AcDbEntity
  8
0
  6
Continuous
 62
     7
370
    25
100
AcDbLine
 10
4701.9408688443
 20
4508.8478846619
 30
0.0
 11
4701.9408688443
 21
4488.8479037354
 31
0.0
  0
LINE
  5
485
330
1F
100
AcDbEntity
  8
0
  6
Continuous
 62
     7
370
    25
100
AcDbLine
 10
4702.0407662289
 20
4508.8478846619
 30
0.0
 11
4701.9408688443
 21
4508.8478846619
 31
0.0
  0
LINE
  5
486
330
1F
100
AcDbEntity
  8
0
  6
Continuous
 62
     7
370
    25
100
AcDbLine
 10
5841.9409737485
 20
4508.8478846619
 30
0.0
 11
5841.9409737485
 21
4488.8479037354
 31
0.0
  0
LINE
  5
487
330
1F
100
AcDbEntity
  8
0
  6
Continuous
 62
     7
370
    25
100
AcDbLine
 10
5841.8408379452
 20
4508.8478846619
 30
0.0
 11
5841.9409737485
 21
4508.8478846619
 31
0.0
  0
LINE
  5
488
330
1F
100
AcDbEntity
  8
0
  6
Continuous
 62
     7
370
    25
100
AcDbLine
 10
4701.9408688443
 20
3274.7616095612
 30
0.0
 11
4701.9408688443
 21
3254.7616286347
 31
0.0
  0
LINE
  5
489
330
1F
100
AcDbEntity
  8
0
  6
Continuous
 62
     7
370
    25
100
AcDbLine
 10
4702.0407662289
 20
3274.7616095612
 30
0.0
 11
4701.9408688443
 21
3274.7616095612
 31
0.0
  0
LINE
  5
48A
330
1F
100
AcDbEntity
  8
0
  6
Continuous
 62
     7
370
    25
100
AcDbLine
 10
5841.9409737485
 20
3274.7616095612
 30
0.0
 11
5841.9409737485
 21
3254.7616286347
 31
0.0
  0
LINE
  5
48B
330
1F
100
AcDbEntity
  8
0
  6
Continuous
 62
     7
370
    25
100
AcDbLine
 10
5841.8408379452
 20
3274.7616095612
 30
0.0
 11
5841.9409737485
 21
3274.7616095612
 31
0.0
  0
LINE
  5
48C
330
1F
100
AcDbEntity
  8
0
  6
Continuous
 62
     7
370
    25
100
AcDbLine
 10
4711.9408593075
 20
3016.8930811951
 30
0.0
 11
5831.9407448666
 21
3016.8930811951
 31
0.0
  0
LINE
  5
48D
330
1F
100
AcDbEntity
  8
0
  6
Continuous
 62
     7
370
    25
100
AcDbLine
 10
5876.9408211606
 20
3358.3330435822
 30
0.0
 11
5876.9408211606
 21
3363.1140513489
 31
0.0
  0
LINE
  5
48E
330
1F
100
AcDbEntity
  8
0
  6
Continuous
 62
     7
370
    25
100
AcDbLine
 10
3506.9409356015
 20
3358.3330435822
 30
0.0
 11
3506.9409356015
 21
3363.1140513489
 31
0.0
  0
LINE
  5
48F
330
1F
100
AcDbEntity
  8
0
  6
Continuous
 62
     7
370
    25
100
AcDbLine
 10
3506.9409356015
 20
3321.0939688751
 30
0.0
 11
3506.9409356015
 21
3358.3330435822
 31
0.0
  0
LINE
  5
490
330
1F
100
AcDbEntity
  8
0
  6
Continuous
 62
     7
370
    25
100
AcDbLine
 10
5876.9408211606
 20
3321.0939688751
 30
0.0
 11
5876.9408211606
 21
3358.3330435822
 31
0.0
  0
LINE
  5
491
330
1F
100
AcDbEntity
  8
0
  6
Continuous
 62
     7
370
    25
100
AcDbLine
 10
4681.8407521146
 20
3334.0844435761
 30
0.0
 11
4702.0407662289
 21
3334.0844435761
 31
0.0
  0
LINE
  5
492
330
1F
100
AcDbEntity
  8
0
  6
Continuous
 62
     7
370
    25
100
AcDbLine
 10
4702.0407662289
 20
3345.3425688812
 30
0.0
 11
4681.8407521146
 21
3345.3425688812
 31
0.0
  0
LINE
  5
493
330
1F
100
AcDbEntity
  8
0
  6
Continuous
 62
     7
370
    25
100
AcDbLine
 10
5876.9408211606
 20
3371.3640494415
 30
0.0
 11
5841.8408379452
 21
3371.3640494415
 31
0.0
  0
LINE
  5
494
330
1F
100
AcDbEntity
  8
0
  6
Continuous
 62
     7
370
    25
100
AcDbLine
 10
4702.0407662289
 20
3371.3640494415
 30
0.0
 11
4681.8407521146
 21
3371.3640494415
 31
0.0
  0
LINE
  5
495
330
1F
100
AcDbEntity
  8
0
  6
Continuous
 62
     7
370
    25
100
AcDbLine
 10
3542.0409188168
 20
3371.3640494415
 30
0.0
 11
3506.9409356015
 21
3371.3640494415
 31
0.0
  0
LINE
  5
496
330
1F
100
AcDbEntity
  8
0
  6
Continuous
 62
     7
370
    25
100
AcDbLine
 10
5876.9408211606
 20
3363.1140513489
 30
0.0
 11
5876.9408211606
 21
3371.3640494415
 31
0.0
  0
LINE
  5
497
330
1F
100
AcDbEntity
  8
0
  6
Continuous
 62
     7
370
    25
100
AcDbLine
 10
3506.9409356015
 20
3363.1140513489
 30
0.0
 11
3506.9409356015
 21
3371.3640494415
 31
0.0
  0
LINE
  5
498
330
1F
100
AcDbEntity
  8
0
  6
Continuous
 62
     7
370
    25
100
AcDbLine
 10
4681.8407521146
 20
3334.8342700073
 30
0.0
 11
4702.0407662289
 21
3334.8342700073
 31
0.0
  0
LINE
  5
499
330
1F
100
AcDbEntity
  8
0
  6
Continuous
 62
     7
370
    25
100
AcDbLine
 10
5876.9408211606
 20
3321.0939688751
 30
0.0
 11
5876.9408211606
 21
3319.3439765045
 31
0.0
  0
LINE
  5
49A
330
1F
100
AcDbEntity
  8
0
  6
Continuous
 62
     7
370
    25
100
AcDbLine
 10
3506.9409356015
 20
3319.3439765045
 30
0.0
 11
3506.9409356015
 21
3321.0939688751
 31
0.0
  0
LINE
  5
49B
330
1F
100
AcDbEntity
  8
0
  6
Continuous
 62
     7
370
    25
100
AcDbLine
 10
5876.9408211606
 20
3401.3642592499
 30
0.0
 11
5876.9408211606
 21
3409.6142573426
 31
0.0
  0
LINE
  5
49C
330
1F
100
AcDbEntity
  8
0
  6
Continuous
 62
     7
370
    25
100
AcDbLine
 10
5876.9408211606
 20
3401.3642592499
 30
0.0
 11
5841.8408379452
 21
3401.3642592499
 31
0.0
  0
LINE
  5
49D
330
1F
100
AcDbEntity
  8
0
  6
Continuous
 62
     7
370
    25
100
AcDbLine
 10
4702.0407662289
 20
3401.3642592499
 30
0.0
 11
4681.8407521146
 21
3401.3642592499
 31
0.0
  0
LINE
  5
49E
330
1F
100
AcDbEntity
  8
0
  6
Continuous
 62
     7
370
    25
100
AcDbLine
 10
3542.0409188168
 20
3401.3642592499
 30
0.0
 11
3506.9409356015
 21
3401.3642592499
 31
0.0
  0
LINE
  5
49F
330
1F
100
AcDbEntity
  8
0
  6
Continuous
 62
     7
370
    25
100
AcDbLine
 10
3506.9409356015
 20
3401.3642592499
 30
0.0
 11
3506.9409356015
 21
3409.6142573426
 31
0.0
  0
LINE
  5
4A0
330
1F
100
AcDbEntity
  8
0
  6
Continuous
 62
     7
370
    25
100
AcDbLine
 10
5876.9408211606
 20
3401.3642592499
 30
0.0
 11
5876.9408211606
 21
3400.0651164124
 31
0.0
  0
LINE
  5
4A1
330
1F
100
AcDbEntity
  8
0
  6
Continuous
 62
     7
370
    25
100
AcDbLine
 10
5876.9408211606
 20
3400.0651164124
 30
0.0
 11
5841.8408379452
 21
3400.0651164124
 31
0.0
  0
LINE
  5
4A2
330
1F
100
AcDbEntity
  8
0
  6
Continuous
 62
     7
370
    25
100
AcDbLine
 10
4702.0407662289
 20
3400.0651164124
 30
0.0
 11
4681.8407521146
 21
3400.0651164124
 31
0.0
  0
LINE
  5
4A3
330
1F
100
AcDbEntity
  8
0
  6
Continuous
 62
     7
370
    25
100
AcDbLine
 10
3542.0409188168
 20
3400.0651164124
 30
0.0
 11
3506.9409356015
 21
3400.0651164124
 31
0.0
  0
LINE
  5
4A4
330
1F
100
AcDbEntity
  8
0
  6
Continuous
 62
     7
370
    25
100
AcDbLine
 10
3506.9409356015
 20
3401.3642592499
 30
0.0
 11
3506.9409356015
 21
3400.0651164124
 31
0.0
  0
LINE
  5
4A5
330
1F
100
AcDbEntity
  8
0
  6
Continuous
 62
     7
370
    25
100
AcDbLine
 10
5876.9408211606
 20
3409.6142573426
 30
0.0
 11
5876.9408211606
 21
3410.0829882691
 31
0.0
  0
LINE
  5
4A6
330
1F
100
AcDbEntity
  8
0
  6
Continuous
 62
     7
370
    25
100
AcDbLine
 10
3506.9409356015
 20
3409.6142573426
 30
0.0
 11
3506.9409356015
 21
3410.0829882691
 31
0.0
  0
LINE
  5
4A7
330
1F
100
AcDbEntity
  8
0
  6
Continuous
 62
     7
370
    25
100
AcDbLine
 10
3506.9409356015
 20
3400.0651164124
 30
0.0
 11
3506.9409356015
 21
3371.3640494415
 31
0.0
  0
LINE
  5
4A8
330
1F
100
AcDbEntity
  8
0
  6
Continuous
 62
     7
370
    25
100
AcDbLine
 10
5876.9408211606
 20
3400.0651164124
 30
0.0
 11
5876.9408211606
 21
3371.3640494415
 31
0.0
  0
LINE
  5
4A9
330
1F
100
AcDbEntity
  8
0
  6
Continuous
 62
     7
370
    25
100
AcDbLine
 10
4681.8407521146
 20
3394.5926947663
 30
0.0
 11
4702.0407662289
 21
3394.5926947663
 31
0.0
  0
LINE
  5
4AA
330
1F
100
AcDbEntity
  8
0
  6
Continuous
 62
     7
370
    25
100
AcDbLine
 10
4702.0407662289
 20
3383.3343310425
 30
0.0
 11
4681.8407521146
 21
3383.3343310425
 31
0.0
  0
LINE
  5
4AB
330
1F
100
AcDbEntity
  8
0
  6
Continuous
 62
     7
370
    25
100
AcDbLine
 10
4702.0407662289
 20
3384.0843958924
 30
0.0
 11
4681.8407521146
 21
3384.0843958924
 31
0.0
  0
LINE
  5
4AC
330
1F
100
AcDbEntity
  8
0
  6
Continuous
 62
     7
370
    25
100
AcDbLine
 10
5876.9408211606
 20
4634.8544879029
 30
0.0
 11
5876.9408211606
 21
4639.6354956696
 31
0.0
  0
LINE
  5
4AD
330
1F
100
AcDbEntity
  8
0
  6
Continuous
 62
     7
370
    25
100
AcDbLine
 10
3506.9409356015
 20
4634.8544879029
 30
0.0
 11
3506.9409356015
 21
4639.6354956696
 31
0.0
  0
LINE
  5
4AE
330
1F
100
AcDbEntity
  8
0
  6
Continuous
 62
     7
370
    25
100
AcDbLine
 10
3506.9409356015
 20
4597.6154131958
 30
0.0
 11
3506.9409356015
 21
4634.8544879029
 31
0.0
  0
LINE
  5
4AF
330
1F
100
AcDbEntity
  8
0
  6
Continuous
 62
     7
370
    25
100
AcDbLine
 10
5876.9408211606
 20
4597.6154131958
 30
0.0
 11
5876.9408211606
 21
4634.8544879029
 31
0.0
  0
LINE
  5
4B0
330
1F
100
AcDbEntity
  8
0
  6
Continuous
 62
     7
370
    25
100
AcDbLine
 10
4681.8407521146
 20
4610.6058878967
 30
0.0
 11
4702.0407662289
 21
4610.6058878967
 31
0.0
  0
LINE
  5
4B1
330
1F
100
AcDbEntity
  8
0
  6
Continuous
 62
     7
370
    25
100
AcDbLine
 10
4702.0407662289
 20
4621.8640132019
 30
0.0
 11
4681.8407521146
 21
4621.8640132019
 31
0.0
  0
LINE
  5
4B2
330
1F
100
AcDbEntity
  8
0
  6
Continuous
 62
     7
370
    25
100
AcDbLine
 10
5876.9408211606
 20
4647.8854937622
 30
0.0
 11
5841.8408379452
 21
4647.8854937622
 31
0.0
  0
LINE
  5
4B3
330
1F
100
AcDbEntity
  8
0
  6
Continuous
 62
     7
370
    25
100
AcDbLine
 10
4702.0407662289
 20
4647.8854937622
 30
0.0
 11
4681.8407521146
 21
4647.8854937622
 31
0.0
  0
LINE
  5
4B4
330
1F
100
AcDbEntity
  8
0
  6
Continuous
 62
     7
370
    25
100
AcDbLine
 10
3542.0409188168
 20
4647.8854937622
 30
0.0
 11
3506.9409356015
 21
4647.8854937622
 31
0.0
  0
LINE
  5
4B5
330
1F
100
AcDbEntity
  8
0
  6
Continuous
 62
     7
370
    25
100
AcDbLine
 10
5876.9408211606
 20
4639.6354956696
 30
0.0
 11
5876.9408211606
 21
4647.8854937622
 31
0.0
  0
LINE
  5
4B6
330
1F
100
AcDbEntity
  8
0
  6
Continuous
 62
     7
370
    25
100
AcDbLine
 10
3506.9409356015
 20
4639.6354956696
 30
0.0
 11
3506.9409356015
 21
4647.8854937622
 31
0.0
  0
LINE
  5
4B7
330
1F
100
AcDbEntity
  8
0
  6
Continuous
 62
     7
370
    25
100
AcDbLine
 10
4681.8407521146
 20
4611.355714328
 30
0.0
 11
4702.0407662289
 21
4611.355714328
 31
0.0
  0
LINE
  5
4B8
330
1F
100
AcDbEntity
  8
0
  6
Continuous
 62
     7
370
    25
100
AcDbLine
 10
5876.9408211606
 20
4597.6154131958
 30
0.0
 11
5876.9408211606
 21
4595.8654208252
 31
0.0
  0
LINE
  5
4B9
330
1F
100
AcDbEntity
  8
0
  6
Continuous
 62
     7
370
    25
100
AcDbLine
 10
3506.9409356015
 20
4595.8654208252
 30
0.0
 11
3506.9409356015
 21
4597.6154131958
 31
0.0
  0
LINE
  5
4BA
330
1F
100
AcDbEntity
  8
0
  6
Continuous
 62
     7
370
    25
100
AcDbLine
 10
5876.9408211606
 20
4677.8857035706
 30
0.0
 11
5876.9408211606
 21
4686.1357016632
 31
0.0
  0
LINE
  5
4BB
330
1F
100
AcDbEntity
  8
0
  6
Continuous
 62
     7
370
    25
100
AcDbLine
 10
5876.9408211606
 20
4677.8857035706
 30
0.0
 11
5841.8408379452
 21
4677.8857035706
 31
0.0
  0
LINE
  5
4BC
330
1F
100
AcDbEntity
  8
0
  6
Continuous
 62
     7
370
    25
100
AcDbLine
 10
4702.0407662289
 20
4677.8857035706
 30
0.0
 11
4681.8407521146
 21
4677.8857035706
 31
0.0
  0
LINE
  5
4BD
330
1F
100
AcDbEntity
  8
0
  6
Continuous
 62
     7
370
    25
100
AcDbLine
 10
3542.0409188168
 20
4677.8857035706
 30
0.0
 11
3506.9409356015
 21
4677.8857035706
 31
0.0
  0
LINE
  5
4BE
330
1F
100
AcDbEntity
  8
0
  6
Continuous
 62
     7
370
    25
100
AcDbLine
 10
3506.9409356015
 20
4677.8857035706
 30
0.0
 11
3506.9409356015
 21
4686.1357016632
 31
0.0
  0
LINE
  5
4BF
330
1F
100
AcDbEntity
  8
0
  6
Continuous
 62
     7
370
    25
100
AcDbLine
 10
5876.9408211606
 20
4677.8857035706
 30
0.0
 11
5876.9408211606
 21
4676.5865607331
 31
0.0
  0
LINE
  5
4C0
330
1F
100
AcDbEntity
  8
0
  6
Continuous
 62
     7
370
    25
100
AcDbLine
 10
5876.9408211606
 20
4676.5865607331
 30
0.0
 11
5841.8408379452
 21
4676.5865607331
 31
0.0
  0
LINE
  5
4C1
330
1F
100
AcDbEntity
  8
0
  6
Continuous
 62
     7
370
    25
100
AcDbLine
 10
4702.0407662289
 20
4676.5865607331
 30
0.0
 11
4681.8407521146
 21
4676.5865607331
 31
0.0
  0
LINE
  5
4C2
330
1F
100
AcDbEntity
  8
0
  6
Continuous
 62
     7
370
    25
100
AcDbLine
 10
3542.0409188168
 20
4676.5865607331
 30
0.0
 11
3506.9409356015
 21
4676.5865607331
 31
0.0
  0
LINE
  5
4C3
330
1F
100
AcDbEntity
  8
0
  6
Continuous
 62
     7
370
    25
100
AcDbLine
 10
3506.9409356015
 20
4677.8857035706
 30
0.0
 11
3506.9409356015
 21
4676.5865607331
 31
0.0
  0
LINE
  5
4C4
330
1F
100
AcDbEntity
  8
0
  6
Continuous
 62
     7
370
    25
100
AcDbLine
 10
3506.9409356015
 20
4686.1357016632
 30
0.0
 11
3506.9409356015
 21
4686.6044325897
 31
0.0
  0
LINE
  5
4C5
330
1F
100
AcDbEntity
  8
0
  6
Continuous
 62
     7
370
    25
100
AcDbLine
 10
5876.9408211606
 20
4686.1357016632
 30
0.0
 11
5876.9408211606
 21
4686.6044325897
 31
0.0
  0
LINE
  5
4C6
330
1F
100
AcDbEntity
  8
0
  6
Continuous
 62
     7
370
    25
100
AcDbLine
 10
3506.9409356015
 20
4676.5865607331
 30
0.0
 11
3506.9409356015
 21
4647.8854937622
 31
0.0
  0
LINE
  5
4C7
330
1F
100
AcDbEntity
  8
0
  6
Continuous
 62
     7
370
    25
100
AcDbLine
 10
5876.9408211606
 20
4676.5865607331
 30
0.0
 11
5876.9408211606
 21
4647.8854937622
 31
0.0
  0
LINE
  5
4C8
330
1F
100
AcDbEntity
  8
0
  6
Continuous
 62
     7
370
    25
100
AcDbLine
 10
4681.8407521146
 20
4671.1141390869
 30
0.0
 11
4702.0407662289
 21
4671.1141390869
 31
0.0
  0
LINE
  5
4C9
330
1F
100
AcDbEntity
  8
0
  6
Continuous
 62
     7
370
    25
100
AcDbLine
 10
4702.0407662289
 20
4659.8557753632
 30
0.0
 11
4681.8407521146
 21
4659.8557753632
 31
0.0
  0
LINE
  5
4CA
330
1F
100
AcDbEntity
  8
0
  6
Continuous
 62
     7
370
    25
100
AcDbLine
 10
4702.0407662289
 20
4660.605840213
 30
0.0
 11
4681.8407521146
 21
4660.605840213
 31
0.0
  0
LINE
  5
4CB
330
1F
100
AcDbEntity
  8
0
  6
Continuous
 62
     7
370
    25
100
AcDbLine
 10
1136.9408414262
 20
3358.3330435822
 30
0.0
 11
1136.9408414262
 21
3363.1140513489
 31
0.0
  0
LINE
  5
4CC
330
1F
100
AcDbEntity
  8
0
  6
Continuous
 62
     7
370
    25
100
AcDbLine
 10
1136.9408414262
 20
3321.0939688751
 30
0.0
 11
1136.9408414262
 21
3358.3330435822
 31
0.0
  0
LINE
  5
4CD
330
1F
100
AcDbEntity
  8
0
  6
Continuous
 62
     7
370
    25
100
AcDbLine
 10
2311.8408665555
 20
3334.0844435761
 30
0.0
 11
2332.0408210652
 21
3334.0844435761
 31
0.0
  0
LINE
  5
4CE
330
1F
100
AcDbEntity
  8
0
  6
Continuous
 62
     7
370
    25
100
AcDbLine
 10
2332.0408210652
 20
3345.3425688812
 30
0.0
 11
2311.8408665555
 21
3345.3425688812
 31
0.0
  0
LINE
  5
4CF
330
1F
100
AcDbEntity
  8
0
  6
Continuous
 62
     7
370
    25
100
AcDbLine
 10
3506.9409356015
 20
3371.3640494415
 30
0.0
 11
3471.8409523862
 21
3371.3640494415
 31
0.0
  0
LINE
  5
4D0
330
1F
100
AcDbEntity
  8
0
  6
Continuous
 62
     7
370
    25
100
AcDbLine
 10
2332.0408210652
 20
3371.3640494415
 30
0.0
 11
2311.8408665555
 21
3371.3640494415
 31
0.0
  0
LINE
  5
4D1
330
1F
100
AcDbEntity
  8
0
  6
Continuous
 62
     7
370
    25
100
AcDbLine
 10
1172.0408395426
 20
3371.3640494415
 30
0.0
 11
1136.9408414262
 21
3371.3640494415
 31
0.0
  0
LINE
  5
4D2
330
1F
100
AcDbEntity
  8
0
  6
Continuous
 62
     7
370
    25
100
AcDbLine
 10
1136.9408414262
 20
3363.1140513489
 30
0.0
 11
1136.9408414262
 21
3371.3640494415
 31
0.0
  0
LINE
  5
4D3
330
1F
100
AcDbEntity
  8
0
  6
Continuous
 62
     7
370
    25
100
AcDbLine
 10
2311.8408665555
 20
3334.8342700073
 30
0.0
 11
2332.0408210652
 21
3334.8342700073
 31
0.0
  0
LINE
  5
4D4
330
1F
100
AcDbEntity
  8
0
  6
Continuous
 62
     7
370
    25
100
AcDbLine
 10
1136.9408414262
 20
3319.3439765045
 30
0.0
 11
1136.9408414262
 21
3321.0939688751
 31
0.0
  0
LINE
  5
4D5
330
1F
100
AcDbEntity
  8
0
  6
Continuous
 62
     7
370
    25
100
AcDbLine
 10
3506.9409356015
 20
3401.3642592499
 30
0.0
 11
3471.8409523862
 21
3401.3642592499
 31
0.0
  0
LINE
  5
4D6
330
1F
100
AcDbEntity
  8
0
  6
Continuous
 62
     7
370
    25
100
AcDbLine
 10
2332.0408210652
 20
3401.3642592499
 30
0.0
 11
2311.8408665555
 21
3401.3642592499
 31
0.0
  0
LINE
  5
4D7
330
1F
100
AcDbEntity
  8
0
  6
Continuous
 62
     7
370
    25
100
AcDbLine
 10
1172.0408395426
 20
3401.3642592499
 30
0.0
 11
1136.9408414262
 21
3401.3642592499
 31
0.0
  0
LINE
  5
4D8
330
1F
100
AcDbEntity
  8
0
  6
Continuous
 62
     7
370
    25
100
AcDbLine
 10
3506.9409356015
 20
3400.0651164124
 30
0.0
 11
3471.8409523862
 21
3400.0651164124
 31
0.0
  0
LINE
  5
4D9
330
1F
100
AcDbEntity
  8
0
  6
Continuous
 62
     7
370
    25
100
AcDbLine
 10
2332.0408210652
 20
3400.0651164124
 30
0.0
 11
2311.8408665555
 21
3400.0651164124
 31
0.0
  0
LINE
  5
4DA
330
1F
100
AcDbEntity
  8
0
  6
Continuous
 62
     7
370
    25
100
AcDbLine
 10
1172.0408395426
 20
3400.0651164124
 30
0.0
 11
1136.9408414262
 21
3400.0651164124
 31
0.0
  0
LINE
  5
4DB
330
1F
100
AcDbEntity
  8
0
  6
Continuous
 62
     7
370
    25
100
AcDbLine
 10
1136.9408414262
 20
3401.3642592499
 30
0.0
 11
1136.9408414262
 21
3400.0651164124
 31
0.0
  0
LINE
  5
4DC
330
1F
100
AcDbEntity
  8
0
  6
Continuous
 62
     7
370
    25
100
AcDbLine
 10
1136.9408414262
 20
3401.3642592499
 30
0.0
 11
1136.9408414262
 21
3409.6142573426
 31
0.0
  0
LINE
  5
4DD
330
1F
100
AcDbEntity
  8
0
  6
Continuous
 62
     7
370
    25
100
AcDbLine
 10
1136.9408414262
 20
3409.6142573426
 30
0.0
 11
1136.9408414262
 21
3410.0829882691
 31
0.0
  0
LINE
  5
4DE
330
1F
100
AcDbEntity
  8
0
  6
Continuous
 62
     7
370
    25
100
AcDbLine
 10
1136.9408414262
 20
3400.0651164124
 30
0.0
 11
1136.9408414262
 21
3371.3640494415
 31
0.0
  0
LINE
  5
4DF
330
1F
100
AcDbEntity
  8
0
  6
Continuous
 62
     7
370
    25
100
AcDbLine
 10
2311.8408665555
 20
3394.5926947663
 30
0.0
 11
2332.0408210652
 21
3394.5926947663
 31
0.0
  0
LINE
  5
4E0
330
1F
100
AcDbEntity
  8
0
  6
Continuous
 62
     7
370
    25
100
AcDbLine
 10
2332.0408210652
 20
3383.3343310425
 30
0.0
 11
2311.8408665555
 21
3383.3343310425
 31
0.0
  0
LINE
  5
4E1
330
1F
100
AcDbEntity
  8
0
  6
Continuous
 62
     7
370
    25
100
AcDbLine
 10
2332.0408210652
 20
3384.0843958924
 30
0.0
 11
2311.8408665555
 21
3384.0843958924
 31
0.0
  0
LINE
  5
4E2
330
1F
100
AcDbEntity
  8
0
  6
Continuous
 62
     7
370
    25
100
AcDbLine
 10
1136.9408414262
 20
4634.8544879029
 30
0.0
 11
1136.9408414262
 21
4639.6354956696
 31
0.0
  0
LINE
  5
4E3
330
1F
100
AcDbEntity
  8
0
  6
Continuous
 62
     7
370
    25
100
AcDbLine
 10
1136.9408414262
 20
4597.6154131958
 30
0.0
 11
1136.9408414262
 21
4634.8544879029
 31
0.0
  0
LINE
  5
4E4
330
1F
100
AcDbEntity
  8
0
  6
Continuous
 62
     7
370
    25
100
AcDbLine
 10
2311.8408665555
 20
4610.6058878967
 30
0.0
 11
2332.0408210652
 21
4610.6058878967
 31
0.0
  0
LINE
  5
4E5
330
1F
100
AcDbEntity
  8
0
  6
Continuous
 62
     7
370
    25
100
AcDbLine
 10
2332.0408210652
 20
4621.8640132019
 30
0.0
 11
2311.8408665555
 21
4621.8640132019
 31
0.0
  0
LINE
  5
4E6
330
1F
100
AcDbEntity
  8
0
  6
Continuous
 62
     7
370
    25
100
AcDbLine
 10
3506.9409356015
 20
4647.8854937622
 30
0.0
 11
3471.8409523862
 21
4647.8854937622
 31
0.0
  0
LINE
  5
4E7
330
1F
100
AcDbEntity
  8
0
  6
Continuous
 62
     7
370
    25
100
AcDbLine
 10
2332.0408210652
 20
4647.8854937622
 30
0.0
 11
2311.8408665555
 21
4647.8854937622
 31
0.0
  0
LINE
  5
4E8
330
1F
100
AcDbEntity
  8
0
  6
Continuous
 62
     7
370
    25
100
AcDbLine
 10
1172.0408395426
 20
4647.8854937622
 30
0.0
 11
1136.9408414262
 21
4647.8854937622
 31
0.0
  0
LINE
  5
4E9
330
1F
100
AcDbEntity
  8
0
  6
Continuous
 62
     7
370
    25
100
AcDbLine
 10
1136.9408414262
 20
4639.6354956696
 30
0.0
 11
1136.9408414262
 21
4647.8854937622
 31
0.0
  0
LINE
  5
4EA
330
1F
100
AcDbEntity
  8
0
  6
Continuous
 62
     7
370
    25
100
AcDbLine
 10
2311.8408665555
 20
4611.355714328
 30
0.0
 11
2332.0408210652
 21
4611.355714328
 31
0.0
  0
LINE
  5
4EB
330
1F
100
AcDbEntity
  8
0
  6
Continuous
 62
     7
370
    25
100
AcDbLine
 10
1136.9408414262
 20
4595.8654208252
 30
0.0
 11
1136.9408414262
 21
4597.6154131958
 31
0.0
  0
LINE
  5
4EC
330
1F
100
AcDbEntity
  8
0
  6
Continuous
 62
     7
370
    25
100
AcDbLine
 10
3506.9409356015
 20
4677.8857035706
 30
0.0
 11
3471.8409523862
 21
4677.8857035706
 31
0.0
  0
LINE
  5
4ED
330
1F
100
AcDbEntity
  8
0
  6
Continuous
 62
     7
370
    25
100
AcDbLine
 10
2332.0408210652
 20
4677.8857035706
 30
0.0
 11
2311.8408665555
 21
4677.8857035706
 31
0.0
  0
LINE
  5
4EE
330
1F
100
AcDbEntity
  8
0
  6
Continuous
 62
     7
370
    25
100
AcDbLine
 10
1172.0408395426
 20
4677.8857035706
 30
0.0
 11
1136.9408414262
 21
4677.8857035706
 31
0.0
  0
LINE
  5
4EF
330
1F
100
AcDbEntity
  8
0
  6
Continuous
 62
     7
370
    25
100
AcDbLine
 10
1136.9408414262
 20
4677.8857035706
 30
0.0
 11
1136.9408414262
 21
4686.1357016632
 31
0.0
  0
LINE
  5
4F0
330
1F
100
AcDbEntity
  8
0
  6
Continuous
 62
     7
370
    25
100
AcDbLine
 10
3506.9409356015
 20
4676.5865607331
 30
0.0
 11
3471.8409523862
 21
4676.5865607331
 31
0.0
  0
LINE
  5
4F1
330
1F
100
AcDbEntity
  8
0
  6
Continuous
 62
     7
370
    25
100
AcDbLine
 10
2332.0408210652
 20
4676.5865607331
 30
0.0
 11
2311.8408665555
 21
4676.5865607331
 31
0.0
  0
LINE
  5
4F2
330
1F
100
AcDbEntity
  8
0
  6
Continuous
 62
     7
370
    25
100
AcDbLine
 10
1172.0408395426
 20
4676.5865607331
 30
0.0
 11
1136.9408414262
 21
4676.5865607331
 31
0.0
  0
LINE
  5
4F3
330
1F
100
AcDbEntity
  8
0
  6
Continuous
 62
     7
370
    25
100
AcDbLine
 10
1136.9408414262
 20
4677.8857035706
 30
0.0
 11
1136.9408414262
 21
4676.5865607331
 31
0.0
  0
LINE
  5
4F4
330
1F
100
AcDbEntity
  8
0
  6
Continuous
 62
     7
370
    25
100
AcDbLine
 10
1136.9408414262
 20
4686.1357016632
 30
0.0
 11
1136.9408414262
 21
4686.6044325897
 31
0.0
  0
LINE
  5
4F5
330
1F
100
AcDbEntity
  8
0
  6
Continuous
 62
     7
370
    25
100
AcDbLine
 10
1136.9408414262
 20
4676.5865607331
 30
0.0
 11
1136.9408414262
 21
4647.8854937622
 31
0.0
  0
LINE
  5
4F6
330
1F
100
AcDbEntity
  8
0
  6
Continuous
 62
     7
370
    25
100
AcDbLine
 10
2311.8408665555
 20
4671.1141390869
 30
0.0
 11
2332.0408210652
 21
4671.1141390869
 31
0.0
  0
LINE
  5
4F7
330
1F
100
AcDbEntity
  8
0
  6
Continuous
 62
     7
370
    25
100
AcDbLine
 10
2332.0408210652
 20
4659.8557753632
 30
0.0
 11
2311.8408665555
 21
4659.8557753632
 31
0.0
  0
LINE
  5
4F8
330
1F
100
AcDbEntity
  8
0
  6
Continuous
 62
     7
370
    25
100
AcDbLine
 10
2332.0408210652
 20
4660.605840213
 30
0.0
 11
2311.8408665555
 21
4660.605840213
 31
0.0
  0
LINE
  5
4F9
330
1F
100
AcDbEntity
  8
0
  6
Continuous
 62
     8
370
    25
100
AcDbLine
 10
5876.9408211606
 20
3363.1140513489
 30
0.0
 11
5841.8408379452
 21
3363.1140513489
 31
0.0
  0
LINE
  5
4FA
330
1F
100
AcDbEntity
  8
0
  6
Continuous
 62
     8
370
    25
100
AcDbLine
 10
4702.0407662289
 20
3363.1140513489
 30
0.0
 11
4681.8407521146
 21
3363.1140513489
 31
0.0
  0
LINE
  5
4FB
330
1F
100
AcDbEntity
  8
0
  6
Continuous
 62
     8
370
    25
100
AcDbLine
 10
3542.0409188168
 20
3363.1140513489
 30
0.0
 11
3506.9409356015
 21
3363.1140513489
 31
0.0
  0
LINE
  5
4FC
330
1F
100
AcDbEntity
  8
0
  6
Continuous
 62
     8
370
    25
100
AcDbLine
 10
5876.9408211606
 20
3358.3330435822
 30
0.0
 11
5841.8408379452
 21
3358.3330435822
 31
0.0
  0
LINE
  5
4FD
330
1F
100
AcDbEntity
  8
0
  6
Continuous
 62
     8
370
    25
100
AcDbLine
 10
4702.0407662289
 20
3358.3330435822
 30
0.0
 11
4681.8407521146
 21
3358.3330435822
 31
0.0
  0
LINE
  5
4FE
330
1F
100
AcDbEntity
  8
0
  6
Continuous
 62
     8
370
    25
100
AcDbLine
 10
3542.0409188168
 20
3358.3330435822
 30
0.0
 11
3506.9409356015
 21
3358.3330435822
 31
0.0
  0
LINE
  5
4FF
330
1F
100
AcDbEntity
  8
0
  6
Continuous
 62
     8
370
    25
100
AcDbLine
 10
4702.0407662289
 20
3321.0939688751
 30
0.0
 11
4681.8407521146
 21
3321.0939688751
 31
0.0
  0
LINE
  5
500
330
1F
100
AcDbEntity
  8
0
  6
Continuous
 62
     8
370
    25
100
AcDbLine
 10
3542.0409188168
 20
3321.0939688751
 30
0.0
 11
3506.9409356015
 21
3321.0939688751
 31
0.0
  0
LINE
  5
501
330
1F
100
AcDbEntity
  8
0
  6
Continuous
 62
     8
370
    25
100
AcDbLine
 10
5876.9408211606
 20
3321.0939688751
 30
0.0
 11
5841.8408379452
 21
3321.0939688751
 31
0.0
  0
LINE
  5
502
330
1F
100
AcDbEntity
  8
0
  6
Continuous
 62
     8
370
    25
100
AcDbLine
 10
5876.9408211606
 20
3409.6142573426
 30
0.0
 11
5841.8408379452
 21
3409.6142573426
 31
0.0
  0
LINE
  5
503
330
1F
100
AcDbEntity
  8
0
  6
Continuous
 62
     8
370
    25
100
AcDbLine
 10
4702.0407662289
 20
3409.6142573426
 30
0.0
 11
4681.8407521146
 21
3409.6142573426
 31
0.0
  0
LINE
  5
504
330
1F
100
AcDbEntity
  8
0
  6
Continuous
 62
     8
370
    25
100
AcDbLine
 10
3542.0409188168
 20
3409.6142573426
 30
0.0
 11
3506.9409356015
 21
3409.6142573426
 31
0.0
  0
LINE
  5
505
330
1F
100
AcDbEntity
  8
0
  6
Continuous
 62
     8
370
    25
100
AcDbLine
 10
5876.9408211606
 20
4639.6354956696
 30
0.0
 11
5841.8408379452
 21
4639.6354956696
 31
0.0
  0
LINE
  5
506
330
1F
100
AcDbEntity
  8
0
  6
Continuous
 62
     8
370
    25
100
AcDbLine
 10
4702.0407662289
 20
4639.6354956696
 30
0.0
 11
4681.8407521146
 21
4639.6354956696
 31
0.0
  0
LINE
  5
507
330
1F
100
AcDbEntity
  8
0
  6
Continuous
 62
     8
370
    25
100
AcDbLine
 10
3542.0409188168
 20
4639.6354956696
 30
0.0
 11
3506.9409356015
 21
4639.6354956696
 31
0.0
  0
LINE
  5
508
330
1F
100
AcDbEntity
  8
0
  6
Continuous
 62
     8
370
    25
100
AcDbLine
 10
5876.9408211606
 20
4634.8544879029
 30
0.0
 11
5841.8408379452
 21
4634.8544879029
 31
0.0
  0
LINE
  5
509
330
1F
100
AcDbEntity
  8
0
  6
Continuous
 62
     8
370
    25
100
AcDbLine
 10
4702.0407662289
 20
4634.8544879029
 30
0.0
 11
4681.8407521146
 21
4634.8544879029
 31
0.0
  0
LINE
  5
50A
330
1F
100
AcDbEntity
  8
0
  6
Continuous
 62
     8
370
    25
100
AcDbLine
 10
3542.0409188168
 20
4634.8544879029
 30
0.0
 11
3506.9409356015
 21
4634.8544879029
 31
0.0
  0
LINE
  5
50B
330
1F
100
AcDbEntity
  8
0
  6
Continuous
 62
     8
370
    25
100
AcDbLine
 10
4702.0407662289
 20
4597.6154131958
 30
0.0
 11
4681.8407521146
 21
4597.6154131958
 31
0.0
  0
LINE
  5
50C
330
1F
100
AcDbEntity
  8
0
  6
Continuous
 62
     8
370
    25
100
AcDbLine
 10
3542.0409188168
 20
4597.6154131958
 30
0.0
 11
3506.9409356015
 21
4597.6154131958
 31
0.0
  0
LINE
  5
50D
330
1F
100
AcDbEntity
  8
0
  6
Continuous
 62
     8
370
    25
100
AcDbLine
 10
5876.9408211606
 20
4597.6154131958
 30
0.0
 11
5841.8408379452
 21
4597.6154131958
 31
0.0
  0
LINE
  5
50E
330
1F
100
AcDbEntity
  8
0
  6
Continuous
 62
     8
370
    25
100
AcDbLine
 10
5876.9408211606
 20
4686.1357016632
 30
0.0
 11
5841.8408379452
 21
4686.1357016632
 31
0.0
  0
LINE
  5
50F
330
1F
100
AcDbEntity
  8
0
  6
Continuous
 62
     8
370
    25
100
AcDbLine
 10
4702.0407662289
 20
4686.1357016632
 30
0.0
 11
4681.8407521146
 21
4686.1357016632
 31
0.0
  0
LINE
  5
510
330
1F
100
AcDbEntity
  8
0
  6
Continuous
 62
     8
370
    25
100
AcDbLine
 10
3542.0409188168
 20
4686.1357016632
 30
0.0
 11
3506.9409356015
 21
4686.1357016632
 31
0.0
  0
LINE
  5
511
330
1F
100
AcDbEntity
  8
0
  6
Continuous
 62
     8
370
    25
100
AcDbLine
 10
3506.9409356015
 20
3363.1140513489
 30
0.0
 11
3471.8409523862
 21
3363.1140513489
 31
0.0
  0
LINE
  5
512
330
1F
100
AcDbEntity
  8
0
  6
Continuous
 62
     8
370
    25
100
AcDbLine
 10
2332.0408210652
 20
3363.1140513489
 30
0.0
 11
2311.8408665555
 21
3363.1140513489
 31
0.0
  0
LINE
  5
513
330
1F
100
AcDbEntity
  8
0
  6
Continuous
 62
     8
370
    25
100
AcDbLine
 10
1172.0408395426
 20
3363.1140513489
 30
0.0
 11
1136.9408414262
 21
3363.1140513489
 31
0.0
  0
LINE
  5
514
330
1F
100
AcDbEntity
  8
0
  6
Continuous
 62
     8
370
    25
100
AcDbLine
 10
3506.9409356015
 20
3358.3330435822
 30
0.0
 11
3471.8409523862
 21
3358.3330435822
 31
0.0
  0
LINE
  5
515
330
1F
100
AcDbEntity
  8
0
  6
Continuous
 62
     8
370
    25
100
AcDbLine
 10
2332.0408210652
 20
3358.3330435822
 30
0.0
 11
2311.8408665555
 21
3358.3330435822
 31
0.0
  0
LINE
  5
516
330
1F
100
AcDbEntity
  8
0
  6
Continuous
 62
     8
370
    25
100
AcDbLine
 10
1172.0408395426
 20
3358.3330435822
 30
0.0
 11
1136.9408414262
 21
3358.3330435822
 31
0.0
  0
LINE
  5
517
330
1F
100
AcDbEntity
  8
0
  6
Continuous
 62
     8
370
    25
100
AcDbLine
 10
2332.0408210652
 20
3321.0939688751
 30
0.0
 11
2311.8408665555
 21
3321.0939688751
 31
0.0
  0
LINE
  5
518
330
1F
100
AcDbEntity
  8
0
  6
Continuous
 62
     8
370
    25
100
AcDbLine
 10
1172.0408395426
 20
3321.0939688751
 30
0.0
 11
1136.9408414262
 21
3321.0939688751
 31
0.0
  0
LINE
  5
519
330
1F
100
AcDbEntity
  8
0
  6
Continuous
 62
     8
370
    25
100
AcDbLine
 10
3506.9409356015
 20
3321.0939688751
 30
0.0
 11
3471.8409523862
 21
3321.0939688751
 31
0.0
  0
LINE
  5
51A
330
1F
100
AcDbEntity
  8
0
  6
Continuous
 62
     8
370
    25
100
AcDbLine
 10
3506.9409356015
 20
3409.6142573426
 30
0.0
 11
3471.8409523862
 21
3409.6142573426
 31
0.0
  0
LINE
  5
51B
330
1F
100
AcDbEntity
  8
0
  6
Continuous
 62
     8
370
    25
100
AcDbLine
 10
2332.0408210652
 20
3409.6142573426
 30
0.0
 11
2311.8408665555
 21
3409.6142573426
 31
0.0
  0
LINE
  5
51C
330
1F
100
AcDbEntity
  8
0
  6
Continuous
 62
     8
370
    25
100
AcDbLine
 10
1172.0408395426
 20
3409.6142573426
 30
0.0
 11
1136.9408414262
 21
3409.6142573426
 31
0.0
  0
LINE
  5
51D
330
1F
100
AcDbEntity
  8
0
  6
Continuous
 62
     8
370
    25
100
AcDbLine
 10
3506.9409356015
 20
4639.6354956696
 30
0.0
 11
3471.8409523862
 21
4639.6354956696
 31
0.0
  0
LINE
  5
51E
330
1F
100
AcDbEntity
  8
0
  6
Continuous
 62
     8
370
    25
100
AcDbLine
 10
2332.0408210652
 20
4639.6354956696
 30
0.0
 11
2311.8408665555
 21
4639.6354956696
 31
0.0
  0
LINE
  5
51F
330
1F
100
AcDbEntity
  8
0
  6
Continuous
 62
     8
370
    25
100
AcDbLine
 10
1172.0408395426
 20
4639.6354956696
 30
0.0
 11
1136.9408414262
 21
4639.6354956696
 31
0.0
  0
LINE
  5
520
330
1F
100
AcDbEntity
  8
0
  6
Continuous
 62
     8
370
    25
100
AcDbLine
 10
3506.9409356015
 20
4634.8544879029
 30
0.0
 11
3471.8409523862
 21
4634.8544879029
 31
0.0
  0
LINE
  5
521
330
1F
100
AcDbEntity
  8
0
  6
Continuous
 62
     8
370
    25
100
AcDbLine
 10
2332.0408210652
 20
4634.8544879029
 30
0.0
 11
2311.8408665555
 21
4634.8544879029
 31
0.0
  0
LINE
  5
522
330
1F
100
AcDbEntity
  8
0
  6
Continuous
 62
     8
370
    25
100
AcDbLine
 10
1172.0408395426
 20
4634.8544879029
 30
0.0
 11
1136.9408414262
 21
4634.8544879029
 31
0.0
  0
LINE
  5
523
330
1F
100
AcDbEntity
  8
0
  6
Continuous
 62
     8
370
    25
100
AcDbLine
 10
2332.0408210652
 20
4597.6154131958
 30
0.0
 11
2311.8408665555
 21
4597.6154131958
 31
0.0
  0
LINE
  5
524
330
1F
100
AcDbEntity
  8
0
  6
Continuous
 62
     8
370
    25
100
AcDbLine
 10
1172.0408395426
 20
4597.6154131958
 30
0.0
 11
1136.9408414262
 21
4597.6154131958
 31
0.0
  0
LINE
  5
525
330
1F
100
AcDbEntity
  8
0
  6
Continuous
 62
     8
370
    25
100
AcDbLine
 10
3506.9409356015
 20
4597.6154131958
 30
0.0
 11
3471.8409523862
 21
4597.6154131958
 31
0.0
  0
LINE
  5
526
330
1F
100
AcDbEntity
  8
0
  6
Continuous
 62
     8
370
    25
100
AcDbLine
 10
3506.9409356015
 20
4686.1357016632
 30
0.0
 11
3471.8409523862
 21
4686.1357016632
 31
0.0
  0
LINE
  5
527
330
1F
100
AcDbEntity
  8
0
  6
Continuous
 62
     8
370
    25
100
AcDbLine
 10
2332.0408210652
 20
4686.1357016632
 30
0.0
 11
2311.8408665555
 21
4686.1357016632
 31
0.0
  0
LINE
  5
528
330
1F
100
AcDbEntity
  8
0
  6
Continuous
 62
     8
370
    25
100
AcDbLine
 10
1172.0408395426
 20
4686.1357016632
 30
0.0
 11
1136.9408414262
 21
4686.1357016632
 31
0.0
  0
DIMENSION
  5
529
330
1F
100
AcDbEntity
  8
0
  6
Continuous
 62
     7
370
    18
100
AcDbDimension
  2
_D_11
 10
5876.940840234
 20
5402.4822953712
 30
0.0
 11
3509.70198253
 21
5402.482295371
 31
0.0
 70
   160
  1
<>
 71
     2
 42
-1.0
  3
SLDDIMSTYLE0
100
AcDbAlignedDimension
 13
1136.9408402341
 23
4634.8545114646
 33
0.0
 14
5876.940840234
 24
4634.8545114646
 34
0.0
 50
0.0
100
AcDbRotatedDimension
  0
ENDSEC
  0
SECTION
  2
OBJECTS
  0
DICTIONARY
  5
C
330
0
100
AcDbDictionary
281
     1
  3
ACAD_GROUP
350
D
  3
ACAD_LAYOUT
350
1A
  3
ACAD_MLINESTYLE
350
17
  3
ACAD_PLOTSETTINGS
350
19
  3
ACAD_PLOTSTYLENAME
350
E
  3
ACAD_SCALELIST
350
47
  0
DICTIONARY
  5
D
102
{ACAD_REACTORS
330
C
102
}
330
C
100
AcDbDictionary
281
     1
  0
DICTIONARY
  5
1A
102
{ACAD_REACTORS
330
C
102
}
330
C
100
AcDbDictionary
281
     1
  3
Layout1
350
1E
  3
Layout2
350
26
  3
Model
350
22
  0
DICTIONARY
  5
17
102
{ACAD_REACTORS
330
C
102
}
330
C
100
AcDbDictionary
281
     1
  3
Standard
350
18
  0
DICTIONARY
  5
19
102
{ACAD_REACTORS
330
C
102
}
330
C
100
AcDbDictionary
281
     1
  0
ACDBDICTIONARYWDFLT
  5
E
102
{ACAD_REACTORS
330
C
102
}
330
C
100
AcDbDictionary
281
     1
  3
Normal
350
F
100
AcDbDictionaryWithDefault
340
F
  0
DICTIONARY
  5
47
102
{ACAD_REACTORS
330
C
102
}
330
C
100
AcDbDictionary
281
     1
  3
A0
350
48
  3
A1
350
49
  3
A2
350
4A
  3
A3
350
4B
  3
A4
350
4C
  3
A5
350
4D
  3
A6
350
4E
  3
A7
350
4F
  3
A8
350
50
  3
A9
350
51
  3
B0
350
52
  3
B1
350
53
  3
B2
350
54
  3
B3
350
55
  3
B4
350
56
  3
B5
350
57
  3
B6
350
58
  3
B7
350
59
  3
B8
350
5A
  3
B9
350
5B
  3
C0
350
5C
  3
C1
350
5D
  3
C2
350
5E
  3
C3
350
5F
  3
C4
350
60
  3
C5
350
61
  3
C6
350
62
  3
C7
350
63
  3
C8
350
64
  3
C9
350
65
  3
D0
350
66
  3
D1
350
67
  3
D2
350
68
  0
LAYOUT
  5
1E
102
{ACAD_REACTORS
330
1A
102
}
330
1A
100
AcDbPlotSettings
  1

  2
none_device
  4

  6

 40
0.0
 41
0.0
 42
0.0
 43
0.0
 44
0.0
 45
0.0
 46
0.0
 47
0.0
 48
0.0
 49
0.0
140
0.0
141
0.0
142
1.0
143
1.0
 70
   688
 72
     1
 73
     0
 74
     5
  7

 75
    16
147
1.0
148
0.0
149
0.0
100
AcDbLayout
  1
Layout1
 70
     1
 71
     1
 10
0.0
 20
0.0
 11
420.0
 21
297.0
 12
0.0
 22
0.0
 32
0.0
 14
1.0000000000E+20
 24
1.0000000000E+20
 34
1.0000000000E+20
 15
-1.0000000000E+20
 25
-1.0000000000E+20
 35
-1.0000000000E+20
146
0.0
 13
0.0
 23
0.0
 33
0.0
 16
1.0
 26
0.0
 36
0.0
 17
0.0
 27
1.0
 37
0.0
 76
     0
330
1B
  0
LAYOUT
  5
26
102
{ACAD_REACTORS
330
1A
102
}
330
1A
100
AcDbPlotSettings
  1

  2
none_device
  4

  6

 40
0.0
 41
0.0
 42
0.0
 43
0.0
 44
0.0
 45
0.0
 46
0.0
 47
0.0
 48
0.0
 49
0.0
140
0.0
141
0.0
142
1.0
143
1.0
 70
   688
 72
     1
 73
     0
 74
     5
  7

 75
    16
147
1.0
148
0.0
149
0.0
100
AcDbLayout
  1
Layout2
 70
     1
 71
     2
 10
0.0
 20
0.0
 11
0.0
 21
0.0
 12
0.0
 22
0.0
 32
0.0
 14
0.0
 24
0.0
 34
0.0
 15
0.0
 25
0.0
 35
0.0
146
0.0
 13
0.0
 23
0.0
 33
0.0
 16
1.0
 26
0.0
 36
0.0
 17
0.0
 27
1.0
 37
0.0
 76
     0
330
23
  0
LAYOUT
  5
22
102
{ACAD_REACTORS
330
1A
102
}
330
1A
100
AcDbPlotSettings
  1

  2
none_device
  4
Letter_(8.50_x_11.00_Inches)
  6

 40
6.35
 41
6.35
 42
6.35000508
 43
6.35000508
 44
215.9
 45
279.4
 46
0.0
 47
0.0
 48
0.0
 49
0.0
140
0.0
141
0.0
142
1.0
143
1.0
 70
  1712
 72
     1
 73
     0
 74
     0
  7

 75
     0
147
1.0
148
0.0
149
0.0
100
AcDbLayout
  1
Model
 70
     1
 71
     0
 10
0.0
 20
0.0
 11
14850.0
 21
10500.0
 12
0.0
 22
0.0
 32
0.0
 14
0.0
 24
0.0
 34
0.0
 15
14850.0
 25
10500.0
 35
0.0
146
0.0
 13
0.0
 23
0.0
 33
0.0
 16
1.0
 26
0.0
 36
0.0
 17
0.0
 27
1.0
 37
0.0
 76
     0
330
1F
331
29
  0
MLINESTYLE
  5
18
102
{ACAD_REACTORS
330
17
102
}
330
17
100
AcDbMlineStyle
  2
Standard
 70
     0
  3

 62
   256
 51
90.0
 52
90.0
 71
     2
 49
0.5
 62
   256
  6
BYLAYER
 49
-0.5
 62
   256
  6
BYLAYER
  0
ACDBPLACEHOLDER
  5
F
102
{ACAD_REACTORS
330
E
102
}
330
E
  0
SCALE
  5
48
102
{ACAD_REACTORS
330
47
102
}
330
47
100
AcDbScale
 70
     0
300
1:1
140
1.0
141
1.0
290
     1
  0
SCALE
  5
49
102
{ACAD_REACTORS
330
47
102
}
330
47
100
AcDbScale
 70
     0
300
1:2
140
1.0
141
2.0
290
     0
  0
SCALE
  5
4A
102
{ACAD_REACTORS
330
47
102
}
330
47
100
AcDbScale
 70
     0
300
1:4
140
1.0
141
4.0
290
     0
  0
SCALE
  5
4B
102
{ACAD_REACTORS
330
47
102
}
330
47
100
AcDbScale
 70
     0
300
1:5
140
1.0
141
5.0
290
     0
  0
SCALE
  5
4C
102
{ACAD_REACTORS
330
47
102
}
330
47
100
AcDbScale
 70
     0
300
1:8
140
1.0
141
8.0
290
     0
  0
SCALE
  5
4D
102
{ACAD_REACTORS
330
47
102
}
330
47
100
AcDbScale
 70
     0
300
1:10
140
1.0
141
10.0
290
     0
  0
SCALE
  5
4E
102
{ACAD_REACTORS
330
47
102
}
330
47
100
AcDbScale
 70
     0
300
1:16
140
1.0
141
16.0
290
     0
  0
SCALE
  5
4F
102
{ACAD_REACTORS
330
47
102
}
330
47
100
AcDbScale
 70
     0
300
1:20
140
1.0
141
20.0
290
     0
  0
SCALE
  5
50
102
{ACAD_REACTORS
330
47
102
}
330
47
100
AcDbScale
 70
     0
300
1:30
140
1.0
141
30.0
290
     0
  0
SCALE
  5
51
102
{ACAD_REACTORS
330
47
102
}
330
47
100
AcDbScale
 70
     0
300
1:40
140
1.0
141
40.0
290
     0
  0
SCALE
  5
52
102
{ACAD_REACTORS
330
47
102
}
330
47
100
AcDbScale
 70
     0
300
1:50
140
1.0
141
50.0
290
     0
  0
SCALE
  5
53
102
{ACAD_REACTORS
330
47
102
}
330
47
100
AcDbScale
 70
     0
300
1:100
140
1.0
141
100.0
290
     0
  0
SCALE
  5
54
102
{ACAD_REACTORS
330
47
102
}
330
47
100
AcDbScale
 70
     0
300
2:1
140
2.0
141
1.0
290
     0
  0
SCALE
  5
55
102
{ACAD_REACTORS
330
47
102
}
330
47
100
AcDbScale
 70
     0
300
4:1
140
4.0
141
1.0
290
     0
  0
SCALE
  5
56
102
{ACAD_REACTORS
330
47
102
}
330
47
100
AcDbScale
 70
     0
300
8:1
140
8.0
141
1.0
290
     0
  0
SCALE
  5
57
102
{ACAD_REACTORS
330
47
102
}
330
47
100
AcDbScale
 70
     0
300
10:1
140
10.0
141
1.0
290
     0
  0
SCALE
  5
58
102
{ACAD_REACTORS
330
47
102
}
330
47
100
AcDbScale
 70
     0
300
100:1
140
100.0
141
1.0
290
     0
  0
SCALE
  5
59
102
{ACAD_REACTORS
330
47
102
}
330
47
100
AcDbScale
 70
     0
300
1/128" = 1'-0"
140
0.0078125
141
12.0
290
     0
  0
SCALE
  5
5A
102
{ACAD_REACTORS
330
47
102
}
330
47
100
AcDbScale
 70
     0
300
1/64" = 1'-0"
140
0.015625
141
12.0
290
     0
  0
SCALE
  5
5B
102
{ACAD_REACTORS
330
47
102
}
330
47
100
AcDbScale
 70
     0
300
1/32" = 1'-0"
140
0.03125
141
12.0
290
     0
  0
SCALE
  5
5C
102
{ACAD_REACTORS
330
47
102
}
330
47
100
AcDbScale
 70
     0
300
1/16" = 1'-0"
140
0.0625
141
12.0
290
     0
  0
SCALE
  5
5D
102
{ACAD_REACTORS
330
47
102
}
330
47
100
AcDbScale
 70
     0
300
3/32" = 1'-0"
140
0.09375
141
12.0
290
     0
  0
SCALE
  5
5E
102
{ACAD_REACTORS
330
47
102
}
330
47
100
AcDbScale
 70
     0
300
1/8" = 1'-0"
140
0.125
141
12.0
290
     0
  0
SCALE
  5
5F
102
{ACAD_REACTORS
330
47
102
}
330
47
100
AcDbScale
 70
     0
300
3/16" = 1'-0"
140
0.1875
141
12.0
290
     0
  0
SCALE
  5
60
102
{ACAD_REACTORS
330
47
102
}
330
47
100
AcDbScale
 70
     0
300
1/4" = 1'-0"
140
0.25
141
12.0
290
     0
  0
SCALE
  5
61
102
{ACAD_REACTORS
330
47
102
}
330
47
100
AcDbScale
 70
     0
300
3/8" = 1'-0"
140
0.375
141
12.0
290
     0
  0
SCALE
  5
62
102
{ACAD_REACTORS
330
47
102
}
330
47
100
AcDbScale
 70
     0
300
1/2" = 1'-0"
140
0.5
141
12.0
290
     0
  0
SCALE
  5
63
102
{ACAD_REACTORS
330
47
102
}
330
47
100
AcDbScale
 70
     0
300
3/4" = 1'-0"
140
0.75
141
12.0
290
     0
  0
SCALE
  5
64
102
{ACAD_REACTORS
330
47
102
}
330
47
100
AcDbScale
 70
     0
300
1" = 1'-0"
140
1.0
141
12.0
290
     0
  0
SCALE
  5
65
102
{ACAD_REACTORS
330
47
102
}
330
47
100
AcDbScale
 70
     0
300
1-1/2" = 1'-0"
140
1.5
141
12.0
290
     0
  0
SCALE
  5
66
102
{ACAD_REACTORS
330
47
102
}
330
47
100
AcDbScale
 70
     0
300
3" = 1'-0"
140
3.0
141
12.0
290
     0
  0
SCALE
  5
67
102
{ACAD_REACTORS
330
47
102
}
330
47
100
AcDbScale
 70
     0
300
6" = 1'-0"
140
6.0
141
12.0
290
     0
  0
SCALE
  5
68
102
{ACAD_REACTORS
330
47
102
}
330
47
100
AcDbScale
 70
     0
300
1'-0" = 1'-0"
140
12.0
141
12.0
290
     0
  0
ENDSEC
  0
EOF
