  0
SECTION
  2
HEADER
  9
$ACADVER
  1
AC1015
  9
$ACADMAINTVER
 70
     6
  9
$DWGCODEPAGE
  3
ANSI_1250
  9
$INSBASE
 10
0.0
 20
0.0
 30
0.0
  9
$EXTMIN
 10
0.0
 20
0.0
 30
0.0
  9
$EXTMAX
 10
14850.0
 20
10500.0
 30
0.0
  9
$LIMMIN
 10
0.0
 20
0.0
  9
$LIMMAX
 10
14850.0
 20
10500.0
  9
$ORTHOMODE
 70
     0
  9
$REGENMODE
 70
     1
  9
$FILLMODE
 70
     1
  9
$QTEXTMODE
 70
     0
  9
$MIRRTEXT
 70
     1
  9
$LTSCALE
 40
25.0
  9
$ATTMODE
 70
     1
  9
$TEXTSIZE
 40
112.5
  9
$TRACEWID
 40
1.0
  9
$TEXTSTYLE
  7
Standard
  9
$CLAYER
  8
0
  9
$CELTYPE
  6
ByLayer
  9
$CECOLOR
 62
   256
  9
$CELTSCALE
 40
1.0
  9
$DISPSILH
 70
     0
  9
$DIMSCALE
 40
1.0
  9
$DIMASZ
 40
82.55
  9
$DIMEXO
 40
25.0
  9
$DIMDLI
 40
3.75
  9
$DIMRND
 40
0.0
  9
$DIMDLE
 40
0.0
  9
$DIMEXE
 40
25.0
  9
$DIMTP
 40
0.0
  9
$DIMTM
 40
0.0
  9
$DIMTXT
 40
112.5
  9
$DIMCEN
 40
2.5
  9
$DIMTSZ
 40
0.0
  9
$DIMTOL
 70
     0
  9
$DIMLIM
 70
     0
  9
$DIMTIH
 70
     1
  9
$DIMTOH
 70
     1
  9
$DIMSE1
 70
     0
  9
$DIMSE2
 70
     0
  9
$DIMTAD
 70
     1
  9
$DIMZIN
 70
     1
  9
$DIMBLK
  1

  9
$DIMASO
 70
     1
  9
$DIMSHO
 70
     1
  9
$DIMPOST
  1

  9
$DIMAPOST
  1

  9
$DIMALT
 70
     0
  9
$DIMALTD
 70
     3
  9
$DIMALTF
 40
0.0393700787
  9
$DIMLFAC
 40
1.0
  9
$DIMTOFL
 70
     1
  9
$DIMTVP
 40
0.0
  9
$DIMTIX
 70
     0
  9
$DIMSOXD
 70
     0
  9
$DIMSAH
 70
     0
  9
$DIMBLK1
  1

  9
$DIMBLK2
  1

  9
$DIMSTYLE
  2
ISO-25
  9
$DIMCLRD
 70
     0
  9
$DIMCLRE
 70
     0
  9
$DIMCLRT
 70
     0
  9
$DIMTFAC
 40
1.0
  9
$DIMGAP
 40
38.1
  9
$DIMJUST
 70
     0
  9
$DIMSD1
 70
     0
  9
$DIMSD2
 70
     0
  9
$DIMTOLJ
 70
     0
  9
$DIMTZIN
 70
     1
  9
$DIMALTZ
 70
     0
  9
$DIMALTTZ
 70
     0
  9
$DIMUPT
 70
     0
  9
$DIMDEC
 70
     0
  9
$DIMTDEC
 70
     0
  9
$DIMALTU
 70
     2
  9
$DIMALTTD
 70
     3
  9
$DIMTXSTY
  7
Standard
  9
$DIMAUNIT
 70
     0
  9
$DIMADEC
 70
     2
  9
$DIMALTRND
 40
0.0
  9
$DIMAZIN
 70
     0
  9
$DIMDSEP
 70
    44
  9
$DIMATFIT
 70
     3
  9
$DIMFRAC
 70
     0
  9
$DIMLDRBLK
  1

  9
$DIMLUNIT
 70
     2
  9
$DIMLWD
 70
    -2
  9
$DIMLWE
 70
    -2
  9
$DIMTMOVE
 70
     0
  9
$LUNITS
 70
     2
  9
$LUPREC
 70
     2
  9
$SKETCHINC
 40
1.0
  9
$FILLETRAD
 40
10.0
  9
$AUNITS
 70
     0
  9
$AUPREC
 70
     2
  9
$MENU
  1
.
  9
$ELEVATION
 40
0.0
  9
$PELEVATION
 40
0.0
  9
$THICKNESS
 40
0.0
  9
$LIMCHECK
 70
     0
  9
$CHAMFERA
 40
0.0
  9
$CHAMFERB
 40
0.0
  9
$CHAMFERC
 40
0.0
  9
$CHAMFERD
 40
0.0
  9
$SKPOLY
 70
     0
  9
$TDCREATE
 40
2460695.890464062
  9
$TDUCREATE
 40
2460695.848797396
  9
$TDUPDATE
 40
2460695.89046522
  9
$TDUUPDATE
 40
2460695.848798553
  9
$TDINDWG
 40
0.0000000116
  9
$TDUSRTIMER
 40
0.0000000116
  9
$USRTIMER
 70
     1
  9
$ANGBASE
 50
0.0
  9
$ANGDIR
 70
     0
  9
$PDMODE
 70
     0
  9
$PDSIZE
 40
-1.0
  9
$PLINEWID
 40
0.0
  9
$SPLFRAME
 70
     0
  9
$SPLINETYPE
 70
     6
  9
$SPLINESEGS
 70
     8
  9
$HANDSEED
  5
57E
  9
$SURFTAB1
 70
     6
  9
$SURFTAB2
 70
     6
  9
$SURFTYPE
 70
     6
  9
$SURFU
 70
     6
  9
$SURFV
 70
     6
  9
$UCSBASE
  2

  9
$UCSNAME
  2

  9
$UCSORG
 10
0.0
 20
0.0
 30
0.0
  9
$UCSXDIR
 10
1.0
 20
0.0
 30
0.0
  9
$UCSYDIR
 10
0.0
 20
1.0
 30
0.0
  9
$UCSORTHOREF
  2

  9
$UCSORTHOVIEW
 70
     0
  9
$UCSORGTOP
 10
0.0
 20
0.0
 30
0.0
  9
$UCSORGBOTTOM
 10
0.0
 20
0.0
 30
0.0
  9
$UCSORGLEFT
 10
0.0
 20
0.0
 30
0.0
  9
$UCSORGRIGHT
 10
0.0
 20
0.0
 30
0.0
  9
$UCSORGFRONT
 10
0.0
 20
0.0
 30
0.0
  9
$UCSORGBACK
 10
0.0
 20
0.0
 30
0.0
  9
$PUCSBASE
  2

  9
$PUCSNAME
  2

  9
$PUCSORG
 10
0.0
 20
0.0
 30
0.0
  9
$PUCSXDIR
 10
1.0
 20
0.0
 30
0.0
  9
$PUCSYDIR
 10
0.0
 20
1.0
 30
0.0
  9
$PUCSORTHOREF
  2

  9
$PUCSORTHOVIEW
 70
     0
  9
$PUCSORGTOP
 10
0.0
 20
0.0
 30
0.0
  9
$PUCSORGBOTTOM
 10
0.0
 20
0.0
 30
0.0
  9
$PUCSORGLEFT
 10
0.0
 20
0.0
 30
0.0
  9
$PUCSORGRIGHT
 10
0.0
 20
0.0
 30
0.0
  9
$PUCSORGFRONT
 10
0.0
 20
0.0
 30
0.0
  9
$PUCSORGBACK
 10
0.0
 20
0.0
 30
0.0
  9
$USERI1
 70
     0
  9
$USERI2
 70
     0
  9
$USERI3
 70
     0
  9
$USERI4
 70
     0
  9
$USERI5
 70
     0
  9
$USERR1
 40
0.0
  9
$USERR2
 40
0.0
  9
$USERR3
 40
0.0
  9
$USERR4
 40
0.0
  9
$USERR5
 40
0.0
  9
$WORLDVIEW
 70
     1
  9
$SHADEDGE
 70
     3
  9
$SHADEDIF
 70
    70
  9
$TILEMODE
 70
     1
  9
$MAXACTVP
 70
    64
  9
$PINSBASE
 10
0.0
 20
0.0
 30
0.0
  9
$PLIMCHECK
 70
     0
  9
$PEXTMIN
 10
1.0000000000E+20
 20
1.0000000000E+20
 30
1.0000000000E+20
  9
$PEXTMAX
 10
-1.0000000000E+20
 20
-1.0000000000E+20
 30
-1.0000000000E+20
  9
$PLIMMIN
 10
0.0
 20
0.0
  9
$PLIMMAX
 10
420.0
 20
297.0
  9
$UNITMODE
 70
     0
  9
$VISRETAIN
 70
     1
  9
$PLINEGEN
 70
     0
  9
$PSLTSCALE
 70
     1
  9
$TREEDEPTH
 70
  3020
  9
$CMLSTYLE
  2
Standard
  9
$CMLJUST
 70
     0
  9
$CMLSCALE
 40
20.0
  9
$PROXYGRAPHICS
 70
     1
  9
$MEASUREMENT
 70
     1
  9
$CELWEIGHT
370
    -1
  9
$ENDCAPS
280
     0
  9
$JOINSTYLE
280
     0
  9
$LWDISPLAY
290
     1
  9
$INSUNITS
 70
     4
  9
$HYPERLINKBASE
  1

  9
$STYLESHEET
  1

  9
$XEDIT
290
     1
  9
$CEPSNTYPE
380
     0
  9
$PSTYLEMODE
290
     1
  9
$FINGERPRINTGUID
  2
{8b5ffce9-84b4-457a-b7fa-3467569c62ea}
  9
$VERSIONGUID
  2
{FAEB1C32-E019-11D5-929B-00C0DF256EC4}
  9
$EXTNAMES
290
     1
  9
$PSVPSCALE
 40
0.0
  9
$OLESTARTUP
290
     0
  0
ENDSEC
  0
SECTION
  2
CLASSES
  0
CLASS
  1
ACDBDICTIONARYWDFLT
  2
AcDbDictionaryWithDefault
  3
ObjectDBX Classes
 90
        0
280
     0
281
     0
  0
CLASS
  1
VISUALSTYLE
  2
AcDbVisualStyle
  3
ObjectDBX Classes
 90
     4095
280
     0
281
     0
  0
CLASS
  1
MATERIAL
  2
AcDbMaterial
  3
ObjectDBX Classes
 90
     1153
280
     0
281
     0
  0
CLASS
  1
SCALE
  2
AcDbScale
  3
ObjectDBX Classes
 90
     1153
280
     0
281
     0
  0
CLASS
  1
TABLESTYLE
  2
AcDbTableStyle
  3
ObjectDBX Classes
 90
     4095
280
     0
281
     0
  0
CLASS
  1
MLEADERSTYLE
  2
AcDbMLeaderStyle
  3
ACDB_MLEADERSTYLE_CLASS
 90
     4095
280
     0
281
     0
  0
CLASS
  1
SUN
  2
AcDbSun
  3
SCENEOE
 90
     1153
280
     0
281
     0
  0
CLASS
  1
ACDBPLACEHOLDER
  2
AcDbPlaceHolder
  3
ObjectDBX Classes
 90
        0
280
     0
281
     0
  0
CLASS
  1
LAYOUT
  2
AcDbLayout
  3
ObjectDBX Classes
 90
        0
280
     0
281
     0
  0
ENDSEC
  0
SECTION
  2
TABLES
  0
TABLE
  2
VPORT
  5
8
330
0
100
AcDbSymbolTable
 70
     1
  0
VPORT
  5
29
330
8
100
AcDbSymbolTableRecord
100
AcDbViewportTableRecord
  2
*Active
 70
     0
 10
0.0
 20
0.0
 11
1.0
 21
1.0
 12
7425.0
 22
5250.0
 13
0.0
 23
0.0
 14
10.0
 24
10.0
 15
10.0
 25
10.0
 16
0.0
 26
0.0
 36
1.0
 17
0.0
 27
0.0
 37
0.0
 40
10500.0
 41
1.4142857143
 42
50.0
 43
0.0
 44
0.0
 50
0.0
 51
0.0
 71
     0
 72
  2000
 73
     1
 74
     3
 75
     0
 76
     0
 77
     0
 78
     0
281
     0
 65
     1
110
0.0
120
0.0
130
0.0
111
1.0
121
0.0
131
0.0
112
0.0
122
1.0
132
0.0
 79
     0
146
0.0
  0
ENDTAB
  0
TABLE
  2
LTYPE
  5
5
330
0
100
AcDbSymbolTable
 70
     6
  0
LTYPE
  5
14
330
5
100
AcDbSymbolTableRecord
100
AcDbLinetypeTableRecord
  2
ByBlock
 70
     0
  3

 72
    65
 73
     0
 40
0.0
  0
LTYPE
  5
15
330
5
100
AcDbSymbolTableRecord
100
AcDbLinetypeTableRecord
  2
ByLayer
 70
     0
  3

 72
    65
 73
     0
 40
0.0
  0
LTYPE
  5
16
330
5
100
AcDbSymbolTableRecord
100
AcDbLinetypeTableRecord
  2
Continuous
 70
     0
  3
Solid line
 72
    65
 73
     0
 40
0.0
  0
LTYPE
  5
6E
330
5
100
AcDbSymbolTableRecord
100
AcDbLinetypeTableRecord
  2
HIDDEN
 70
     0
  3
Hidden __ __ __ __ __ __ __ __ __ __ __ __ __ __
 72
    65
 73
     2
 40
1.905
 49
1.27
 74
     0
 49
-0.635
 74
     0
  0
LTYPE
  5
6F
330
5
100
AcDbSymbolTableRecord
100
AcDbLinetypeTableRecord
  2
PHANTOM
 70
     0
  3
Phantom ______  __  __  ______  __  __  ______
 72
    65
 73
     6
 40
12.7
 49
6.35
 74
     0
 49
-1.27
 74
     0
 49
1.27
 74
     0
 49
-1.27
 74
     0
 49
1.27
 74
     0
 49
-1.27
 74
     0
  0
LTYPE
  5
70
330
5
100
AcDbSymbolTableRecord
100
AcDbLinetypeTableRecord
  2
CENTER
 70
     0
  3
Center ____ _ ____ _ ____ _ ____ _ ____ _ ____
 72
    65
 73
     4
 40
10.16
 49
6.35
 74
     0
 49
-1.27
 74
     0
 49
1.27
 74
     0
 49
-1.27
 74
     0
  0
LTYPE
  5
71
330
5
100
AcDbSymbolTableRecord
100
AcDbLinetypeTableRecord
  2
CENTERX2
 70
     0
  3
Center (2x) ________  __  ________  __  _____
 72
    65
 73
     4
 40
20.32
 49
12.7
 74
     0
 49
-2.54
 74
     0
 49
2.54
 74
     0
 49
-2.54
 74
     0
  0
LTYPE
  5
72
330
5
100
AcDbSymbolTableRecord
100
AcDbLinetypeTableRecord
  2
DOT2
 70
     0
  3
Dot (.5x) ........................................
 72
    65
 73
     2
 40
0.635
 49
0.0
 74
     0
 49
-0.635
 74
     0
  0
ENDTAB
  0
TABLE
  2
LAYER
  5
2
330
0
100
AcDbSymbolTable
 70
     2
  0
LAYER
  5
10
330
2
100
AcDbSymbolTableRecord
100
AcDbLayerTableRecord
  2
0
 70
     0
 62
     7
  6
Continuous
370
    -3
390
F
  0
LAYER
  5
73
330
2
100
AcDbSymbolTableRecord
100
AcDbLayerTableRecord
  2
FORMAT
 70
     0
 62
     7
  6
Continuous
370
    -3
390
F
  0
ENDTAB
  0
TABLE
  2
STYLE
  5
3
330
0
100
AcDbSymbolTable
 70
     2
  0
STYLE
  5
11
330
3
100
AcDbSymbolTableRecord
100
AcDbTextStyleTableRecord
  2
Standard
 70
     0
 40
0.0
 41
1.0
 50
0.0
 71
     0
 42
112.5
  3
txt
  4

  0
STYLE
  5
147
330
3
100
AcDbSymbolTableRecord
100
AcDbTextStyleTableRecord
  2
SLDTEXTSTYLE0
 70
     0
 40
0.0
 41
0.75
 50
0.0
 71
     0
 42
112.5
  3
TXT
  4

  0
ENDTAB
  0
TABLE
  2
VIEW
  5
6
330
0
100
AcDbSymbolTable
 70
     0
  0
ENDTAB
  0
TABLE
  2
UCS
  5
7
330
0
100
AcDbSymbolTable
 70
     0
  0
ENDTAB
  0
TABLE
  2
APPID
  5
9
330
0
100
AcDbSymbolTable
 70
     1
  0
APPID
  5
12
330
9
100
AcDbSymbolTableRecord
100
AcDbRegAppTableRecord
  2
ACAD
 70
     0
  0
ENDTAB
  0
TABLE
  2
DIMSTYLE
  5
A
330
0
100
AcDbSymbolTable
 70
     3
100
AcDbDimStyleTable
  0
DIMSTYLE
105
27
330
A
100
AcDbSymbolTableRecord
100
AcDbDimStyleTableRecord
  2
ISO-25
 70
     0
 41
2.5
 42
0.625
 43
3.75
 44
1.25
 73
     0
 74
     0
 77
     1
 78
     8
140
2.5
141
2.5
143
0.0393700787
147
0.625
171
     3
172
     1
178
     0
271
     2
272
     2
274
     3
278
    44
283
     0
284
     8
340
11
  0
DIMSTYLE
105
148
102
{ACAD_REACTORS
330
146
330
152
330
15C
330
165
330
177
330
181
330
18B
330
3F2
330
3FC
330
406
330
574
102
}
330
A
100
AcDbSymbolTableRecord
100
AcDbDimStyleTableRecord
  2
SLDDIMSTYLE0
 70
     0
 41
82.55
 44
0.0
 45
0.000000001
 73
     0
 74
     0
 77
     1
 78
    12
 79
     3
140
112.5
147
28.125
173
     1
178
     0
271
     0
272
     0
276
     2
284
    12
340
147
  0
DIMSTYLE
105
16F
102
{ACAD_REACTORS
330
16E
102
}
330
A
100
AcDbSymbolTableRecord
100
AcDbDimStyleTableRecord
  2
SLDDIMSTYLE1
 70
     0
 41
82.55
 44
0.0
 73
     0
 74
     0
 77
     1
 78
    12
 79
     3
140
112.5
144
25.0
147
28.125
173
     1
178
     0
179
     2
272
     2
276
     2
284
    12
340
147
  0
ENDTAB
  0
TABLE
  2
BLOCK_RECORD
  5
1
330
0
100
AcDbSymbolTable
 70
    13
  0
BLOCK_RECORD
  5
1F
330
1
100
AcDbSymbolTableRecord
100
AcDbBlockTableRecord
  2
*Model_Space
340
22
  0
BLOCK_RECORD
  5
1B
330
1
100
AcDbSymbolTableRecord
100
AcDbBlockTableRecord
  2
*Paper_Space
340
1E
  0
BLOCK_RECORD
  5
23
330
1
100
AcDbSymbolTableRecord
100
AcDbBlockTableRecord
  2
*Paper_Space0
340
26
  0
BLOCK_RECORD
  5
149
330
1
100
AcDbSymbolTableRecord
100
AcDbBlockTableRecord
  2
_D
340
0
  0
BLOCK_RECORD
  5
153
330
1
100
AcDbSymbolTableRecord
100
AcDbBlockTableRecord
  2
_D_1
340
0
  0
BLOCK_RECORD
  5
15D
330
1
100
AcDbSymbolTableRecord
100
AcDbBlockTableRecord
  2
_D_2
340
0
  0
BLOCK_RECORD
  5
166
330
1
100
AcDbSymbolTableRecord
100
AcDbBlockTableRecord
  2
_D_3
340
0
  0
BLOCK_RECORD
  5
170
330
1
100
AcDbSymbolTableRecord
100
AcDbBlockTableRecord
  2
_D_4
340
0
  0
BLOCK_RECORD
  5
178
330
1
100
AcDbSymbolTableRecord
100
AcDbBlockTableRecord
  2
_D_5
340
0
  0
BLOCK_RECORD
  5
182
330
1
100
AcDbSymbolTableRecord
100
AcDbBlockTableRecord
  2
_D_6
340
0
  0
BLOCK_RECORD
  5
18C
330
1
100
AcDbSymbolTableRecord
100
AcDbBlockTableRecord
  2
_D_7
340
0
  0
BLOCK_RECORD
  5
3F3
330
1
100
AcDbSymbolTableRecord
100
AcDbBlockTableRecord
  2
_D_8
340
0
  0
BLOCK_RECORD
  5
3FD
330
1
100
AcDbSymbolTableRecord
100
AcDbBlockTableRecord
  2
_D_9
340
0
  0
BLOCK_RECORD
  5
407
330
1
100
AcDbSymbolTableRecord
100
AcDbBlockTableRecord
  2
_D_10
340
0
  0
BLOCK_RECORD
  5
575
330
1
100
AcDbSymbolTableRecord
100
AcDbBlockTableRecord
  2
_D_11
340
0
  0
ENDTAB
  0
ENDSEC
  0
SECTION
  2
BLOCKS
  0
BLOCK
  5
20
330
1F
100
AcDbEntity
  8
0
100
AcDbBlockBegin
  2
*Model_Space
 70
     0
 10
0.0
 20
0.0
 30
0.0
  3
*Model_Space
  1

  0
ENDBLK
  5
21
330
1F
100
AcDbEntity
  8
0
100
AcDbBlockEnd
  0
BLOCK
  5
1C
330
1B
100
AcDbEntity
 67
     1
  8
0
100
AcDbBlockBegin
  2
*Paper_Space
 70
     0
 10
0.0
 20
0.0
 30
0.0
  3
*Paper_Space
  1

  0
ENDBLK
  5
1D
330
1B
100
AcDbEntity
 67
     1
  8
0
100
AcDbBlockEnd
  0
BLOCK
  5
24
330
23
100
AcDbEntity
  8
0
100
AcDbBlockBegin
  2
*Paper_Space0
 70
     0
 10
0.0
 20
0.0
 30
0.0
  3
*Paper_Space0
  1

  0
ENDBLK
  5
25
330
23
100
AcDbEntity
  8
0
100
AcDbBlockEnd
  0
BLOCK
  5
14A
330
149
100
AcDbEntity
  8
0
100
AcDbBlockBegin
  2
_D
 70
     0
 10
0.0
 20
0.0
 30
0.0
  3
_D
  1

  0
SOLID
  5
14C
330
149
100
AcDbEntity
  8
0
  6
Continuous
 62
     7
370
    18
100
AcDbTrace
 10
10463.6752425716
 20
8102.4224872645
 30
0.0
 11
10450.9752425716
 21
8019.8724872645
 31
0.0
 12
10476.3752425716
 22
8019.8724872645
 32
0.0
 13
10476.3752425716
 23
8019.8724872645
 33
0.0
  0
SOLID
  5
14D
330
149
100
AcDbEntity
  8
0
  6
Continuous
 62
     7
370
    18
100
AcDbTrace
 10
10463.6752425716
 20
7462.0389324543
 30
0.0
 11
10476.3752425716
 21
7544.5889324543
 31
0.0
 12
10450.9752425716
 22
7544.5889324543
 32
0.0
 13
10450.9752425716
 23
7544.5889324543
 33
0.0
  0
LINE
  5
14E
330
149
100
AcDbEntity
  8
0
  6
Continuous
 62
     7
370
     0
100
AcDbLine
 10
10312.1709669973
 20
8102.4224872645
 30
0.0
 11
10488.6752425716
 21
8102.4224872645
 31
0.0
  0
LINE
  5
14F
330
149
100
AcDbEntity
  8
0
  6
Continuous
 62
     7
370
     0
100
AcDbLine
 10
10349.0221998884
 20
7462.0389324543
 30
0.0
 11
10488.6752425716
 21
7462.0389324543
 31
0.0
  0
LINE
  5
150
330
149
100
AcDbEntity
  8
0
  6
Continuous
 62
     7
370
     0
100
AcDbLine
 10
10463.6752425716
 20
8102.4224872645
 30
0.0
 11
10463.6752425716
 21
7462.0389324543
 31
0.0
  0
MTEXT
  5
151
330
149
100
AcDbEntity
  8
0
  6
Continuous
 62
     7
370
    18
100
AcDbMText
 10
10318.6551276681
 20
7610.4219807593
 30
0.0
 40
112.5
 41
0.0
 71
     1
 72
     1
  1
640
  7
SLDTEXTSTYLE0
 11
-3.491481338843133E-15
 21
1.0
 31
0.0
 73
     1
 44
1.0
  0
ENDBLK
  5
14B
330
149
100
AcDbEntity
  8
0
100
AcDbBlockEnd
  0
BLOCK
  5
154
330
153
100
AcDbEntity
  8
0
100
AcDbBlockBegin
  2
_D_1
 70
     0
 10
0.0
 20
0.0
 30
0.0
  3
_D_1
  1

  0
SOLID
  5
156
330
153
100
AcDbEntity
  8
0
  6
Continuous
 62
     7
370
    18
100
AcDbTrace
 10
10687.1709669973
 20
8209.2264573822
 30
0.0
 11
10674.4709669973
 21
8126.6764573822
 31
0.0
 12
10699.8709669973
 22
8126.6764573822
 32
0.0
 13
10699.8709669973
 23
8126.6764573822
 33
0.0
  0
SOLID
  5
157
330
153
100
AcDbEntity
  8
0
  6
Continuous
 62
     7
370
    18
100
AcDbTrace
 10
10687.1709669973
 20
7462.0389324543
 30
0.0
 11
10699.8709669973
 21
7544.5889324543
 31
0.0
 12
10674.4709669973
 22
7544.5889324543
 32
0.0
 13
10674.4709669973
 23
7544.5889324543
 33
0.0
  0
LINE
  5
158
330
153
100
AcDbEntity
  8
0
  6
Continuous
 62
     7
370
     0
100
AcDbLine
 10
9988.4810506157
 20
8209.2264573822
 30
0.0
 11
10712.1709669973
 21
8209.2264573822
 31
0.0
  0
LINE
  5
159
330
153
100
AcDbEntity
  8
0
  6
Continuous
 62
     7
370
     0
100
AcDbLine
 10
10349.0221998884
 20
7462.0389324543
 30
0.0
 11
10712.1709669973
 21
7462.0389324543
 31
0.0
  0
LINE
  5
15A
330
153
100
AcDbEntity
  8
0
  6
Continuous
 62
     7
370
     0
100
AcDbLine
 10
10687.1709669973
 20
8209.2264573822
 30
0.0
 11
10687.1709669973
 21
7462.0389324543
 31
0.0
  0
MTEXT
  5
15B
330
153
100
AcDbEntity
  8
0
  6
Continuous
 62
     7
370
    18
100
AcDbMText
 10
10542.1508520937
 20
7687.4720761674
 30
0.0
 40
112.5
 41
0.0
 71
     1
 72
     1
  1
747
  7
SLDTEXTSTYLE0
 11
-3.491481338843133E-15
 21
1.0
 31
0.0
 73
     1
 44
1.0
  0
ENDBLK
  5
155
330
153
100
AcDbEntity
  8
0
100
AcDbBlockEnd
  0
BLOCK
  5
15E
330
15D
100
AcDbEntity
  8
0
100
AcDbBlockBegin
  2
_D_2
 70
     0
 10
0.0
 20
0.0
 30
0.0
  3
_D_2
  1

  0
SOLID
  5
160
330
15D
100
AcDbEntity
  8
0
  6
Continuous
 62
     7
370
    18
100
AcDbTrace
 10
8017.0273261379
 20
8850.3383604429
 30
0.0
 11
8004.3273261379
 21
8767.7883604429
 31
0.0
 12
8029.7273261379
 22
8767.7883604429
 32
0.0
 13
8029.7273261379
 23
8767.7883604429
 33
0.0
  0
SOLID
  5
161
330
15D
100
AcDbEntity
  8
0
  6
Continuous
 62
     7
370
    18
100
AcDbTrace
 10
8017.0273261379
 20
7462.0389324543
 30
0.0
 11
8029.7273261379
 21
7544.5889324543
 31
0.0
 12
8004.3273261379
 22
7544.5889324543
 32
0.0
 13
8004.3273261379
 23
7544.5889324543
 33
0.0
  0
LINE
  5
162
330
15D
100
AcDbEntity
  8
0
  6
Continuous
 62
     7
370
     0
100
AcDbLine
 10
8563.6121376811
 20
8850.3383604429
 30
0.0
 11
7992.0273261379
 21
8850.3383604429
 31
0.0
  0
LINE
  5
163
330
15D
100
AcDbEntity
  8
0
  6
Continuous
 62
     7
370
     0
100
AcDbLine
 10
8017.0273261379
 20
8850.3383604429
 30
0.0
 11
8017.0273261379
 21
7462.0389324543
 31
0.0
  0
MTEXT
  5
164
330
15D
100
AcDbEntity
  8
0
  6
Continuous
 62
     7
370
    18
100
AcDbMText
 10
7872.0072112343
 20
7966.1414192683
 30
0.0
 40
112.5
 41
0.0
 71
     1
 72
     1
  1
1388
  7
SLDTEXTSTYLE0
 11
-3.491481338843133E-15
 21
1.0
 31
0.0
 73
     1
 44
1.0
  0
ENDBLK
  5
15F
330
15D
100
AcDbEntity
  8
0
100
AcDbBlockEnd
  0
BLOCK
  5
167
330
166
100
AcDbEntity
  8
0
100
AcDbBlockBegin
  2
_D_3
 70
     0
 10
0.0
 20
0.0
 30
0.0
  3
_D_3
  1

  0
SOLID
  5
169
330
166
100
AcDbEntity
  8
0
  6
Continuous
 62
     7
370
    18
100
AcDbTrace
 10
7739.5956772826
 20
9065.9921240333
 30
0.0
 11
7726.8956772826
 21
8983.4421240333
 31
0.0
 12
7752.2956772826
 22
8983.4421240333
 32
0.0
 13
7752.2956772826
 23
8983.4421240333
 33
0.0
  0
SOLID
  5
16A
330
166
100
AcDbEntity
  8
0
  6
Continuous
 62
     7
370
    18
100
AcDbTrace
 10
7739.5956772825
 20
7462.0389324543
 30
0.0
 11
7752.2956772825
 21
7544.5889324543
 31
0.0
 12
7726.8956772825
 22
7544.5889324543
 32
0.0
 13
7726.8956772825
 23
7544.5889324543
 33
0.0
  0
LINE
  5
16B
330
166
100
AcDbEntity
  8
0
  6
Continuous
 62
     7
370
     0
100
AcDbLine
 10
8195.7892125537
 20
9065.9921240333
 30
0.0
 11
7714.5956772826
 21
9065.9921240333
 31
0.0
  0
LINE
  5
16C
330
166
100
AcDbEntity
  8
0
  6
Continuous
 62
     7
370
     0
100
AcDbLine
 10
7739.5956772826
 20
9065.9921240333
 30
0.0
 11
7739.5956772825
 21
7462.0389324543
 31
0.0
  0
MTEXT
  5
16D
330
166
100
AcDbEntity
  8
0
  6
Continuous
 62
     7
370
    18
100
AcDbMText
 10
7594.575562379
 20
8126.5312578592
 30
0.0
 40
112.5
 41
0.0
 71
     1
 72
     1
  1
1604
  7
SLDTEXTSTYLE0
 11
-3.491481338843133E-15
 21
1.0
 31
0.0
 73
     1
 44
1.0
  0
ENDBLK
  5
168
330
166
100
AcDbEntity
  8
0
100
AcDbBlockEnd
  0
BLOCK
  5
171
330
170
100
AcDbEntity
  8
0
100
AcDbBlockBegin
  2
_D_4
 70
     0
 10
0.0
 20
0.0
 30
0.0
  3
_D_4
  1

  0
ARC
  5
173
330
170
100
AcDbEntity
  8
0
  6
Continuous
 62
     7
370
    18
100
AcDbCircle
 10
11063.0120323222
 20
7462.0389324543
 30
0.0
 40
2545.69860771896
100
AcDbArc
 50
155.0
 51
180.0
  0
SOLID
  5
174
330
170
100
AcDbEntity
  8
0
  6
Continuous
 62
     7
370
    18
100
AcDbTrace
 10
8755.8255606982
 20
8537.8976529642
 30
0.0
 11
8710.5599758222
 21
8467.7063477631
 31
0.0
 12
8733.7511466284
 22
8457.3463479253
 32
0.0
 13
8733.7511466284
 23
8457.3463479253
 33
0.0
  0
SOLID
  5
175
330
170
100
AcDbEntity
  8
0
  6
Continuous
 62
     7
370
    18
100
AcDbTrace
 10
8517.3134246032
 20
7462.0389324543
 30
0.0
 11
8531.349663754
 21
7544.3722579702
 31
0.0
 12
8505.9529999388
 22
7544.7839217373
 32
0.0
 13
8505.9529999388
 23
7544.7839217373
 33
0.0
  0
MTEXT
  5
176
330
170
100
AcDbEntity
  8
0
  6
Continuous
 62
     7
370
    18
100
AcDbMText
 10
8400.5333864919
 20
7866.9734601155
 30
0.0
 40
112.5
 41
0.0
 71
     1
 72
     1
  1
25°
  7
SLDTEXTSTYLE0
 11
0.1917555471367861
 21
0.9814427187270135
 31
0.0
 73
     1
 44
1.0
  0
ENDBLK
  5
172
330
170
100
AcDbEntity
  8
0
100
AcDbBlockEnd
  0
BLOCK
  5
179
330
178
100
AcDbEntity
  8
0
100
AcDbBlockBegin
  2
_D_5
 70
     0
 10
0.0
 20
0.0
 30
0.0
  3
_D_5
  1

  0
SOLID
  5
17B
330
178
100
AcDbEntity
  8
0
  6
Continuous
 62
     7
370
    18
100
AcDbTrace
 10
8297.9657148261
 20
9231.4976672568
 30
0.0
 11
8367.4141707218
 21
9185.1004208548
 31
0.0
 12
8378.1486745701
 22
9208.1206386455
 32
0.0
 13
8378.1486745701
 23
9208.1206386455
 33
0.0
  0
SOLID
  5
17C
330
178
100
AcDbEntity
  8
0
  6
Continuous
 62
     7
370
    18
100
AcDbTrace
 10
10364.3474692696
 20
8267.9280304879
 30
0.0
 11
10294.8990133738
 21
8314.3252768899
 31
0.0
 12
10284.1645095256
 22
8291.3050590992
 32
0.0
 13
10284.1645095256
 23
8291.3050590992
 33
0.0
  0
LINE
  5
17D
330
178
100
AcDbEntity
  8
0
  6
Continuous
 62
     7
370
     0
100
AcDbLine
 10
8231.3546690973
 20
9088.6498187091
 30
0.0
 11
8308.5311713696
 21
9254.1553619328
 31
0.0
  0
LINE
  5
17E
330
178
100
AcDbEntity
  8
0
  6
Continuous
 62
     7
370
     0
100
AcDbLine
 10
10297.7364235409
 20
8125.0801819403
 30
0.0
 11
10374.9129258131
 21
8290.5857251638
 31
0.0
  0
LINE
  5
17F
330
178
100
AcDbEntity
  8
0
  6
Continuous
 62
     7
370
     0
100
AcDbLine
 10
8297.9657148261
 20
9231.4976672568
 30
0.0
 11
10364.3474692696
 21
8267.9280304879
 31
0.0
  0
MTEXT
  5
180
330
178
100
AcDbEntity
  8
0
  6
Continuous
 62
     7
370
    18
100
AcDbMText
 10
9259.9318484947
 20
8942.9374848313
 30
0.0
 40
112.5
 41
0.0
 71
     1
 72
     1
  1
2280
  7
SLDTEXTSTYLE0
 11
0.9063077870366163
 21
-0.4226182617407717
 31
0.0
 73
     1
 44
1.0
  0
ENDBLK
  5
17A
330
178
100
AcDbEntity
  8
0
100
AcDbBlockEnd
  0
BLOCK
  5
183
330
182
100
AcDbEntity
  8
0
100
AcDbBlockBegin
  2
_D_6
 70
     0
 10
0.0
 20
0.0
 30
0.0
  3
_D_6
  1

  0
SOLID
  5
185
330
182
100
AcDbEntity
  8
0
  6
Continuous
 62
     7
370
    18
100
AcDbTrace
 10
10040.3986984371
 20
9288.0825063011
 30
0.0
 11
9957.8486984371
 21
9300.7825063011
 31
0.0
 12
9957.8486984371
 22
9275.3825063011
 32
0.0
 13
9957.8486984371
 23
9275.3825063011
 33
0.0
  0
SOLID
  5
186
330
182
100
AcDbEntity
  8
0
  6
Continuous
 62
     7
370
    18
100
AcDbTrace
 10
8427.1708375118
 20
9288.0825063011
 30
0.0
 11
8509.7208375118
 21
9275.3825063011
 31
0.0
 12
8509.7208375118
 22
9300.7825063011
 32
0.0
 13
8509.7208375118
 23
9300.7825063011
 33
0.0
  0
LINE
  5
187
330
182
100
AcDbEntity
  8
0
  6
Continuous
 62
     7
370
     0
100
AcDbLine
 10
10040.3986984371
 20
8088.0213772596
 30
0.0
 11
10040.3986984371
 21
9313.0825063011
 31
0.0
  0
LINE
  5
188
330
182
100
AcDbEntity
  8
0
  6
Continuous
 62
     7
370
     0
100
AcDbLine
 10
8427.1708375118
 20
8840.281883158
 30
0.0
 11
8427.1708375118
 21
9313.0825063011
 31
0.0
  0
LINE
  5
189
330
182
100
AcDbEntity
  8
0
  6
Continuous
 62
     7
370
     0
100
AcDbLine
 10
10040.3986984371
 20
9288.0825063011
 30
0.0
 11
8427.1708375118
 21
9288.0825063011
 31
0.0
  0
MTEXT
  5
18A
330
182
100
AcDbEntity
  8
0
  6
Continuous
 62
     7
370
    18
100
AcDbMText
 10
8988.8411906247
 20
9433.1026212046
 30
0.0
 40
112.5
 41
0.0
 71
     1
 72
     1
  1
1613
  7
SLDTEXTSTYLE0
 73
     1
 44
1.0
  0
ENDBLK
  5
184
330
182
100
AcDbEntity
  8
0
100
AcDbBlockEnd
  0
BLOCK
  5
18D
330
18C
100
AcDbEntity
  8
0
100
AcDbBlockBegin
  2
_D_7
 70
     0
 10
0.0
 20
0.0
 30
0.0
  3
_D_7
  1

  0
SOLID
  5
18F
330
18C
100
AcDbEntity
  8
0
  6
Continuous
 62
     7
370
    18
100
AcDbTrace
 10
8220.7892125538
 20
9562.1225499159
 30
0.0
 11
8303.3392125538
 21
9549.4225499159
 31
0.0
 12
8303.3392125538
 22
9574.8225499159
 32
0.0
 13
8303.3392125538
 23
9574.8225499159
 33
0.0
  0
SOLID
  5
190
330
18C
100
AcDbEntity
  8
0
  6
Continuous
 62
     7
370
    18
100
AcDbTrace
 10
10287.1709669973
 20
9562.1225499159
 30
0.0
 11
10204.6209669973
 21
9574.8225499159
 31
0.0
 12
10204.6209669973
 22
9549.4225499159
 32
0.0
 13
10204.6209669973
 23
9549.4225499159
 33
0.0
  0
LINE
  5
191
330
18C
100
AcDbEntity
  8
0
  6
Continuous
 62
     7
370
     0
100
AcDbLine
 10
8220.7892125538
 20
9090.9921240332
 30
0.0
 11
8220.7892125538
 21
9587.1225499159
 31
0.0
  0
LINE
  5
192
330
18C
100
AcDbEntity
  8
0
  6
Continuous
 62
     7
370
     0
100
AcDbLine
 10
10287.1709669973
 20
8127.4224872644
 30
0.0
 11
10287.1709669973
 21
9587.1225499159
 31
0.0
  0
LINE
  5
193
330
18C
100
AcDbEntity
  8
0
  6
Continuous
 62
     7
370
     0
100
AcDbLine
 10
8220.7892125538
 20
9562.1225499159
 30
0.0
 11
10287.1709669973
 21
9562.1225499159
 31
0.0
  0
MTEXT
  5
194
330
18C
100
AcDbEntity
  8
0
  6
Continuous
 62
     7
370
    18
100
AcDbMText
 10
8937.9883990261
 20
9707.1426648194
 30
0.0
 40
112.5
 41
0.0
 71
     1
 72
     1
  1
2066
  7
SLDTEXTSTYLE0
 73
     1
 44
1.0
  0
ENDBLK
  5
18E
330
18C
100
AcDbEntity
  8
0
100
AcDbBlockEnd
  0
BLOCK
  5
3F4
330
3F3
100
AcDbEntity
  8
0
100
AcDbBlockBegin
  2
_D_8
 70
     0
 10
0.0
 20
0.0
 30
0.0
  3
_D_8
  1

  0
SOLID
  5
3F6
330
3F3
100
AcDbEntity
  8
0
  6
Continuous
 62
     7
370
    18
100
AcDbTrace
 10
2087.8016882331
 20
5812.0389322872
 30
0.0
 11
2170.3516882331
 21
5799.3389322872
 31
0.0
 12
2170.3516882331
 22
5824.7389322872
 32
0.0
 13
2170.3516882331
 23
5824.7389322872
 33
0.0
  0
SOLID
  5
3F7
330
3F3
100
AcDbEntity
  8
0
  6
Continuous
 62
     7
370
    18
100
AcDbTrace
 10
3957.8016882331
 20
5812.0389322872
 30
0.0
 11
3875.2516882331
 21
5824.7389322872
 31
0.0
 12
3875.2516882331
 22
5799.3389322872
 32
0.0
 13
3875.2516882331
 23
5799.3389322872
 33
0.0
  0
LINE
  5
3F8
330
3F3
100
AcDbEntity
  8
0
  6
Continuous
 62
     7
370
     0
100
AcDbLine
 10
2087.8016882331
 20
6037.0389322874
 30
0.0
 11
2087.8016882331
 21
5787.0389322872
 31
0.0
  0
LINE
  5
3F9
330
3F3
100
AcDbEntity
  8
0
  6
Continuous
 62
     7
370
     0
100
AcDbLine
 10
3957.8016882331
 20
6037.0389322874
 30
0.0
 11
3957.8016882331
 21
5787.0389322872
 31
0.0
  0
LINE
  5
3FA
330
3F3
100
AcDbEntity
  8
0
  6
Continuous
 62
     7
370
     0
100
AcDbLine
 10
2087.8016882331
 20
5812.0389322872
 30
0.0
 11
3957.8016882331
 21
5812.0389322872
 31
0.0
  0
MTEXT
  5
3FB
330
3F3
100
AcDbEntity
  8
0
  6
Continuous
 62
     7
370
    18
100
AcDbMText
 10
2820.6040641364
 20
5957.0590471908
 30
0.0
 40
112.5
 41
0.0
 71
     1
 72
     1
  1
1870
  7
SLDTEXTSTYLE0
 73
     1
 44
1.0
  0
ENDBLK
  5
3F5
330
3F3
100
AcDbEntity
  8
0
100
AcDbBlockEnd
  0
BLOCK
  5
3FE
330
3FD
100
AcDbEntity
  8
0
100
AcDbBlockBegin
  2
_D_9
 70
     0
 10
0.0
 20
0.0
 30
0.0
  3
_D_9
  1

  0
SOLID
  5
400
330
3FD
100
AcDbEntity
  8
0
  6
Continuous
 62
     7
370
    18
100
AcDbTrace
 10
3957.8016882331
 20
5788.4382089136
 30
0.0
 11
4040.3516882331
 21
5775.7382089136
 31
0.0
 12
4040.3516882331
 22
5801.1382089136
 32
0.0
 13
4040.3516882331
 23
5801.1382089136
 33
0.0
  0
SOLID
  5
401
330
3FD
100
AcDbEntity
  8
0
  6
Continuous
 62
     7
370
    18
100
AcDbTrace
 10
6327.8016882331
 20
5788.4382089136
 30
0.0
 11
6245.2516882331
 21
5801.1382089136
 31
0.0
 12
6245.2516882331
 22
5775.7382089136
 32
0.0
 13
6245.2516882331
 23
5775.7382089136
 33
0.0
  0
LINE
  5
402
330
3FD
100
AcDbEntity
  8
0
  6
Continuous
 62
     7
370
     0
100
AcDbLine
 10
3957.8016882331
 20
6037.0389322874
 30
0.0
 11
3957.8016882331
 21
5763.4382089136
 31
0.0
  0
LINE
  5
403
330
3FD
100
AcDbEntity
  8
0
  6
Continuous
 62
     7
370
     0
100
AcDbLine
 10
6327.8016882331
 20
6037.0389322873
 30
0.0
 11
6327.8016882331
 21
5763.4382089136
 31
0.0
  0
LINE
  5
404
330
3FD
100
AcDbEntity
  8
0
  6
Continuous
 62
     7
370
     0
100
AcDbLine
 10
3957.8016882331
 20
5788.4382089136
 30
0.0
 11
6327.8016882331
 21
5788.4382089136
 31
0.0
  0
MTEXT
  5
405
330
3FD
100
AcDbEntity
  8
0
  6
Continuous
 62
     7
370
    18
100
AcDbMText
 10
4911.7194020648
 20
5933.4583238172
 30
0.0
 40
112.5
 41
0.0
 71
     1
 72
     1
  1
2370
  7
SLDTEXTSTYLE0
 73
     1
 44
1.0
  0
ENDBLK
  5
3FF
330
3FD
100
AcDbEntity
  8
0
100
AcDbBlockEnd
  0
BLOCK
  5
408
330
407
100
AcDbEntity
  8
0
100
AcDbBlockBegin
  2
_D_10
 70
     0
 10
0.0
 20
0.0
 30
0.0
  3
_D_10
  1

  0
SOLID
  5
40A
330
407
100
AcDbEntity
  8
0
  6
Continuous
 62
     7
370
    18
100
AcDbTrace
 10
1932.8016882331
 20
9315.9921238663
 30
0.0
 11
2015.3516882331
 21
9303.2921238663
 31
0.0
 12
2015.3516882331
 22
9328.6921238663
 32
0.0
 13
2015.3516882331
 23
9328.6921238663
 33
0.0
  0
SOLID
  5
40B
330
407
100
AcDbEntity
  8
0
  6
Continuous
 62
     7
370
    18
100
AcDbTrace
 10
3072.8016882331
 20
9315.9921238663
 30
0.0
 11
2990.2516882331
 21
9328.6921238663
 31
0.0
 12
2990.2516882331
 22
9303.2921238663
 32
0.0
 13
2990.2516882331
 23
9303.2921238663
 33
0.0
  0
LINE
  5
40C
330
407
100
AcDbEntity
  8
0
  6
Continuous
 62
     7
370
     0
100
AcDbLine
 10
1932.8016882331
 20
9090.9921238663
 30
0.0
 11
1932.8016882331
 21
9340.9921238663
 31
0.0
  0
LINE
  5
40D
330
407
100
AcDbEntity
  8
0
  6
Continuous
 62
     7
370
     0
100
AcDbLine
 10
3072.8016882331
 20
9090.9921238663
 30
0.0
 11
3072.8016882331
 21
9340.9921238663
 31
0.0
  0
LINE
  5
40E
330
407
100
AcDbEntity
  8
0
  6
Continuous
 62
     7
370
     0
100
AcDbLine
 10
1932.8016882331
 20
9315.9921238663
 30
0.0
 11
3072.8016882331
 21
9315.9921238663
 31
0.0
  0
MTEXT
  5
40F
330
407
100
AcDbEntity
  8
0
  6
Continuous
 62
     7
370
    18
100
AcDbMText
 10
2354.0649323493
 20
9461.0122387699
 30
0.0
 40
112.5
 41
0.0
 71
     1
 72
     1
  1
1140
  7
SLDTEXTSTYLE0
 73
     1
 44
1.0
  0
ENDBLK
  5
409
330
407
100
AcDbEntity
  8
0
100
AcDbBlockEnd
  0
BLOCK
  5
576
330
575
100
AcDbEntity
  8
0
100
AcDbBlockBegin
  2
_D_11
 70
     0
 10
0.0
 20
0.0
 30
0.0
  3
_D_11
  1

  0
SOLID
  5
578
330
575
100
AcDbEntity
  8
0
  6
Continuous
 62
     7
370
    18
100
AcDbTrace
 10
1897.801688233
 20
4986.1550840916
 30
0.0
 11
1980.351688233
 21
4973.4550840916
 31
0.0
 12
1980.351688233
 22
4998.8550840916
 32
0.0
 13
1980.351688233
 23
4998.8550840916
 33
0.0
  0
SOLID
  5
579
330
575
100
AcDbEntity
  8
0
  6
Continuous
 62
     7
370
    18
100
AcDbTrace
 10
6637.801688233
 20
4986.1550840921
 30
0.0
 11
6555.251688233
 21
4998.8550840921
 31
0.0
 12
6555.251688233
 22
4973.4550840921
 32
0.0
 13
6555.251688233
 23
4973.4550840921
 33
0.0
  0
LINE
  5
57A
330
575
100
AcDbEntity
  8
0
  6
Continuous
 62
     7
370
     0
100
AcDbLine
 10
1897.8016882331
 20
4226.427428495
 30
0.0
 11
1897.801688233
 21
5011.1550840916
 31
0.0
  0
LINE
  5
57B
330
575
100
AcDbEntity
  8
0
  6
Continuous
 62
     7
370
     0
100
AcDbLine
 10
6637.8016882331
 20
4226.427428495
 30
0.0
 11
6637.801688233
 21
5011.1550840921
 31
0.0
  0
LINE
  5
57C
330
575
100
AcDbEntity
  8
0
  6
Continuous
 62
     7
370
     0
100
AcDbLine
 10
1897.801688233
 20
4986.1550840916
 30
0.0
 11
6637.801688233
 21
4986.1550840921
 31
0.0
  0
MTEXT
  5
57D
330
575
100
AcDbEntity
  8
0
  6
Continuous
 62
     7
370
    18
100
AcDbMText
 10
4045.6950326273
 20
5131.1751989954
 30
0.0
 40
112.5
 41
0.0
 71
     1
 72
     1
  1
4740
  7
SLDTEXTSTYLE0
 73
     1
 44
1.0
  0
ENDBLK
  5
577
330
575
100
AcDbEntity
  8
0
100
AcDbBlockEnd
  0
ENDSEC
  0
SECTION
  2
ENTITIES
  0
LINE
  5
74
330
1F
100
AcDbEntity
  8
0
  6
Continuous
 62
     7
370
    25
100
AcDbLine
 10
8916.1394175071
 20
8171.7812320911
 30
0.0
 11
9151.9842179243
 21
7836.0734198905
 31
0.0
  0
CIRCLE
  5
75
330
1F
100
AcDbEntity
  8
0
  6
Continuous
 62
     7
370
    25
100
AcDbCircle
 10
9209.4842179243
 20
7702.0389324542
 30
0.0
 40
6.500000000001185
  0
LINE
  5
76
330
1F
100
AcDbEntity
  8
0
  6
Continuous
 62
     7
370
    25
100
AcDbLine
 10
8867.0439267938
 20
8137.2901783001
 30
0.0
 11
9151.9842179243
 21
7731.6985283081
 31
0.0
  0
LINE
  5
77
330
1F
100
AcDbEntity
  8
0
  6
Continuous
 62
     7
370
    25
100
AcDbLine
 10
8458.9774757416
 20
8720.7522777768
 30
0.0
 11
8868.2713140616
 21
8138.1524546449
 31
0.0
  0
LINE
  5
78
330
1F
100
AcDbEntity
  8
0
  6
Continuous
 62
     7
370
    25
100
AcDbLine
 10
8867.0439267937
 20
8137.2901783001
 30
0.0
 11
8868.2713140616
 21
8138.1524546449
 31
0.0
  0
LINE
  5
79
330
1F
100
AcDbEntity
  8
0
  6
Continuous
 62
     7
370
    25
100
AcDbLine
 10
8457.7500884738
 20
8719.890001432
 30
0.0
 11
8458.9774757416
 21
8720.7522777768
 31
0.0
  0
LINE
  5
7A
330
1F
100
AcDbEntity
  8
0
  6
Continuous
 62
     7
370
    25
100
AcDbLine
 10
8457.7500884738
 20
8719.890001432
 30
0.0
 11
8867.0439267937
 21
8137.2901783001
 31
0.0
  0
LINE
  5
7B
330
1F
100
AcDbEntity
  8
0
  6
Continuous
 62
     7
370
    25
100
AcDbLine
 10
8506.8455791872
 20
8754.381055223
 30
0.0
 11
8916.1394175071
 21
8171.7812320911
 31
0.0
  0
LINE
  5
7C
330
1F
100
AcDbEntity
  8
0
  6
Continuous
 62
     7
370
    25
100
AcDbLine
 10
8914.9120302393
 20
8170.9189557463
 30
0.0
 11
8916.1394175071
 21
8171.7812320911
 31
0.0
  0
LINE
  5
7D
330
1F
100
AcDbEntity
  8
0
  6
Continuous
 62
     7
370
    25
100
AcDbLine
 10
8505.6181919193
 20
8753.5187788782
 30
0.0
 11
8914.9120302393
 21
8170.9189557463
 31
0.0
  0
LINE
  5
7E
330
1F
100
AcDbEntity
  8
0
  6
Continuous
 62
     7
370
    25
100
AcDbLine
 10
8505.6181919193
 20
8753.5187788782
 30
0.0
 11
8506.8455791872
 21
8754.381055223
 31
0.0
  0
LINE
  5
7F
330
1F
100
AcDbEntity
  8
0
  6
Continuous
 62
     7
370
    25
100
AcDbLine
 10
8460.6139920987
 20
8721.9019795698
 30
0.0
 11
8869.9078304187
 21
8139.3021564379
 31
0.0
  0
LINE
  5
80
330
1F
100
AcDbEntity
  8
0
  6
Continuous
 62
     7
370
    25
100
AcDbLine
 10
8868.2713140616
 20
8138.1524546449
 30
0.0
 11
8869.9078304187
 21
8139.3021564379
 31
0.0
  0
LINE
  5
81
330
1F
100
AcDbEntity
  8
0
  6
Continuous
 62
     7
370
    25
100
AcDbLine
 10
8458.9774757416
 20
8720.7522777768
 30
0.0
 11
8460.6139920987
 21
8721.9019795698
 31
0.0
  0
LINE
  5
82
330
1F
100
AcDbEntity
  8
0
  6
Continuous
 62
     7
370
    25
100
AcDbLine
 10
8503.9816755622
 20
8752.3690770852
 30
0.0
 11
8913.2755138822
 21
8169.7692539533
 31
0.0
  0
LINE
  5
83
330
1F
100
AcDbEntity
  8
0
  6
Continuous
 62
     7
370
    25
100
AcDbLine
 10
8913.2755138822
 20
8169.7692539533
 30
0.0
 11
8914.9120302393
 21
8170.9189557463
 31
0.0
  0
LINE
  5
84
330
1F
100
AcDbEntity
  8
0
  6
Continuous
 62
     7
370
    25
100
AcDbLine
 10
8503.9816755622
 20
8752.3690770852
 30
0.0
 11
8505.6181919193
 21
8753.5187788782
 31
0.0
  0
LINE
  5
85
330
1F
100
AcDbEntity
  8
0
  6
Continuous
 62
     7
370
    25
100
AcDbLine
 10
8460.6139920987
 20
8721.9019795698
 30
0.0
 11
8503.9816755622
 21
8752.3690770852
 31
0.0
  0
LINE
  5
86
330
1F
100
AcDbEntity
  8
0
  6
Continuous
 62
     7
370
    25
100
AcDbLine
 10
8869.9078304187
 20
8139.3021564379
 30
0.0
 11
8913.2755138822
 21
8169.7692539533
 31
0.0
  0
CIRCLE
  5
87
330
1F
100
AcDbEntity
  8
0
  6
Continuous
 62
     7
370
    25
100
AcDbCircle
 10
8531.7350109309
 20
8666.7653249717
 30
0.0
 40
6.500000000001327
  0
CIRCLE
  5
88
330
1F
100
AcDbEntity
  8
0
  6
Continuous
 62
     7
370
    25
100
AcDbCircle
 10
8512.7649313459
 20
8693.767844864
 30
0.0
 40
6.500000000000884
  0
CIRCLE
  5
89
330
1F
100
AcDbEntity
  8
0
  6
Continuous
 62
     7
370
    25
100
AcDbCircle
 10
8493.7948517608
 20
8720.7703647564
 30
0.0
 40
6.49999999999835
  0
CIRCLE
  5
8A
330
1F
100
AcDbEntity
  8
0
  6
Continuous
 62
     7
370
    25
100
AcDbCircle
 10
8861.124574635
 20
8197.9033886591
 30
0.0
 40
6.499999999999838
  0
CIRCLE
  5
8B
330
1F
100
AcDbEntity
  8
0
  6
Continuous
 62
     7
370
    25
100
AcDbCircle
 10
8842.15449505
 20
8224.9059085514
 30
0.0
 40
6.499999999999838
  0
CIRCLE
  5
8C
330
1F
100
AcDbEntity
  8
0
  6
Continuous
 62
     7
370
    25
100
AcDbCircle
 10
8880.0946542201
 20
8170.9008687667
 30
0.0
 40
6.500000000000884
  0
LINE
  5
8D
330
1F
100
AcDbEntity
  8
0
  6
Continuous
 62
     7
370
    25
100
AcDbLine
 10
9511.1081825163
 20
7843.254424272
 30
0.0
 11
9266.9842179243
 21
7700.4348594781
 31
0.0
  0
LINE
  5
8E
330
1F
100
AcDbEntity
  8
0
  6
Continuous
 62
     7
370
    25
100
AcDbLine
 10
9541.4059352364
 20
7791.465948912
 30
0.0
 11
9266.9842179243
 21
7630.9213243726
 31
0.0
  0
CIRCLE
  5
8F
330
1F
100
AcDbEntity
  8
0
  6
Continuous
 62
     7
370
    25
100
AcDbCircle
 10
9493.4576911483
 20
7798.1716098693
 30
0.0
 40
6.499999999998897
  0
CIRCLE
  5
90
330
1F
100
AcDbEntity
  8
0
  6
Continuous
 62
     7
370
    25
100
AcDbCircle
 10
9309.6086036203
 20
7690.614587713
 30
0.0
 40
6.500000000000925
  0
CIRCLE
  5
91
330
1F
100
AcDbEntity
  8
0
  6
Continuous
 62
     7
370
    25
100
AcDbCircle
 10
9209.4842179243
 20
7632.0389324542
 30
0.0
 40
6.500000000000007
  0
LINE
  5
92
330
1F
100
AcDbEntity
  8
0
  6
Continuous
 62
     7
370
    25
100
AcDbLine
 10
9959.2720005783
 20
8037.6674952833
 30
0.0
 11
9960.0294443963
 21
8036.3727833993
 31
0.0
  0
LINE
  5
93
330
1F
100
AcDbEntity
  8
0
  6
Continuous
 62
     7
370
    25
100
AcDbLine
 10
9960.0294443963
 20
8036.3727833993
 30
0.0
 11
9541.4059352364
 21
7791.465948912
 31
0.0
  0
LINE
  5
94
330
1F
100
AcDbEntity
  8
0
  6
Continuous
 62
     7
370
    25
100
AcDbLine
 10
9540.6484914184
 20
7792.760660796
 30
0.0
 11
9541.4059352364
 21
7791.465948912
 31
0.0
  0
LINE
  5
95
330
1F
100
AcDbEntity
  8
0
  6
Continuous
 62
     7
370
    25
100
AcDbLine
 10
9959.2720005783
 20
8037.6674952833
 30
0.0
 11
9540.6484914184
 21
7792.760660796
 31
0.0
  0
LINE
  5
96
330
1F
100
AcDbEntity
  8
0
  6
Continuous
 62
     7
370
    25
100
AcDbLine
 10
9929.7316916763
 20
8088.1612587593
 30
0.0
 11
9930.4891354943
 21
8086.8665468753
 31
0.0
  0
LINE
  5
97
330
1F
100
AcDbEntity
  8
0
  6
Continuous
 62
     7
370
    25
100
AcDbLine
 10
9930.4891354943
 20
8086.8665468753
 30
0.0
 11
9511.8656263343
 21
7841.959712388
 31
0.0
  0
LINE
  5
98
330
1F
100
AcDbEntity
  8
0
  6
Continuous
 62
     7
370
    25
100
AcDbLine
 10
9511.1081825163
 20
7843.254424272
 30
0.0
 11
9511.8656263343
 21
7841.959712388
 31
0.0
  0
LINE
  5
99
330
1F
100
AcDbEntity
  8
0
  6
Continuous
 62
     7
370
    25
100
AcDbLine
 10
9929.7316916763
 20
8088.1612587593
 30
0.0
 11
9511.1081825163
 21
7843.254424272
 31
0.0
  0
LINE
  5
9A
330
1F
100
AcDbEntity
  8
0
  6
Continuous
 62
     7
370
    25
100
AcDbLine
 10
9930.4891354943
 20
8086.8665468753
 30
0.0
 11
9931.4990605849
 21
8085.1402643633
 31
0.0
  0
LINE
  5
9B
330
1F
100
AcDbEntity
  8
0
  6
Continuous
 62
     7
370
    25
100
AcDbLine
 10
9931.4990605849
 20
8085.1402643633
 30
0.0
 11
9512.875551425
 21
7840.233429876
 31
0.0
  0
LINE
  5
9C
330
1F
100
AcDbEntity
  8
0
  6
Continuous
 62
     7
370
    25
100
AcDbLine
 10
9511.8656263343
 20
7841.959712388
 30
0.0
 11
9512.875551425
 21
7840.233429876
 31
0.0
  0
LINE
  5
9D
330
1F
100
AcDbEntity
  8
0
  6
Continuous
 62
     7
370
    25
100
AcDbLine
 10
9958.2620754877
 20
8039.3937777953
 30
0.0
 11
9539.6385663277
 21
7794.486943308
 31
0.0
  0
LINE
  5
9E
330
1F
100
AcDbEntity
  8
0
  6
Continuous
 62
     7
370
    25
100
AcDbLine
 10
9958.2620754877
 20
8039.3937777953
 30
0.0
 11
9959.2720005783
 21
8037.6674952833
 31
0.0
  0
LINE
  5
9F
330
1F
100
AcDbEntity
  8
0
  6
Continuous
 62
     7
370
    25
100
AcDbLine
 10
9539.6385663277
 20
7794.486943308
 30
0.0
 11
9540.6484914184
 21
7792.760660796
 31
0.0
  0
LINE
  5
A0
330
1F
100
AcDbEntity
  8
0
  6
Continuous
 62
     7
370
    25
100
AcDbLine
 10
9931.4990605849
 20
8085.1402643633
 30
0.0
 11
9958.2620754877
 21
8039.3937777953
 31
0.0
  0
LINE
  5
A1
330
1F
100
AcDbEntity
  8
0
  6
Continuous
 62
     7
370
    25
100
AcDbLine
 10
9512.875551425
 20
7840.233429876
 30
0.0
 11
9539.6385663277
 21
7794.486943308
 31
0.0
  0
CIRCLE
  5
A2
330
1F
100
AcDbEntity
  8
0
  6
Continuous
 62
     7
370
    25
100
AcDbCircle
 10
9827.4933572203
 20
7993.5921149138
 30
0.0
 40
6.499999999999355
  0
CIRCLE
  5
A3
330
1F
100
AcDbEntity
  8
0
  6
Continuous
 62
     7
370
    25
100
AcDbCircle
 10
9877.5555500683
 20
8022.8799425432
 30
0.0
 40
6.499999999999355
  0
CIRCLE
  5
A4
330
1F
100
AcDbEntity
  8
0
  6
Continuous
 62
     7
370
    25
100
AcDbCircle
 10
9927.6177429163
 20
8052.1677701726
 30
0.0
 40
6.500000000001385
  0
CIRCLE
  5
A5
330
1F
100
AcDbEntity
  8
0
  6
Continuous
 62
     7
370
    25
100
AcDbCircle
 10
9593.5820768443
 20
7856.7472651281
 30
0.0
 40
6.500000000000466
  0
CIRCLE
  5
A6
330
1F
100
AcDbEntity
  8
0
  6
Continuous
 62
     7
370
    25
100
AcDbCircle
 10
9643.6442696923
 20
7886.0350927575
 30
0.0
 40
6.500000000002955
  0
CIRCLE
  5
A7
330
1F
100
AcDbEntity
  8
0
  6
Continuous
 62
     7
370
    25
100
AcDbCircle
 10
9543.5198839963
 20
7827.4594374987
 30
0.0
 40
6.499999999998897
  0
LINE
  5
A8
330
1F
100
AcDbEntity
  8
0
  6
Continuous
 62
     7
370
    25
100
AcDbLine
 10
8720.479920695
 20
8788.8474033595
 30
0.0
 11
9753.6707979168
 21
8307.0625849751
 31
0.0
  0
LINE
  5
A9
330
1F
100
AcDbEntity
  8
0
  6
Continuous
 62
     7
370
    25
100
AcDbLine
 10
8720.479920695
 20
8788.8474033595
 30
0.0
 11
8737.3846511647
 21
8825.099714841
 31
0.0
  0
LINE
  5
AA
330
1F
100
AcDbEntity
  8
0
  6
Continuous
 62
     7
370
    25
100
AcDbLine
 10
9770.5755283864
 20
8343.3148964566
 30
0.0
 11
9753.6707979168
 21
8307.0625849751
 31
0.0
  0
LINE
  5
AB
330
1F
100
AcDbEntity
  8
0
  6
Continuous
 62
     7
370
    25
100
AcDbLine
 10
8737.3846511647
 20
8825.099714841
 30
0.0
 11
9770.5755283864
 21
8343.3148964566
 31
0.0
  0
LINE
  5
AC
330
1F
100
AcDbEntity
  8
0
  6
Continuous
 62
     7
370
    25
100
AcDbLine
 10
10011.9685172223
 20
8186.616380379
 30
0.0
 11
10028.8732476919
 21
8222.8686918605
 31
0.0
  0
LINE
  5
AD
330
1F
100
AcDbEntity
  8
0
  6
Continuous
 62
     7
370
    25
100
AcDbLine
 10
10270.2662365277
 20
8066.1701757829
 30
0.0
 11
10287.1709669973
 21
8102.4224872644
 31
0.0
  0
LINE
  5
AE
330
1F
100
AcDbEntity
  8
0
  6
Continuous
 62
     7
370
    25
100
AcDbLine
 10
10011.9685172223
 20
8186.616380379
 30
0.0
 11
10270.2662365277
 21
8066.1701757829
 31
0.0
  0
LINE
  5
AF
330
1F
100
AcDbEntity
  8
0
  6
Continuous
 62
     7
370
    25
100
AcDbLine
 10
10028.8732476919
 20
8222.8686918605
 30
0.0
 11
10287.1709669973
 21
8102.4224872644
 31
0.0
  0
LINE
  5
B0
330
1F
100
AcDbEntity
  8
0
  6
Continuous
 62
     7
370
    25
100
AcDbLine
 10
8203.8844820841
 20
9029.7398125517
 30
0.0
 11
8220.7892125538
 21
9065.9921240332
 31
0.0
  0
LINE
  5
B1
330
1F
100
AcDbEntity
  8
0
  6
Continuous
 62
     7
370
    25
100
AcDbLine
 10
8479.0869318592
 20
8945.5459194371
 30
0.0
 11
8462.1822013896
 21
8909.2936079556
 31
0.0
  0
LINE
  5
B2
330
1F
100
AcDbEntity
  8
0
  6
Continuous
 62
     7
370
    25
100
AcDbLine
 10
8203.8844820841
 20
9029.7398125517
 30
0.0
 11
8462.1822013896
 21
8909.2936079556
 31
0.0
  0
LINE
  5
B3
330
1F
100
AcDbEntity
  8
0
  6
Continuous
 62
     7
370
    25
100
AcDbLine
 10
8220.7892125538
 20
9065.9921240332
 30
0.0
 11
8479.0869318592
 21
8945.5459194371
 31
0.0
  0
LINE
  5
B4
330
1F
100
AcDbEntity
  8
0
  6
Continuous
 62
     7
370
    25
100
AcDbLine
 10
9753.6707979168
 20
8307.0625849751
 30
0.0
 11
9924.5098157732
 21
8227.399042637
 31
0.0
  0
LINE
  5
B5
330
1F
100
AcDbEntity
  8
0
  6
Continuous
 62
     7
370
    25
100
AcDbLine
 10
9963.4810506158
 20
8209.2264573822
 30
0.0
 11
10011.9685172223
 21
8186.616380379
 31
0.0
  0
LINE
  5
B6
330
1F
100
AcDbEntity
  8
0
  6
Continuous
 62
     7
370
    25
100
AcDbLine
 10
10028.8732476919
 20
8222.8686918605
 30
0.0
 11
9770.5755283864
 21
8343.3148964566
 31
0.0
  0
LINE
  5
B7
330
1F
100
AcDbEntity
  8
0
  6
Continuous
 62
     7
370
    25
100
AcDbLine
 10
8462.1822013896
 20
8909.2936079556
 30
0.0
 11
8588.6121376812
 21
8850.3383604428
 31
0.0
  0
LINE
  5
B8
330
1F
100
AcDbEntity
  8
0
  6
Continuous
 62
     7
370
    25
100
AcDbLine
 10
8627.5833725238
 20
8832.165775188
 30
0.0
 11
8720.479920695
 21
8788.8474033595
 31
0.0
  0
LINE
  5
B9
330
1F
100
AcDbEntity
  8
0
  6
Continuous
 62
     7
370
    25
100
AcDbLine
 10
8737.3846511647
 20
8825.099714841
 30
0.0
 11
8479.0869318592
 21
8945.5459194371
 31
0.0
  0
ARC
  5
BA
330
1F
100
AcDbEntity
  8
0
  6
Continuous
 62
     7
370
    25
100
AcDbCircle
 10
9883.7271535152
 20
8139.940341188
 30
0.0
 40
1.999999999998502
100
AcDbArc
 50
155.0
 51
245.0
  0
LINE
  5
BB
330
1F
100
AcDbEntity
  8
0
  6
Continuous
 62
     7
370
    25
100
AcDbLine
 10
9882.8819169918
 20
8138.1277256139
 30
0.0
 11
9882.2479895992
 21
8136.7682639333
 31
0.0
  0
ARC
  5
BC
330
1F
100
AcDbEntity
  8
0
  6
Continuous
 62
     7
370
    25
100
AcDbCircle
 10
9883.7271535152
 20
8139.940341188
 30
0.0
 40
3.500000000000236
100
AcDbArc
 50
155.0
 51
245.0
  0
LINE
  5
BD
330
1F
100
AcDbEntity
  8
0
  6
Continuous
 62
     7
370
    25
100
AcDbLine
 10
9880.5550762606
 20
8141.4195051041
 30
0.0
 11
9881.9145379412
 21
8140.7855777114
 31
0.0
  0
LINE
  5
BE
330
1F
100
AcDbEntity
  8
0
  6
Continuous
 62
     7
370
    25
100
AcDbLine
 10
9887.5282775793
 20
8156.3735835902
 30
0.0
 11
9888.8877392599
 21
8155.7396561976
 31
0.0
  0
LINE
  5
BF
330
1F
100
AcDbEntity
  8
0
  6
Continuous
 62
     7
370
    25
100
AcDbLine
 10
9888.8877392599
 20
8155.7396561976
 30
0.0
 11
9881.9145379412
 21
8140.7855777114
 31
0.0
  0
LINE
  5
C0
330
1F
100
AcDbEntity
  8
0
  6
Continuous
 62
     7
370
    25
100
AcDbLine
 10
9887.5282775793
 20
8156.3735835902
 30
0.0
 11
9880.5550762606
 21
8141.4195051041
 31
0.0
  0
LINE
  5
C1
330
1F
100
AcDbEntity
  8
0
  6
Continuous
 62
     7
370
    25
100
AcDbLine
 10
9921.2192244417
 20
8118.5956786785
 30
0.0
 11
9921.8531518343
 21
8119.955140359
 31
0.0
  0
LINE
  5
C2
330
1F
100
AcDbEntity
  8
0
  6
Continuous
 62
     7
370
    25
100
AcDbLine
 10
9882.8819169918
 20
8138.1277256139
 30
0.0
 11
9921.8531518343
 21
8119.955140359
 31
0.0
  0
LINE
  5
C3
330
1F
100
AcDbEntity
  8
0
  6
Continuous
 62
     7
370
    25
100
AcDbLine
 10
9882.2479895992
 20
8136.7682639333
 30
0.0
 11
9921.2192244417
 21
8118.5956786785
 31
0.0
  0
LINE
  5
C4
330
1F
100
AcDbEntity
  8
0
  6
Continuous
 62
     7
370
    25
100
AcDbLine
 10
9924.5110039319
 20
8120.9225194096
 30
0.0
 11
9925.8704656125
 21
8120.288592017
 31
0.0
  0
ARC
  5
C5
330
1F
100
AcDbEntity
  8
0
  6
Continuous
 62
     7
370
    25
100
AcDbCircle
 10
9922.6983883578
 20
8121.7677559331
 30
0.0
 40
1.999999999998391
100
AcDbArc
 50
244.9999999999
 51
335.0000000001
  0
ARC
  5
C6
330
1F
100
AcDbEntity
  8
0
  6
Continuous
 62
     7
370
    25
100
AcDbCircle
 10
9922.6983883578
 20
8121.7677559331
 30
0.0
 40
3.499999999999852
100
AcDbArc
 50
245.0
 51
335.0
  0
LINE
  5
C7
330
1F
100
AcDbEntity
  8
0
  6
Continuous
 62
     7
370
    25
100
AcDbLine
 10
9962.8471232232
 20
8207.8669957016
 30
0.0
 11
9963.4810506158
 21
8209.2264573822
 31
0.0
  0
LINE
  5
C8
330
1F
100
AcDbEntity
  8
0
  6
Continuous
 62
     7
370
    25
100
AcDbLine
 10
9924.5098157732
 20
8227.399042637
 30
0.0
 11
9923.8758883806
 21
8226.0395809565
 31
0.0
  0
LINE
  5
C9
330
1F
100
AcDbEntity
  8
0
  6
Continuous
 62
     7
370
    25
100
AcDbLine
 10
9962.8471232232
 20
8207.8669957016
 30
0.0
 11
9923.8758883806
 21
8226.0395809565
 31
0.0
  0
LINE
  5
CA
330
1F
100
AcDbEntity
  8
0
  6
Continuous
 62
     7
370
    25
100
AcDbLine
 10
9963.4810506158
 20
8209.2264573822
 30
0.0
 11
9924.5098157732
 21
8227.399042637
 31
0.0
  0
LINE
  5
CB
330
1F
100
AcDbEntity
  8
0
  6
Continuous
 62
     7
370
    25
100
AcDbLine
 10
9921.2180362831
 20
8225.0722019059
 30
0.0
 11
9919.8585746025
 21
8225.7061292985
 31
0.0
  0
ARC
  5
CC
330
1F
100
AcDbEntity
  8
0
  6
Continuous
 62
     7
370
    25
100
AcDbCircle
 10
9923.0306518571
 20
8224.2269653824
 30
0.0
 40
2.000000000001799
100
AcDbArc
 50
65.0000000001
 51
155.0
  0
ARC
  5
CD
330
1F
100
AcDbEntity
  8
0
  6
Continuous
 62
     7
370
    25
100
AcDbCircle
 10
9923.0306518571
 20
8224.2269653824
 30
0.0
 40
3.499999999998698
100
AcDbArc
 50
65.0000000001
 51
155.0
  0
LINE
  5
CE
330
1F
100
AcDbEntity
  8
0
  6
Continuous
 62
     7
370
    25
100
AcDbLine
 10
9914.2448349643
 20
8210.1181234198
 30
0.0
 11
9912.8853732838
 21
8210.7520508124
 31
0.0
  0
LINE
  5
CF
330
1F
100
AcDbEntity
  8
0
  6
Continuous
 62
     7
370
    25
100
AcDbLine
 10
9919.8585746025
 20
8225.7061292985
 30
0.0
 11
9912.8853732838
 21
8210.7520508124
 31
0.0
  0
LINE
  5
D0
330
1F
100
AcDbEntity
  8
0
  6
Continuous
 62
     7
370
    25
100
AcDbLine
 10
9921.2180362831
 20
8225.0722019059
 30
0.0
 11
9914.2448349643
 21
8210.1181234198
 31
0.0
  0
LINE
  5
D1
330
1F
100
AcDbEntity
  8
0
  6
Continuous
 62
     7
370
    25
100
AcDbLine
 10
9965.1739639543
 20
8204.5752162114
 30
0.0
 11
9963.8145022738
 21
8205.209143604
 31
0.0
  0
LINE
  5
D2
330
1F
100
AcDbEntity
  8
0
  6
Continuous
 62
     7
370
    25
100
AcDbLine
 10
9924.5110039319
 20
8120.9225194096
 30
0.0
 11
9963.8145022738
 21
8205.209143604
 31
0.0
  0
LINE
  5
D3
330
1F
100
AcDbEntity
  8
0
  6
Continuous
 62
     7
370
    25
100
AcDbLine
 10
9925.8704656125
 20
8120.288592017
 30
0.0
 11
9965.1739639543
 21
8204.5752162114
 31
0.0
  0
ARC
  5
D4
330
1F
100
AcDbEntity
  8
0
  6
Continuous
 62
     7
370
    25
100
AcDbCircle
 10
9962.0018866997
 20
8206.0543801275
 30
0.0
 40
3.499999999997161
100
AcDbArc
 50
334.9999999999
 51
65.0000000001
  0
ARC
  5
D5
330
1F
100
AcDbEntity
  8
0
  6
Continuous
 62
     7
370
    25
100
AcDbCircle
 10
9962.0018866997
 20
8206.0543801275
 30
0.0
 40
1.999999999998724
100
AcDbArc
 50
334.9999999999
 51
65.0000000002
  0
LINE
  5
D6
330
1F
100
AcDbEntity
  8
0
  6
Continuous
 62
     7
370
    25
100
AcDbLine
 10
8551.6305994873
 20
8779.312901396
 30
0.0
 11
8552.9900611679
 21
8778.6789740034
 31
0.0
  0
LINE
  5
D7
330
1F
100
AcDbEntity
  8
0
  6
Continuous
 62
     7
370
    25
100
AcDbLine
 10
8552.9900611679
 20
8778.6789740034
 30
0.0
 11
8546.0168598491
 21
8763.7248955172
 31
0.0
  0
LINE
  5
D8
330
1F
100
AcDbEntity
  8
0
  6
Continuous
 62
     7
370
    25
100
AcDbLine
 10
8544.6573981686
 20
8764.3588229099
 30
0.0
 11
8546.0168598491
 21
8763.7248955172
 31
0.0
  0
LINE
  5
D9
330
1F
100
AcDbEntity
  8
0
  6
Continuous
 62
     7
370
    25
100
AcDbLine
 10
8551.6305994873
 20
8779.312901396
 30
0.0
 11
8544.6573981686
 21
8764.3588229099
 31
0.0
  0
LINE
  5
DA
330
1F
100
AcDbEntity
  8
0
  6
Continuous
 62
     7
370
    25
100
AcDbLine
 10
8546.9842388997
 20
8761.0670434197
 30
0.0
 11
8546.3503115071
 21
8759.7075817391
 31
0.0
  0
LINE
  5
DB
330
1F
100
AcDbEntity
  8
0
  6
Continuous
 62
     7
370
    25
100
AcDbLine
 10
8585.3215463497
 20
8741.5349964843
 30
0.0
 11
8585.9554737423
 21
8742.8944581648
 31
0.0
  0
LINE
  5
DC
330
1F
100
AcDbEntity
  8
0
  6
Continuous
 62
     7
370
    25
100
AcDbLine
 10
8546.9842388997
 20
8761.0670434197
 30
0.0
 11
8585.9554737423
 21
8742.8944581648
 31
0.0
  0
LINE
  5
DD
330
1F
100
AcDbEntity
  8
0
  6
Continuous
 62
     7
370
    25
100
AcDbLine
 10
8546.3503115071
 20
8759.7075817391
 30
0.0
 11
8585.3215463497
 21
8741.5349964843
 31
0.0
  0
ARC
  5
DE
330
1F
100
AcDbEntity
  8
0
  6
Continuous
 62
     7
370
    25
100
AcDbCircle
 10
8547.8294754232
 20
8762.8796589938
 30
0.0
 40
3.500000000001005
100
AcDbArc
 50
155.0
 51
245.0
  0
ARC
  5
DF
330
1F
100
AcDbEntity
  8
0
  6
Continuous
 62
     7
370
    25
100
AcDbCircle
 10
8547.8294754232
 20
8762.8796589938
 30
0.0
 40
2.00000000000103
100
AcDbArc
 50
155.0000000001
 51
245.0
  0
LINE
  5
E0
330
1F
100
AcDbEntity
  8
0
  6
Continuous
 62
     7
370
    25
100
AcDbLine
 10
8588.6133258399
 20
8743.8618372154
 30
0.0
 11
8589.9727875204
 21
8743.2279098228
 31
0.0
  0
ARC
  5
E1
330
1F
100
AcDbEntity
  8
0
  6
Continuous
 62
     7
370
    25
100
AcDbCircle
 10
8586.8007102658
 20
8744.7070737389
 30
0.0
 40
1.999999999998391
100
AcDbArc
 50
244.9999999999
 51
335.0000000001
  0
ARC
  5
E2
330
1F
100
AcDbEntity
  8
0
  6
Continuous
 62
     7
370
    25
100
AcDbCircle
 10
8586.8007102658
 20
8744.7070737389
 30
0.0
 40
3.499999999999467
100
AcDbArc
 50
245.0
 51
335.0
  0
LINE
  5
E3
330
1F
100
AcDbEntity
  8
0
  6
Continuous
 62
     7
370
    25
100
AcDbLine
 10
8626.9494451312
 20
8830.8063135074
 30
0.0
 11
8627.5833725238
 21
8832.165775188
 31
0.0
  0
LINE
  5
E4
330
1F
100
AcDbEntity
  8
0
  6
Continuous
 62
     7
370
    25
100
AcDbLine
 10
8588.6121376812
 20
8850.3383604428
 30
0.0
 11
8587.9782102886
 21
8848.9788987622
 31
0.0
  0
LINE
  5
E5
330
1F
100
AcDbEntity
  8
0
  6
Continuous
 62
     7
370
    25
100
AcDbLine
 10
8626.9494451312
 20
8830.8063135074
 30
0.0
 11
8587.9782102886
 21
8848.9788987622
 31
0.0
  0
LINE
  5
E6
330
1F
100
AcDbEntity
  8
0
  6
Continuous
 62
     7
370
    25
100
AcDbLine
 10
8627.5833725238
 20
8832.165775188
 30
0.0
 11
8588.6121376812
 21
8850.3383604428
 31
0.0
  0
LINE
  5
E7
330
1F
100
AcDbEntity
  8
0
  6
Continuous
 62
     7
370
    25
100
AcDbLine
 10
8585.320358191
 20
8848.0115197117
 30
0.0
 11
8583.9608965105
 21
8848.6454471043
 31
0.0
  0
LINE
  5
E8
330
1F
100
AcDbEntity
  8
0
  6
Continuous
 62
     7
370
    25
100
AcDbLine
 10
8585.320358191
 20
8848.0115197117
 30
0.0
 11
8578.3471568723
 21
8833.0574412256
 31
0.0
  0
LINE
  5
E9
330
1F
100
AcDbEntity
  8
0
  6
Continuous
 62
     7
370
    25
100
AcDbLine
 10
8578.3471568723
 20
8833.0574412256
 30
0.0
 11
8576.9876951918
 21
8833.6913686182
 31
0.0
  0
LINE
  5
EA
330
1F
100
AcDbEntity
  8
0
  6
Continuous
 62
     7
370
    25
100
AcDbLine
 10
8583.9608965105
 20
8848.6454471043
 30
0.0
 11
8576.9876951918
 21
8833.6913686182
 31
0.0
  0
ARC
  5
EB
330
1F
100
AcDbEntity
  8
0
  6
Continuous
 62
     7
370
    25
100
AcDbCircle
 10
8587.1329737651
 20
8847.1662831882
 30
0.0
 40
2.000000000002568
100
AcDbArc
 50
65.0000000001
 51
155.0
  0
ARC
  5
EC
330
1F
100
AcDbEntity
  8
0
  6
Continuous
 62
     7
370
    25
100
AcDbCircle
 10
8587.1329737651
 20
8847.1662831882
 30
0.0
 40
3.49999999999793
100
AcDbArc
 50
65.0000000001
 51
155.0
  0
LINE
  5
ED
330
1F
100
AcDbEntity
  8
0
  6
Continuous
 62
     7
370
    25
100
AcDbLine
 10
8629.2762858623
 20
8827.5145340172
 30
0.0
 11
8627.9168241818
 21
8828.1484614098
 31
0.0
  0
LINE
  5
EE
330
1F
100
AcDbEntity
  8
0
  6
Continuous
 62
     7
370
    25
100
AcDbLine
 10
8588.6133258399
 20
8743.8618372154
 30
0.0
 11
8627.9168241818
 21
8828.1484614098
 31
0.0
  0
LINE
  5
EF
330
1F
100
AcDbEntity
  8
0
  6
Continuous
 62
     7
370
    25
100
AcDbLine
 10
8589.9727875204
 20
8743.2279098228
 30
0.0
 11
8629.2762858623
 21
8827.5145340172
 31
0.0
  0
ARC
  5
F0
330
1F
100
AcDbEntity
  8
0
  6
Continuous
 62
     7
370
    25
100
AcDbCircle
 10
8626.1042086077
 20
8828.9936979333
 30
0.0
 40
3.49999999999793
100
AcDbArc
 50
335.0
 51
65.0000000001
  0
ARC
  5
F1
330
1F
100
AcDbEntity
  8
0
  6
Continuous
 62
     7
370
    25
100
AcDbCircle
 10
8626.1042086077
 20
8828.9936979333
 30
0.0
 40
2.000000000001141
100
AcDbArc
 50
335.0
 51
65.0000000002
  0
LINE
  5
F2
330
1F
100
AcDbEntity
  8
0
  6
Continuous
 62
     7
370
    25
100
AcDbLine
 10
10040.3986984371
 20
8063.0213772596
 30
0.0
 11
9921.2192244417
 21
8118.5956786785
 31
0.0
  0
LINE
  5
F3
330
1F
100
AcDbEntity
  8
0
  6
Continuous
 62
     7
370
    25
100
AcDbLine
 10
9882.2479895992
 20
8136.7682639333
 30
0.0
 11
9266.9842179243
 21
8423.6704724506
 31
0.0
  0
LINE
  5
F4
330
1F
100
AcDbEntity
  8
0
  6
Continuous
 62
     7
370
    25
100
AcDbLine
 10
9249.0379975327
 20
8432.0389324542
 30
0.0
 11
8585.3215463497
 21
8741.5349964843
 31
0.0
  0
LINE
  5
F5
330
1F
100
AcDbEntity
  8
0
  6
Continuous
 62
     7
370
    25
100
AcDbLine
 10
8546.3503115071
 20
8759.7075817392
 30
0.0
 11
8427.1708375118
 21
8815.281883158
 31
0.0
  0
LINE
  5
F6
330
1F
100
AcDbEntity
  8
0
  6
Continuous
 62
     7
370
    25
100
AcDbLine
 10
10038.4969162592
 20
8058.9429922179
 30
0.0
 11
10040.3986984371
 21
8063.0213772596
 31
0.0
  0
LINE
  5
F7
330
1F
100
AcDbEntity
  8
0
  6
Continuous
 62
     7
370
    25
100
AcDbLine
 10
8425.269055334
 20
8811.2034981164
 30
0.0
 11
8427.1708375118
 21
8815.281883158
 31
0.0
  0
LINE
  5
F8
330
1F
100
AcDbEntity
  8
0
  6
Continuous
 62
     7
370
    25
100
AcDbLine
 10
9993.6993805147
 20
7962.874366792
 30
0.0
 11
10038.4969162592
 21
8058.9429922179
 31
0.0
  0
LINE
  5
F9
330
1F
100
AcDbEntity
  8
0
  6
Continuous
 62
     7
370
    25
100
AcDbLine
 10
8380.4715195895
 20
8715.1348726905
 30
0.0
 11
8425.269055334
 21
8811.2034981164
 31
0.0
  0
LINE
  5
FA
330
1F
100
AcDbEntity
  8
0
  6
Continuous
 62
     7
370
    25
100
AcDbLine
 10
9650.4310516579
 20
8188.5940035183
 30
0.0
 11
9571.5822741857
 21
8225.3617922898
 31
0.0
  0
ARC
  5
FB
330
1F
100
AcDbEntity
  8
0
  6
Continuous
 62
     7
370
    25
100
AcDbCircle
 10
9568.8352554844
 20
8219.470791674
 30
0.0
 40
6.500000000000407
100
AcDbArc
 50
65.0
 51
245.0
  0
LINE
  5
FC
330
1F
100
AcDbEntity
  8
0
  6
Continuous
 62
     7
370
    25
100
AcDbLine
 10
9566.0882367831
 20
8213.5797910583
 30
0.0
 11
9644.9370142552
 21
8176.8120022868
 31
0.0
  0
ARC
  5
FD
330
1F
100
AcDbEntity
  8
0
  6
Continuous
 62
     7
370
    25
100
AcDbCircle
 10
9647.6840329566
 20
8182.7030029026
 30
0.0
 40
6.500000000001175
100
AcDbArc
 50
245.0
 51
65.0
  0
CIRCLE
  5
FE
330
1F
100
AcDbEntity
  8
0
  6
Continuous
 62
     7
370
    25
100
AcDbCircle
 10
8436.0934386812
 20
8775.2614235358
 30
0.0
 40
6.500000000001287
  0
CIRCLE
  5
FF
330
1F
100
AcDbEntity
  8
0
  6
Continuous
 62
     7
370
    25
100
AcDbCircle
 10
8414.9625255941
 20
8729.946034184
 30
0.0
 40
6.500000000001287
  0
CIRCLE
  5
100
330
1F
100
AcDbEntity
  8
0
  6
Continuous
 62
     7
370
    25
100
AcDbCircle
 10
8572.0396067367
 20
8711.8686842747
 30
0.0
 40
6.500000000000407
  0
LINE
  5
101
330
1F
100
AcDbEntity
  8
0
  6
Continuous
 62
     7
370
    25
100
AcDbLine
 10
9215.9842179243
 20
8391.1798891495
 30
0.0
 11
9202.9842179243
 21
8397.2418887055
 31
0.0
  0
LINE
  5
102
330
1F
100
AcDbEntity
  8
0
  6
Continuous
 62
     7
370
    25
100
AcDbLine
 10
9202.9842179243
 20
8382.897975759
 30
0.0
 11
9215.9842179243
 21
8376.835976203
 31
0.0
  0
LINE
  5
103
330
1F
100
AcDbEntity
  8
0
  6
Continuous
 62
     7
370
    25
100
AcDbLine
 10
8768.5373841908
 20
8585.4838613901
 30
0.0
 11
8847.386161663
 21
8548.7160726187
 31
0.0
  0
ARC
  5
104
330
1F
100
AcDbEntity
  8
0
  6
Continuous
 62
     7
370
    25
100
AcDbCircle
 10
8850.1331803643
 20
8554.6070732344
 30
0.0
 40
6.500000000000407
100
AcDbArc
 50
245.0
 51
65.0
  0
LINE
  5
105
330
1F
100
AcDbEntity
  8
0
  6
Continuous
 62
     7
370
    25
100
AcDbLine
 10
8852.8801990656
 20
8560.4980738501
 30
0.0
 11
8774.0314215934
 21
8597.2658626216
 31
0.0
  0
ARC
  5
106
330
1F
100
AcDbEntity
  8
0
  6
Continuous
 62
     7
370
    25
100
AcDbCircle
 10
8771.2844028921
 20
8591.3748620058
 30
0.0
 40
6.500000000001175
100
AcDbArc
 50
65.0
 51
245.0
  0
ARC
  5
107
330
1F
100
AcDbEntity
  8
0
  6
Continuous
 62
     7
370
    25
100
AcDbCircle
 10
8476.7343721052
 20
8728.7257970716
 30
0.0
 40
6.500000000000858
100
AcDbArc
 50
69.6055560301
 51
180.5728260831
  0
CIRCLE
  5
108
330
1F
100
AcDbEntity
  8
0
  6
Continuous
 62
     7
370
    25
100
AcDbCircle
 10
9982.8749971675
 20
7998.8164413726
 30
0.0
 40
6.500000000000022
  0
CIRCLE
  5
109
330
1F
100
AcDbEntity
  8
0
  6
Continuous
 62
     7
370
    25
100
AcDbCircle
 10
10004.0059102546
 20
8044.1318307244
 30
0.0
 40
6.500000000000407
  0
CIRCLE
  5
10A
330
1F
100
AcDbEntity
  8
0
  6
Continuous
 62
     7
370
    25
100
AcDbCircle
 10
9868.0597421991
 20
8107.5245699855
 30
0.0
 40
6.500000000000407
  0
CIRCLE
  5
10B
330
1F
100
AcDbEntity
  8
0
  6
Continuous
 62
     7
370
    25
100
AcDbCircle
 10
9846.928829112
 20
8062.2091806337
 30
0.0
 40
6.499999999998758
  0
LINE
  5
10C
330
1F
100
AcDbEntity
  8
0
  6
Continuous
 62
     7
370
    25
100
AcDbLine
 10
9991.7975983369
 20
7958.7959817504
 30
0.0
 11
9993.6993805147
 21
7962.874366792
 31
0.0
  0
LINE
  5
10D
330
1F
100
AcDbEntity
  8
0
  6
Continuous
 62
     7
370
    25
100
AcDbLine
 10
9991.7975983369
 20
7958.7959817504
 30
0.0
 11
9900.3310822875
 21
8001.4475186489
 31
0.0
  0
LINE
  5
10E
330
1F
100
AcDbEntity
  8
0
  6
Continuous
 62
     7
370
    25
100
AcDbLine
 10
9834.2118769895
 20
8032.2794104305
 30
0.0
 11
9266.9842179243
 21
8296.78201177
 31
0.0
  0
LINE
  5
10F
330
1F
100
AcDbEntity
  8
0
  6
Continuous
 62
     7
370
    25
100
AcDbLine
 10
9151.9842179243
 20
8350.4073924578
 30
0.0
 11
8614.6070575987
 21
8600.9904776352
 31
0.0
  0
LINE
  5
110
330
1F
100
AcDbEntity
  8
0
  6
Continuous
 62
     7
370
    25
100
AcDbLine
 10
8505.5559627083
 20
8651.8418383128
 30
0.0
 11
8378.5697374116
 21
8711.0564876488
 31
0.0
  0
LINE
  5
111
330
1F
100
AcDbEntity
  8
0
  6
Continuous
 62
     7
370
    25
100
AcDbLine
 10
8378.5697374116
 20
8711.0564876488
 30
0.0
 11
8380.4715195895
 21
8715.1348726905
 31
0.0
  0
LINE
  5
112
330
1F
100
AcDbEntity
  8
0
  6
Continuous
 62
     7
370
    25
100
AcDbLine
 10
9156.4842179243
 20
8432.0389324542
 30
0.0
 11
9156.4842179243
 21
6062.0389324542
 31
0.0
  0
LINE
  5
113
330
1F
100
AcDbEntity
  8
0
  6
Continuous
 62
     7
370
    25
100
AcDbLine
 10
9171.9842179243
 20
8432.0389324542
 30
0.0
 11
9156.4842179243
 21
8432.0389324542
 31
0.0
  0
LINE
  5
114
330
1F
100
AcDbEntity
  8
0
  6
Continuous
 62
     7
370
    25
100
AcDbLine
 10
9171.9842179243
 20
8432.0389324542
 30
0.0
 11
9171.9842179243
 21
6062.0389324542
 31
0.0
  0
LINE
  5
115
330
1F
100
AcDbEntity
  8
0
  6
Continuous
 62
     7
370
    25
100
AcDbLine
 10
9171.9842179243
 20
6062.0389324542
 30
0.0
 11
9156.4842179243
 21
6062.0389324542
 31
0.0
  0
LINE
  5
116
330
1F
100
AcDbEntity
  8
0
  6
Continuous
 62
     7
370
    25
100
AcDbLine
 10
9151.9842179243
 20
8432.0389324542
 30
0.0
 11
9151.9842179243
 21
6062.0389324542
 31
0.0
  0
LINE
  5
117
330
1F
100
AcDbEntity
  8
0
  6
Continuous
 62
     7
370
    25
100
AcDbLine
 10
9156.4842179243
 20
6062.0389324542
 30
0.0
 11
9151.9842179243
 21
6062.0389324542
 31
0.0
  0
LINE
  5
118
330
1F
100
AcDbEntity
  8
0
  6
Continuous
 62
     7
370
    25
100
AcDbLine
 10
9156.4842179243
 20
8432.0389324542
 30
0.0
 11
9151.9842179243
 21
8432.0389324542
 31
0.0
  0
LINE
  5
119
330
1F
100
AcDbEntity
  8
0
  6
Continuous
 62
     7
370
    25
100
AcDbLine
 10
9262.4842179243
 20
8432.0389324542
 30
0.0
 11
9262.4842179243
 21
6062.0389324542
 31
0.0
  0
LINE
  5
11A
330
1F
100
AcDbEntity
  8
0
  6
Continuous
 62
     7
370
    25
100
AcDbLine
 10
9266.9842179243
 20
8432.0389324542
 30
0.0
 11
9262.4842179243
 21
8432.0389324542
 31
0.0
  0
LINE
  5
11B
330
1F
100
AcDbEntity
  8
0
  6
Continuous
 62
     7
370
    25
100
AcDbLine
 10
9266.9842179243
 20
8432.0389324542
 30
0.0
 11
9266.9842179243
 21
6062.0389324542
 31
0.0
  0
LINE
  5
11C
330
1F
100
AcDbEntity
  8
0
  6
Continuous
 62
     7
370
    25
100
AcDbLine
 10
9266.9842179243
 20
6062.0389324542
 30
0.0
 11
9262.4842179243
 21
6062.0389324542
 31
0.0
  0
LINE
  5
11D
330
1F
100
AcDbEntity
  8
0
  6
Continuous
 62
     7
370
    25
100
AcDbLine
 10
9262.4842179243
 20
8432.0389324542
 30
0.0
 11
9246.9842179243
 21
8432.0389324542
 31
0.0
  0
LINE
  5
11E
330
1F
100
AcDbEntity
  8
0
  6
Continuous
 62
     7
370
    25
100
AcDbLine
 10
9246.9842179243
 20
8432.0389324542
 30
0.0
 11
9246.9842179243
 21
6062.0389324542
 31
0.0
  0
LINE
  5
11F
330
1F
100
AcDbEntity
  8
0
  6
Continuous
 62
     7
370
    25
100
AcDbLine
 10
9262.4842179243
 20
6062.0389324542
 30
0.0
 11
9246.9842179243
 21
6062.0389324542
 31
0.0
  0
LINE
  5
120
330
1F
100
AcDbEntity
  8
0
  6
Continuous
 62
     7
370
    25
100
AcDbLine
 10
9171.9842179243
 20
8432.0389324542
 30
0.0
 11
9246.9842179243
 21
8432.0389324542
 31
0.0
  0
LINE
  5
121
330
1F
100
AcDbEntity
  8
0
  6
Continuous
 62
     7
370
    25
100
AcDbLine
 10
9171.9842179243
 20
6062.0389324542
 30
0.0
 11
9246.9842179243
 21
6062.0389324542
 31
0.0
  0
ARC
  5
122
330
1F
100
AcDbEntity
  8
0
  6
Continuous
 62
     7
370
    25
100
AcDbCircle
 10
9206.9842179243
 20
8302.0389324542
 30
0.0
 40
6.5
100
AcDbArc
 50
90.0
 51
270.0
  0
LINE
  5
123
330
1F
100
AcDbEntity
  8
0
  6
Continuous
 62
     7
370
    25
100
AcDbLine
 10
9211.9842179243
 20
8295.5389324542
 30
0.0
 11
9206.9842179243
 21
8295.5389324542
 31
0.0
  0
ARC
  5
124
330
1F
100
AcDbEntity
  8
0
  6
Continuous
 62
     7
370
    25
100
AcDbCircle
 10
9211.9842179243
 20
8302.0389324542
 30
0.0
 40
6.5
100
AcDbArc
 50
270.0
 51
90.0
  0
LINE
  5
125
330
1F
100
AcDbEntity
  8
0
  6
Continuous
 62
     7
370
    25
100
AcDbLine
 10
9206.9842179243
 20
8308.5389324542
 30
0.0
 11
9211.9842179243
 21
8308.5389324542
 31
0.0
  0
ARC
  5
126
330
1F
100
AcDbEntity
  8
0
  6
Continuous
 62
     7
370
    25
100
AcDbCircle
 10
9211.9842179243
 20
7562.0389324542
 30
0.0
 40
6.5
100
AcDbArc
 50
270.0
 51
90.0
  0
LINE
  5
127
330
1F
100
AcDbEntity
  8
0
  6
Continuous
 62
     7
370
    25
100
AcDbLine
 10
9206.9842179243
 20
7568.5389324542
 30
0.0
 11
9211.9842179243
 21
7568.5389324542
 31
0.0
  0
ARC
  5
128
330
1F
100
AcDbEntity
  8
0
  6
Continuous
 62
     7
370
    25
100
AcDbCircle
 10
9206.9842179243
 20
7562.0389324542
 30
0.0
 40
6.5
100
AcDbArc
 50
90.0
 51
270.0
  0
LINE
  5
129
330
1F
100
AcDbEntity
  8
0
  6
Continuous
 62
     7
370
    25
100
AcDbLine
 10
9211.9842179243
 20
7555.5389324542
 30
0.0
 11
9206.9842179243
 21
7555.5389324542
 31
0.0
  0
ARC
  5
12A
330
1F
100
AcDbEntity
  8
0
  6
Continuous
 62
     7
370
    25
100
AcDbCircle
 10
9211.9842179243
 20
7702.0389324542
 30
0.0
 40
6.500000000000909
100
AcDbArc
 50
270.0
 51
90.0
  0
LINE
  5
12B
330
1F
100
AcDbEntity
  8
0
  6
Continuous
 62
     7
370
    25
100
AcDbLine
 10
9206.9842179243
 20
7708.5389324542
 30
0.0
 11
9211.9842179243
 21
7708.5389324542
 31
0.0
  0
ARC
  5
12C
330
1F
100
AcDbEntity
  8
0
  6
Continuous
 62
     7
370
    25
100
AcDbCircle
 10
9206.9842179243
 20
7702.0389324542
 30
0.0
 40
6.500000000000909
100
AcDbArc
 50
90.0
 51
270.0
  0
LINE
  5
12D
330
1F
100
AcDbEntity
  8
0
  6
Continuous
 62
     7
370
    25
100
AcDbLine
 10
9211.9842179243
 20
7695.5389324542
 30
0.0
 11
9206.9842179243
 21
7695.5389324542
 31
0.0
  0
ARC
  5
12E
330
1F
100
AcDbEntity
  8
0
  6
Continuous
 62
     7
370
    25
100
AcDbCircle
 10
9206.9842179243
 20
7632.0389324542
 30
0.0
 40
6.500000000000909
100
AcDbArc
 50
90.0
 51
270.0
  0
LINE
  5
12F
330
1F
100
AcDbEntity
  8
0
  6
Continuous
 62
     7
370
    25
100
AcDbLine
 10
9211.9842179243
 20
7625.5389324542
 30
0.0
 11
9206.9842179243
 21
7625.5389324542
 31
0.0
  0
ARC
  5
130
330
1F
100
AcDbEntity
  8
0
  6
Continuous
 62
     7
370
    25
100
AcDbCircle
 10
9211.9842179243
 20
7632.0389324542
 30
0.0
 40
6.500000000000909
100
AcDbArc
 50
270.0
 51
90.0
  0
LINE
  5
131
330
1F
100
AcDbEntity
  8
0
  6
Continuous
 62
     7
370
    25
100
AcDbLine
 10
9206.9842179243
 20
7638.5389324542
 30
0.0
 11
9211.9842179243
 21
7638.5389324542
 31
0.0
  0
ARC
  5
132
330
1F
100
AcDbEntity
  8
0
  6
Continuous
 62
     7
370
    25
100
AcDbCircle
 10
9206.9842179243
 20
8252.0389324542
 30
0.0
 40
6.5
100
AcDbArc
 50
90.0
 51
270.0
  0
LINE
  5
133
330
1F
100
AcDbEntity
  8
0
  6
Continuous
 62
     7
370
    25
100
AcDbLine
 10
9211.9842179243
 20
8245.5389324542
 30
0.0
 11
9206.9842179243
 21
8245.5389324542
 31
0.0
  0
ARC
  5
134
330
1F
100
AcDbEntity
  8
0
  6
Continuous
 62
     7
370
    25
100
AcDbCircle
 10
9211.9842179243
 20
8252.0389324542
 30
0.0
 40
6.5
100
AcDbArc
 50
270.0
 51
90.0
  0
LINE
  5
135
330
1F
100
AcDbEntity
  8
0
  6
Continuous
 62
     7
370
    25
100
AcDbLine
 10
9206.9842179243
 20
8258.5389324542
 30
0.0
 11
9211.9842179243
 21
8258.5389324542
 31
0.0
  0
ARC
  5
136
330
1F
100
AcDbEntity
  8
0
  6
Continuous
 62
     7
370
    25
100
AcDbCircle
 10
9209.4842179243
 20
8363.5389324542
 30
0.0
 40
6.5
100
AcDbArc
 50
180.0
 51
0.0
  0
LINE
  5
137
330
1F
100
AcDbEntity
  8
0
  6
Continuous
 62
     7
370
    25
100
AcDbLine
 10
9215.9842179243
 20
8410.5389324542
 30
0.0
 11
9215.9842179243
 21
8363.5389324542
 31
0.0
  0
ARC
  5
138
330
1F
100
AcDbEntity
  8
0
  6
Continuous
 62
     7
370
    25
100
AcDbCircle
 10
9209.4842179243
 20
8410.5389324542
 30
0.0
 40
6.5
100
AcDbArc
 50
0.0
 51
180.0
  0
LINE
  5
139
330
1F
100
AcDbEntity
  8
0
  6
Continuous
 62
     7
370
    25
100
AcDbLine
 10
9202.9842179243
 20
8363.5389324542
 30
0.0
 11
9202.9842179243
 21
8410.5389324542
 31
0.0
  0
LINE
  5
13A
330
1F
100
AcDbEntity
  8
0
  6
Continuous
 62
     8
370
    25
100
AcDbLine
 10
8913.2755138822
 20
8169.7692539533
 30
0.0
 11
9151.9842179243
 21
7829.9848845482
 31
0.0
  0
LINE
  5
13B
330
1F
100
AcDbEntity
  8
0
  6
Continuous
 62
     8
370
    25
100
AcDbLine
 10
8869.9078304187
 20
8139.3021564379
 30
0.0
 11
9151.9842179243
 21
7737.7870636504
 31
0.0
  0
LINE
  5
13C
330
1F
100
AcDbEntity
  8
0
  6
Continuous
 62
     8
370
    25
100
AcDbLine
 10
9512.875551425
 20
7840.233429876
 30
0.0
 11
9266.9842179243
 21
7696.3799032637
 31
0.0
  0
LINE
  5
13D
330
1F
100
AcDbEntity
  8
0
  6
Continuous
 62
     8
370
    25
100
AcDbLine
 10
9539.6385663277
 20
7794.486943308
 30
0.0
 11
9266.9842179243
 21
7634.9762805871
 31
0.0
  0
LINE
  5
13E
330
1F
100
AcDbEntity
  8
0
  6
Continuous
 62
     8
370
    25
100
AcDbLine
 10
10038.4969162592
 20
8058.9429922179
 30
0.0
 11
9266.9842179243
 21
8418.7052718153
 31
0.0
  0
LINE
  5
13F
330
1F
100
AcDbEntity
  8
0
  6
Continuous
 62
     8
370
    25
100
AcDbLine
 10
9238.3900904085
 20
8432.0389324542
 30
0.0
 11
8425.269055334
 21
8811.2034981164
 31
0.0
  0
LINE
  5
140
330
1F
100
AcDbEntity
  8
0
  6
Continuous
 62
     8
370
    25
100
AcDbLine
 10
9993.6993805147
 20
7962.874366792
 30
0.0
 11
9905.0538333267
 21
8004.2104643072
 31
0.0
  0
LINE
  5
141
330
1F
100
AcDbEntity
  8
0
  6
Continuous
 62
     8
370
    25
100
AcDbLine
 10
9878.7277592981
 20
8016.4865142358
 30
0.0
 11
9871.9044182721
 21
8019.6682904105
 31
0.0
  0
LINE
  5
142
330
1F
100
AcDbEntity
  8
0
  6
Continuous
 62
     8
370
    25
100
AcDbLine
 10
9838.9346280287
 20
8035.0423560888
 30
0.0
 11
9266.9842179243
 21
8301.7472124053
 31
0.0
  0
LINE
  5
143
330
1F
100
AcDbEntity
  8
0
  6
Continuous
 62
     8
370
    25
100
AcDbLine
 10
9151.9842179243
 20
8355.3725930931
 30
0.0
 11
8609.4194060724
 21
8608.3747199051
 31
0.0
  0
LINE
  5
144
330
1F
100
AcDbEntity
  8
0
  6
Continuous
 62
     8
370
    25
100
AcDbLine
 10
8500.3683111819
 20
8659.2260805827
 30
0.0
 11
8380.4715195895
 21
8715.1348726905
 31
0.0
  0
LINE
  5
145
330
1F
100
AcDbEntity
  8
0
  6
Continuous
 62
     7
370
    18
100
AcDbLine
 10
735.6723309503
 20
7462.0389324542
 30
0.0
 11
10324.0221998885
 21
7462.0389324542
 31
0.0
  0
DIMENSION
  5
146
330
1F
100
AcDbEntity
  8
0
  6
Continuous
 62
     7
370
    18
100
AcDbDimension
  2
_D
 10
10463.6752425716
 20
7462.0389324543
 30
0.0
 11
10463.6752425716
 21
7735.1094726754
 31
0.0
 70
   160
  1
<>
 71
     2
 42
-1.0
  3
SLDDIMSTYLE0
100
AcDbAlignedDimension
 13
10287.1709669973
 23
8102.4224872645
 33
0.0
 14
10324.0221998884
 24
7462.0389324543
 34
0.0
 50
90.0
100
AcDbRotatedDimension
  0
DIMENSION
  5
152
330
1F
100
AcDbEntity
  8
0
  6
Continuous
 62
     7
370
    18
100
AcDbDimension
  2
_D_1
 10
10687.1709669973
 20
7462.0389324543
 30
0.0
 11
10687.1709669973
 21
7812.1595680836
 31
0.0
 70
   160
  1
<>
 71
     2
 42
-1.0
  3
SLDDIMSTYLE0
100
AcDbAlignedDimension
 13
9963.4810506157
 23
8209.2264573822
 33
0.0
 14
10324.0221998884
 24
7462.0389324543
 34
0.0
 50
90.0
100
AcDbRotatedDimension
  0
DIMENSION
  5
15C
330
1F
100
AcDbEntity
  8
0
  6
Continuous
 62
     7
370
    18
100
AcDbDimension
  2
_D_2
 10
8017.0273261379
 20
7462.0389324543
 30
0.0
 11
8017.0273261379
 21
8132.3914162508
 31
0.0
 70
   160
  1
<>
 71
     2
 42
-1.0
  3
SLDDIMSTYLE0
100
AcDbAlignedDimension
 13
8588.6121376811
 23
8850.3383604429
 33
0.0
 14
10324.0221998884
 24
7462.0389324543
 34
0.0
 50
90.0
100
AcDbRotatedDimension
  0
DIMENSION
  5
165
330
1F
100
AcDbEntity
  8
0
  6
Continuous
 62
     7
370
    18
100
AcDbDimension
  2
_D_3
 10
7739.5956772826
 20
7462.0389324543
 30
0.0
 11
7739.5956772826
 21
8292.7812548417
 31
0.0
 70
   160
  1
<>
 71
     2
 42
-1.0
  3
SLDDIMSTYLE0
100
AcDbAlignedDimension
 13
8220.7892125537
 23
9065.9921240333
 33
0.0
 14
10324.0221998884
 24
7462.0389324543
 34
0.0
 50
90.0
100
AcDbRotatedDimension
  0
DIMENSION
  5
16E
330
1F
100
AcDbEntity
  8
0
  6
Continuous
 62
     7
370
    18
100
AcDbDimension
  2
_D_4
 10
735.6723309502
 20
7462.0389324543
 30
0.0
 11
8564.5546697029
 21
7950.1907618228
 31
0.0
 70
   162
  1
<>
 71
     1
 42
-1.0
  3
SLDDIMSTYLE1
100
AcDb2LineAngularDimension
 13
9992.8541439911
 23
7961.0617512181
 33
0.0
 14
8379.6262830659
 24
8713.3222571165
 34
0.0
 15
10324.0221998884
 25
7462.0389324543
 35
0.0
 16
8577.6566462754
 26
8013.0289563118
 36
0.0
  0
DIMENSION
  5
177
330
1F
100
AcDbEntity
  8
0
  6
Continuous
 62
     7
370
    18
100
AcDbDimension
  2
_D_5
 10
10364.3474692696
 20
8267.9280304879
 30
0.0
 11
9349.3173664767
 21
8741.2443406781
 31
0.0
 70
   160
  1
<>
 71
     2
 42
-1.0
  3
SLDDIMSTYLE0
100
AcDbAlignedDimension
 13
8220.7892125538
 23
9065.9921240332
 33
0.0
 14
10287.1709669973
 24
8102.4224872644
 34
0.0
 50
-25.0
100
AcDbRotatedDimension
  0
DIMENSION
  5
181
330
1F
100
AcDbEntity
  8
0
  6
Continuous
 62
     7
370
    18
100
AcDbDimension
  2
_D_6
 10
8427.1708375118
 20
9288.0825063011
 30
0.0
 11
9155.0911876072
 21
9288.0825063011
 31
0.0
 70
   160
  1
<>
 71
     2
 42
-1.0
  3
SLDDIMSTYLE0
100
AcDbAlignedDimension
 13
10040.3986984371
 23
8063.0213772596
 33
0.0
 14
8427.1708375118
 24
8815.281883158
 34
0.0
100
AcDbRotatedDimension
  0
DIMENSION
  5
18B
330
1F
100
AcDbEntity
  8
0
  6
Continuous
 62
     7
370
    18
100
AcDbDimension
  2
_D_7
 10
10287.1709669973
 20
9562.1225499159
 30
0.0
 11
9104.2383960086
 21
9562.1225499159
 31
0.0
 70
   160
  1
<>
 71
     2
 42
-1.0
  3
SLDDIMSTYLE0
100
AcDbAlignedDimension
 13
8220.7892125538
 23
9065.9921240332
 33
0.0
 14
10287.1709669973
 24
8102.4224872644
 34
0.0
100
AcDbRotatedDimension
  0
LINE
  5
195
330
1F
100
AcDbEntity
  8
0
  6
Continuous
 62
     7
370
    25
100
AcDbLine
 10
4232.8016977698
 20
8118.2677726385
 30
0.0
 11
4267.8017836005
 21
8118.2677726385
 31
0.0
  0
LINE
  5
196
330
1F
100
AcDbEntity
  8
0
  6
Continuous
 62
     7
370
    25
100
AcDbLine
 10
3072.8016715438
 20
8118.2677726385
 30
0.0
 11
3092.801712075
 21
8118.2677726385
 31
0.0
  0
LINE
  5
197
330
1F
100
AcDbEntity
  8
0
  6
Continuous
 62
     7
370
    25
100
AcDbLine
 10
1897.8016894252
 20
8118.2677726385
 30
0.0
 11
1932.8016858489
 21
8118.2677726385
 31
0.0
  0
LINE
  5
198
330
1F
100
AcDbEntity
  8
0
  6
Continuous
 62
     7
370
    25
100
AcDbLine
 10
4267.8017836005
 20
8227.7269940015
 30
0.0
 11
4232.7018003852
 21
8227.7269940015
 31
0.0
  0
LINE
  5
199
330
1F
100
AcDbEntity
  8
0
  6
Continuous
 62
     7
370
    25
100
AcDbLine
 10
3092.9016690642
 20
8227.7269940015
 30
0.0
 11
3072.7017145545
 21
8227.7269940015
 31
0.0
  0
LINE
  5
19A
330
1F
100
AcDbEntity
  8
0
  6
Continuous
 62
     7
370
    25
100
AcDbLine
 10
1932.9016875417
 20
8227.7269940015
 30
0.0
 11
1897.8016894252
 21
8227.7269940015
 31
0.0
  0
LINE
  5
19B
330
1F
100
AcDbEntity
  8
0
  6
Continuous
 62
     7
370
    25
100
AcDbLine
 10
6602.8018217475
 20
8741.2070612547
 30
0.0
 11
6637.8016691596
 21
8741.2070612547
 31
0.0
  0
LINE
  5
19C
330
1F
100
AcDbEntity
  8
0
  6
Continuous
 62
     7
370
    25
100
AcDbLine
 10
5442.8017359168
 20
8741.2070612547
 30
0.0
 11
5462.8017168433
 21
8741.2070612547
 31
0.0
  0
LINE
  5
19D
330
1F
100
AcDbEntity
  8
0
  6
Continuous
 62
     7
370
    25
100
AcDbLine
 10
4267.8017836005
 20
8741.2070612547
 30
0.0
 11
4302.8016310126
 21
8741.2070612547
 31
0.0
  0
LINE
  5
19E
330
1F
100
AcDbEntity
  8
0
  6
Continuous
 62
     7
370
    25
100
AcDbLine
 10
6637.8016691596
 20
8850.6663422224
 30
0.0
 11
6602.7016859443
 21
8850.6663422224
 31
0.0
  0
LINE
  5
19F
330
1F
100
AcDbEntity
  8
0
  6
Continuous
 62
     7
370
    25
100
AcDbLine
 10
5462.901614228
 20
8850.6663422224
 30
0.0
 11
5442.7016001136
 21
8850.6663422224
 31
0.0
  0
LINE
  5
1A0
330
1F
100
AcDbEntity
  8
0
  6
Continuous
 62
     7
370
    25
100
AcDbLine
 10
4302.9017668159
 20
8850.6663422224
 30
0.0
 11
4267.8017836005
 21
8850.6663422224
 31
0.0
  0
LINE
  5
1A1
330
1F
100
AcDbEntity
  8
0
  6
Continuous
 62
     7
370
    25
100
AcDbLine
 10
6602.8018217475
 20
8118.2677726385
 30
0.0
 11
6637.8016691596
 21
8118.2677726385
 31
0.0
  0
LINE
  5
1A2
330
1F
100
AcDbEntity
  8
0
  6
Continuous
 62
     7
370
    25
100
AcDbLine
 10
5442.8017359168
 20
8118.2677726385
 30
0.0
 11
5462.8017168433
 21
8118.2677726385
 31
0.0
  0
LINE
  5
1A3
330
1F
100
AcDbEntity
  8
0
  6
Continuous
 62
     7
370
    25
100
AcDbLine
 10
4267.8017836005
 20
8118.2677726385
 30
0.0
 11
4302.8016310126
 21
8118.2677726385
 31
0.0
  0
LINE
  5
1A4
330
1F
100
AcDbEntity
  8
0
  6
Continuous
 62
     7
370
    25
100
AcDbLine
 10
6637.8016691596
 20
8227.7269940015
 30
0.0
 11
6602.7016859443
 21
8227.7269940015
 31
0.0
  0
LINE
  5
1A5
330
1F
100
AcDbEntity
  8
0
  6
Continuous
 62
     7
370
    25
100
AcDbLine
 10
5462.901614228
 20
8227.7269940015
 30
0.0
 11
5442.7016001136
 21
8227.7269940015
 31
0.0
  0
LINE
  5
1A6
330
1F
100
AcDbEntity
  8
0
  6
Continuous
 62
     7
370
    25
100
AcDbLine
 10
4302.9017668159
 20
8227.7269940015
 30
0.0
 11
4267.8017836005
 21
8227.7269940015
 31
0.0
  0
LINE
  5
1A7
330
1F
100
AcDbEntity
  8
0
  6
Continuous
 62
     7
370
    25
100
AcDbLine
 10
4232.8016977698
 20
8741.2070612547
 30
0.0
 11
4267.8017836005
 21
8741.2070612547
 31
0.0
  0
LINE
  5
1A8
330
1F
100
AcDbEntity
  8
0
  6
Continuous
 62
     7
370
    25
100
AcDbLine
 10
3072.8016715438
 20
8741.2070612547
 30
0.0
 11
3092.801712075
 21
8741.2070612547
 31
0.0
  0
LINE
  5
1A9
330
1F
100
AcDbEntity
  8
0
  6
Continuous
 62
     7
370
    25
100
AcDbLine
 10
1897.8016894252
 20
8741.2070612547
 30
0.0
 11
1932.8016858489
 21
8741.2070612547
 31
0.0
  0
LINE
  5
1AA
330
1F
100
AcDbEntity
  8
0
  6
Continuous
 62
     7
370
    25
100
AcDbLine
 10
4267.8017836005
 20
8850.6663422224
 30
0.0
 11
4232.7018003852
 21
8850.6663422224
 31
0.0
  0
LINE
  5
1AB
330
1F
100
AcDbEntity
  8
0
  6
Continuous
 62
     7
370
    25
100
AcDbLine
 10
3092.9016690642
 20
8850.6663422224
 30
0.0
 11
3072.7017145545
 21
8850.6663422224
 31
0.0
  0
LINE
  5
1AC
330
1F
100
AcDbEntity
  8
0
  6
Continuous
 62
     7
370
    25
100
AcDbLine
 10
1932.9016875417
 20
8850.6663422224
 30
0.0
 11
1897.8016894252
 21
8850.6663422224
 31
0.0
  0
LINE
  5
1AD
330
1F
100
AcDbEntity
  8
0
  6
Continuous
 62
     7
370
    25
100
AcDbLine
 10
6397.8018980415
 20
7958.7959925767
 30
0.0
 11
6397.8018980415
 21
7892.7407543298
 31
0.0
  0
LINE
  5
1AE
330
1F
100
AcDbEntity
  8
0
  6
Continuous
 62
     7
370
    25
100
AcDbLine
 10
4027.8016548545
 20
7958.7959925767
 30
0.0
 11
4027.8016548545
 21
7892.7407543298
 31
0.0
  0
LINE
  5
1AF
330
1F
100
AcDbEntity
  8
0
  6
Continuous
 62
     7
370
    25
100
AcDbLine
 10
2157.801687339
 20
7958.7959925767
 30
0.0
 11
2157.801687339
 21
7892.7407543298
 31
0.0
  0
LINE
  5
1B0
330
1F
100
AcDbEntity
  8
0
  6
Continuous
 62
     7
370
    25
100
AcDbLine
 10
2121.3016883411
 20
7840.9522752401
 30
0.0
 11
2121.3016883411
 21
7596.0454474327
 31
0.0
  0
LINE
  5
1B1
330
1F
100
AcDbEntity
  8
0
  6
Continuous
 62
     7
370
    25
100
AcDbLine
 10
2157.801687339
 20
7840.9522752401
 30
0.0
 11
2121.3016883411
 21
7840.9522752401
 31
0.0
  0
LINE
  5
1B2
330
1F
100
AcDbEntity
  8
0
  6
Continuous
 62
     7
370
    25
100
AcDbLine
 10
2157.801687339
 20
7840.9522752401
 30
0.0
 11
2157.801687339
 21
7596.0454474327
 31
0.0
  0
LINE
  5
1B3
330
1F
100
AcDbEntity
  8
0
  6
Continuous
 62
     7
370
    25
100
AcDbLine
 10
2157.801687339
 20
7596.0454474327
 30
0.0
 11
2121.3016883411
 21
7596.0454474327
 31
0.0
  0
ARC
  5
1B4
330
1F
100
AcDbEntity
  8
0
  6
Continuous
 62
     7
370
    25
100
AcDbCircle
 10
2121.1742253161
 20
7844.1210029287
 30
0.0
 40
1.87835513462049
100
AcDbArc
 50
184.5107651169
 51
273.8910160287
  0
LINE
  5
1B5
330
1F
100
AcDbEntity
  8
0
  6
Continuous
 62
     7
370
    25
100
AcDbLine
 10
2121.3016883411
 20
7842.2469775316
 30
0.0
 11
2121.3016883411
 21
7840.9522752401
 31
0.0
  0
ARC
  5
1B6
330
1F
100
AcDbEntity
  8
0
  6
Continuous
 62
     7
370
    25
100
AcDbCircle
 10
2121.0785707166
 20
7844.2317551139
 30
0.0
 40
3.287060954291391
100
AcDbArc
 50
184.5101101554
 51
273.8920894153
  0
LINE
  5
1B7
330
1F
100
AcDbEntity
  8
0
  6
Continuous
 62
     7
370
    25
100
AcDbLine
 10
2117.8016882331
 20
7843.9732770559
 30
0.0
 11
2119.3016882461
 21
7843.9732770559
 31
0.0
  0
LINE
  5
1B8
330
1F
100
AcDbEntity
  8
0
  6
Continuous
 62
     7
370
    25
100
AcDbLine
 10
2157.801687339
 20
7840.9522752401
 30
0.0
 11
2157.801687339
 21
7842.2469775316
 31
0.0
  0
LINE
  5
1B9
330
1F
100
AcDbEntity
  8
0
  6
Continuous
 62
     7
370
    25
100
AcDbLine
 10
2157.801687339
 20
7842.2469775316
 30
0.0
 11
2121.3016883411
 21
7842.2469775316
 31
0.0
  0
LINE
  5
1BA
330
1F
100
AcDbEntity
  8
0
  6
Continuous
 62
     7
370
    25
100
AcDbLine
 10
2117.8016882331
 20
7843.9732770559
 30
0.0
 11
2117.8016882331
 21
7632.3436479208
 31
0.0
  0
ARC
  5
1BB
330
1F
100
AcDbEntity
  8
0
  6
Continuous
 62
     7
370
    25
100
AcDbCircle
 10
2121.0785714553
 20
7599.3249294373
 30
0.0
 40
3.287063030046347
100
AcDbArc
 50
184.5104051027
 51
273.8920740481
  0
LINE
  5
1BC
330
1F
100
AcDbEntity
  8
0
  6
Continuous
 62
     7
370
    25
100
AcDbLine
 10
2119.3016882461
 20
7889.719752514
 30
0.0
 11
2117.8016882331
 21
7889.719752514
 31
0.0
  0
LINE
  5
1BD
330
1F
100
AcDbEntity
  8
0
  6
Continuous
 62
     7
370
    25
100
AcDbLine
 10
2119.3016882461
 20
7843.9732770559
 30
0.0
 11
2119.3016882461
 21
7889.719752514
 31
0.0
  0
ARC
  5
1BE
330
1F
100
AcDbEntity
  8
0
  6
Continuous
 62
     7
370
    25
100
AcDbCircle
 10
2121.1742253161
 20
7889.5720266412
 30
0.0
 40
1.878355134618569
100
AcDbArc
 50
86.1089839713
 51
175.4892348832
  0
ARC
  5
1BF
330
1F
100
AcDbEntity
  8
0
  6
Continuous
 62
     7
370
    25
100
AcDbCircle
 10
2121.0785707166
 20
7889.461274456
 30
0.0
 40
3.287060954286954
100
AcDbArc
 50
86.1079105847
 51
175.4898898447
  0
LINE
  5
1C0
330
1F
100
AcDbEntity
  8
0
  6
Continuous
 62
     7
370
    25
100
AcDbLine
 10
2121.3016883411
 20
7892.7407543298
 30
0.0
 11
2121.3016883411
 21
7891.4460520383
 31
0.0
  0
LINE
  5
1C1
330
1F
100
AcDbEntity
  8
0
  6
Continuous
 62
     7
370
    25
100
AcDbLine
 10
2157.801687339
 20
7891.4460520383
 30
0.0
 11
2157.801687339
 21
7892.7407543298
 31
0.0
  0
LINE
  5
1C2
330
1F
100
AcDbEntity
  8
0
  6
Continuous
 62
     7
370
    25
100
AcDbLine
 10
2121.3016883411
 20
7891.4460520383
 30
0.0
 11
2157.801687339
 21
7891.4460520383
 31
0.0
  0
LINE
  5
1C3
330
1F
100
AcDbEntity
  8
0
  6
Continuous
 62
     7
370
    25
100
AcDbLine
 10
2121.3016883411
 20
7892.7407543298
 30
0.0
 11
2157.801687339
 21
7892.7407543298
 31
0.0
  0
LINE
  5
1C4
330
1F
100
AcDbEntity
  8
0
  6
Continuous
 62
     7
370
    25
100
AcDbLine
 10
2157.801687339
 20
7891.4460520383
 30
0.0
 11
2157.801687339
 21
7842.2469775316
 31
0.0
  0
LINE
  5
1C5
330
1F
100
AcDbEntity
  8
0
  6
Continuous
 62
     7
370
    25
100
AcDbLine
 10
6354.3014746101
 20
8036.3727788564
 30
0.0
 11
6354.3014746101
 21
7791.4659361478
 31
0.0
  0
ARC
  5
1C6
330
1F
100
AcDbEntity
  8
0
  6
Continuous
 62
     7
370
    25
100
AcDbCircle
 10
6354.5251208788
 20
8039.6516296006
 30
0.0
 40
3.286469208100336
100
AcDbArc
 50
266.0979710502
 51
355.500078238
  0
LINE
  5
1C7
330
1F
100
AcDbEntity
  8
0
  6
Continuous
 62
     7
370
    25
100
AcDbLine
 10
6357.8014593513
 20
7962.8743509885
 30
0.0
 11
6357.8014593513
 21
7794.4869379636
 31
0.0
  0
ARC
  5
1C8
330
1F
100
AcDbEntity
  8
0
  6
Continuous
 62
     7
370
    25
100
AcDbCircle
 10
6354.525091351
 20
7794.7448211015
 30
0.0
 40
3.286501329060849
100
AcDbArc
 50
266.0985252205
 51
355.4995240678
  0
ARC
  5
1C9
330
1F
100
AcDbEntity
  8
0
  6
Continuous
 62
     7
370
    25
100
AcDbCircle
 10
6354.4288915927
 20
8039.5419521777
 30
0.0
 40
1.878766883557155
100
AcDbArc
 50
266.1112454092
 51
355.476592941
  0
LINE
  5
1CA
330
1F
100
AcDbEntity
  8
0
  6
Continuous
 62
     7
370
    25
100
AcDbLine
 10
6356.3018064887
 20
8039.3937806722
 30
0.0
 11
6357.8014593513
 21
8039.3937806722
 31
0.0
  0
LINE
  5
1CB
330
1F
100
AcDbEntity
  8
0
  6
Continuous
 62
     7
370
    25
100
AcDbLine
 10
6354.3014746101
 20
8036.3727788564
 30
0.0
 11
6354.3014746101
 21
8037.6675109502
 31
0.0
  0
LINE
  5
1CC
330
1F
100
AcDbEntity
  8
0
  6
Continuous
 62
     7
370
    25
100
AcDbLine
 10
6354.3014746101
 20
8037.6675109502
 30
0.0
 11
6317.8014974982
 21
8037.6675109502
 31
0.0
  0
LINE
  5
1CD
330
1F
100
AcDbEntity
  8
0
  6
Continuous
 62
     7
370
    25
100
AcDbLine
 10
6354.3014746101
 20
8036.3727788564
 30
0.0
 11
6317.8014974982
 21
8036.3727788564
 31
0.0
  0
LINE
  5
1CE
330
1F
100
AcDbEntity
  8
0
  6
Continuous
 62
     7
370
    25
100
AcDbLine
 10
6317.8014974982
 20
8037.6675109502
 30
0.0
 11
6317.8014974982
 21
8036.3727788564
 31
0.0
  0
LINE
  5
1CF
330
1F
100
AcDbEntity
  8
0
  6
Continuous
 62
     7
370
    25
100
AcDbLine
 10
6354.3014746101
 20
7791.4659361478
 30
0.0
 11
6317.8014974982
 21
7791.4659361478
 31
0.0
  0
LINE
  5
1D0
330
1F
100
AcDbEntity
  8
0
  6
Continuous
 62
     7
370
    25
100
AcDbLine
 10
6317.8014974982
 20
8036.3727788564
 30
0.0
 11
6317.8014974982
 21
7791.4659361478
 31
0.0
  0
LINE
  5
1D1
330
1F
100
AcDbEntity
  8
0
  6
Continuous
 62
     7
370
    25
100
AcDbLine
 10
6356.3018064887
 20
8066.1701540586
 30
0.0
 11
6356.3018064887
 21
8039.3937806722
 31
0.0
  0
LINE
  5
1D2
330
1F
100
AcDbEntity
  8
0
  6
Continuous
 62
     7
370
    25
100
AcDbLine
 10
6317.8014974982
 20
8066.1701540586
 30
0.0
 11
6317.8014974982
 21
8037.6675109502
 31
0.0
  0
LINE
  5
1D3
330
1F
100
AcDbEntity
  8
0
  6
Continuous
 62
     7
370
    25
100
AcDbLine
 10
6361.3019209296
 20
7840.9522752401
 30
0.0
 11
6361.3019209296
 21
7596.0454474327
 31
0.0
  0
LINE
  5
1D4
330
1F
100
AcDbEntity
  8
0
  6
Continuous
 62
     7
370
    25
100
AcDbLine
 10
6397.8018980415
 20
7840.9522752401
 30
0.0
 11
6361.3019209296
 21
7840.9522752401
 31
0.0
  0
LINE
  5
1D5
330
1F
100
AcDbEntity
  8
0
  6
Continuous
 62
     7
370
    25
100
AcDbLine
 10
6397.8018980415
 20
7840.9522752401
 30
0.0
 11
6397.8018980415
 21
7596.0454474327
 31
0.0
  0
LINE
  5
1D6
330
1F
100
AcDbEntity
  8
0
  6
Continuous
 62
     7
370
    25
100
AcDbLine
 10
6397.8018980415
 20
7596.0454474327
 30
0.0
 11
6361.3019209296
 21
7596.0454474327
 31
0.0
  0
ARC
  5
1D7
330
1F
100
AcDbEntity
  8
0
  6
Continuous
 62
     7
370
    25
100
AcDbCircle
 10
6361.1741333535
 20
7844.1209867799
 30
0.0
 40
1.878361074847277
100
AcDbArc
 50
184.5102567052
 51
273.9009264395
  0
LINE
  5
1D8
330
1F
100
AcDbEntity
  8
0
  6
Continuous
 62
     7
370
    25
100
AcDbLine
 10
6361.3019209296
 20
7842.2469775316
 30
0.0
 11
6361.3019209296
 21
7840.9522752401
 31
0.0
  0
ARC
  5
1D9
330
1F
100
AcDbEntity
  8
0
  6
Continuous
 62
     7
370
    25
100
AcDbCircle
 10
6361.0787067107
 20
7844.2321437815
 30
0.0
 40
3.287455282827088
100
AcDbArc
 50
184.5163630541
 51
273.8933092407
  0
LINE
  5
1DA
330
1F
100
AcDbEntity
  8
0
  6
Continuous
 62
     7
370
    25
100
AcDbLine
 10
6357.8014593513
 20
7843.9732770559
 30
0.0
 11
6359.301589051
 21
7843.9732770559
 31
0.0
  0
LINE
  5
1DB
330
1F
100
AcDbEntity
  8
0
  6
Continuous
 62
     7
370
    25
100
AcDbLine
 10
6397.8018980415
 20
7840.9522752401
 30
0.0
 11
6397.8018980415
 21
7842.2469775316
 31
0.0
  0
LINE
  5
1DC
330
1F
100
AcDbEntity
  8
0
  6
Continuous
 62
     7
370
    25
100
AcDbLine
 10
6397.8018980415
 20
7842.2469775316
 30
0.0
 11
6361.3019209296
 21
7842.2469775316
 31
0.0
  0
LINE
  5
1DD
330
1F
100
AcDbEntity
  8
0
  6
Continuous
 62
     7
370
    25
100
AcDbLine
 10
6357.8014593513
 20
7843.9732770559
 30
0.0
 11
6357.8014593513
 21
7632.3436479208
 31
0.0
  0
ARC
  5
1DE
330
1F
100
AcDbEntity
  8
0
  6
Continuous
 62
     7
370
    25
100
AcDbCircle
 10
6361.0787074509
 20
7599.3253181087
 30
0.0
 40
3.287457362222754
100
AcDbArc
 50
184.5166580255
 51
273.893293844
  0
LINE
  5
1DF
330
1F
100
AcDbEntity
  8
0
  6
Continuous
 62
     7
370
    25
100
AcDbLine
 10
6359.301589051
 20
7889.719752514
 30
0.0
 11
6357.8014593513
 21
7889.719752514
 31
0.0
  0
LINE
  5
1E0
330
1F
100
AcDbEntity
  8
0
  6
Continuous
 62
     7
370
    25
100
AcDbLine
 10
6359.301589051
 20
7843.9732770559
 30
0.0
 11
6359.301589051
 21
7889.719752514
 31
0.0
  0
ARC
  5
1E1
330
1F
100
AcDbEntity
  8
0
  6
Continuous
 62
     7
370
    25
100
AcDbCircle
 10
6361.1741333535
 20
7889.57204279
 30
0.0
 40
1.878361074845249
100
AcDbArc
 50
86.0990735605
 51
175.4897432949
  0
ARC
  5
1E2
330
1F
100
AcDbEntity
  8
0
  6
Continuous
 62
     7
370
    25
100
AcDbCircle
 10
6361.0787067107
 20
7889.4608857884
 30
0.0
 40
3.287455282824153
100
AcDbArc
 50
86.1066907592
 51
175.4836369459
  0
LINE
  5
1E3
330
1F
100
AcDbEntity
  8
0
  6
Continuous
 62
     7
370
    25
100
AcDbLine
 10
6361.3019209296
 20
7892.7407543298
 30
0.0
 11
6361.3019209296
 21
7891.4460520383
 31
0.0
  0
LINE
  5
1E4
330
1F
100
AcDbEntity
  8
0
  6
Continuous
 62
     7
370
    25
100
AcDbLine
 10
6397.8018980415
 20
7891.4460520383
 30
0.0
 11
6397.8018980415
 21
7892.7407543298
 31
0.0
  0
LINE
  5
1E5
330
1F
100
AcDbEntity
  8
0
  6
Continuous
 62
     7
370
    25
100
AcDbLine
 10
6361.3019209296
 20
7891.4460520383
 30
0.0
 11
6397.8018980415
 21
7891.4460520383
 31
0.0
  0
LINE
  5
1E6
330
1F
100
AcDbEntity
  8
0
  6
Continuous
 62
     7
370
    25
100
AcDbLine
 10
6361.3019209296
 20
7892.7407543298
 30
0.0
 11
6397.8018980415
 21
7892.7407543298
 31
0.0
  0
LINE
  5
1E7
330
1F
100
AcDbEntity
  8
0
  6
Continuous
 62
     7
370
    25
100
AcDbLine
 10
6397.8018980415
 20
7891.4460520383
 30
0.0
 11
6397.8018980415
 21
7842.2469775316
 31
0.0
  0
LINE
  5
1E8
330
1F
100
AcDbEntity
  8
0
  6
Continuous
 62
     7
370
    25
100
AcDbLine
 10
2114.3016881251
 20
8036.3727788564
 30
0.0
 11
2114.3016881251
 21
7791.4659361478
 31
0.0
  0
ARC
  5
1E9
330
1F
100
AcDbEntity
  8
0
  6
Continuous
 62
     7
370
    25
100
AcDbCircle
 10
2114.5248057496
 20
8039.6522587303
 30
0.0
 40
3.287060954288314
100
AcDbArc
 50
266.1079105847
 51
355.4898898447
  0
LINE
  5
1EA
330
1F
100
AcDbEntity
  8
0
  6
Continuous
 62
     7
370
    25
100
AcDbLine
 10
2117.8016882331
 20
7962.8743509885
 30
0.0
 11
2117.8016882331
 21
7794.4869379636
 31
0.0
  0
ARC
  5
1EB
330
1F
100
AcDbEntity
  8
0
  6
Continuous
 62
     7
370
    25
100
AcDbCircle
 10
2114.5247762198
 20
7794.7454502336
 30
0.0
 40
3.287093083057979
100
AcDbArc
 50
266.1084645952
 51
355.4893358341
  0
ARC
  5
1EC
330
1F
100
AcDbEntity
  8
0
  6
Continuous
 62
     7
370
    25
100
AcDbCircle
 10
2114.4292087298
 20
8039.541472188
 30
0.0
 40
1.878295031490578
100
AcDbArc
 50
266.1070987936
 51
355.490141532
  0
LINE
  5
1ED
330
1F
100
AcDbEntity
  8
0
  6
Continuous
 62
     7
370
    25
100
AcDbLine
 10
2116.3016882201
 20
8039.3937806722
 30
0.0
 11
2117.8016882331
 21
8039.3937806722
 31
0.0
  0
LINE
  5
1EE
330
1F
100
AcDbEntity
  8
0
  6
Continuous
 62
     7
370
    25
100
AcDbLine
 10
2114.3016881251
 20
8036.3727788564
 30
0.0
 11
2114.3016881251
 21
8037.6675109502
 31
0.0
  0
LINE
  5
1EF
330
1F
100
AcDbEntity
  8
0
  6
Continuous
 62
     7
370
    25
100
AcDbLine
 10
2114.3016881251
 20
8037.6675109502
 30
0.0
 11
2077.8016891272
 21
8037.6675109502
 31
0.0
  0
LINE
  5
1F0
330
1F
100
AcDbEntity
  8
0
  6
Continuous
 62
     7
370
    25
100
AcDbLine
 10
2114.3016881251
 20
8036.3727788564
 30
0.0
 11
2077.8016891272
 21
8036.3727788564
 31
0.0
  0
LINE
  5
1F1
330
1F
100
AcDbEntity
  8
0
  6
Continuous
 62
     7
370
    25
100
AcDbLine
 10
2077.8016891272
 20
8037.6675109502
 30
0.0
 11
2077.8016891272
 21
8036.3727788564
 31
0.0
  0
LINE
  5
1F2
330
1F
100
AcDbEntity
  8
0
  6
Continuous
 62
     7
370
    25
100
AcDbLine
 10
2114.3016881251
 20
7791.4659361478
 30
0.0
 11
2077.8016891272
 21
7791.4659361478
 31
0.0
  0
LINE
  5
1F3
330
1F
100
AcDbEntity
  8
0
  6
Continuous
 62
     7
370
    25
100
AcDbLine
 10
2077.8016891272
 20
8036.3727788564
 30
0.0
 11
2077.8016891272
 21
7791.4659361478
 31
0.0
  0
LINE
  5
1F4
330
1F
100
AcDbEntity
  8
0
  6
Continuous
 62
     7
370
    25
100
AcDbLine
 10
2116.3016882201
 20
8066.1701540586
 30
0.0
 11
2116.3016882201
 21
8039.3937806722
 31
0.0
  0
LINE
  5
1F5
330
1F
100
AcDbEntity
  8
0
  6
Continuous
 62
     7
370
    25
100
AcDbLine
 10
2077.8016891272
 20
8066.1701540586
 30
0.0
 11
2077.8016891272
 21
8037.6675109502
 31
0.0
  0
LINE
  5
1F6
330
1F
100
AcDbEntity
  8
0
  6
Continuous
 62
     7
370
    25
100
AcDbLine
 10
3991.3016777427
 20
7840.9522752401
 30
0.0
 11
3991.3016777427
 21
7596.0454474327
 31
0.0
  0
LINE
  5
1F7
330
1F
100
AcDbEntity
  8
0
  6
Continuous
 62
     7
370
    25
100
AcDbLine
 10
4027.8016548545
 20
7840.9522752401
 30
0.0
 11
3991.3016777427
 21
7840.9522752401
 31
0.0
  0
LINE
  5
1F8
330
1F
100
AcDbEntity
  8
0
  6
Continuous
 62
     7
370
    25
100
AcDbLine
 10
4027.8016548545
 20
7840.9522752401
 30
0.0
 11
4027.8016548545
 21
7596.0454474327
 31
0.0
  0
LINE
  5
1F9
330
1F
100
AcDbEntity
  8
0
  6
Continuous
 62
     7
370
    25
100
AcDbLine
 10
4027.8016548545
 20
7596.0454474327
 30
0.0
 11
3991.3016777427
 21
7596.0454474327
 31
0.0
  0
LINE
  5
1FA
330
1F
100
AcDbEntity
  8
0
  6
Continuous
 62
     7
370
    25
100
AcDbLine
 10
4027.8016548545
 20
7840.9522752401
 30
0.0
 11
4027.8016548545
 21
7842.2469775316
 31
0.0
  0
LINE
  5
1FB
330
1F
100
AcDbEntity
  8
0
  6
Continuous
 62
     7
370
    25
100
AcDbLine
 10
3991.3016777427
 20
7842.2469775316
 30
0.0
 11
3991.3016777427
 21
7840.9522752401
 31
0.0
  0
LINE
  5
1FC
330
1F
100
AcDbEntity
  8
0
  6
Continuous
 62
     7
370
    25
100
AcDbLine
 10
4027.8016548545
 20
7842.2469775316
 30
0.0
 11
3991.3016777427
 21
7842.2469775316
 31
0.0
  0
LINE
  5
1FD
330
1F
100
AcDbEntity
  8
0
  6
Continuous
 62
     7
370
    25
100
AcDbLine
 10
3987.8016930015
 20
7843.9732770559
 30
0.0
 11
3987.8016930015
 21
7632.3436479208
 31
0.0
  0
ARC
  5
1FE
330
1F
100
AcDbEntity
  8
0
  6
Continuous
 62
     7
370
    25
100
AcDbCircle
 10
3991.0785375654
 20
7844.231712317
 30
0.0
 40
3.287019786990712
100
AcDbArc
 50
184.5094184512
 51
273.8925322606
  0
ARC
  5
1FF
330
1F
100
AcDbEntity
  8
0
  6
Continuous
 62
     7
370
    25
100
AcDbCircle
 10
3991.078538304
 20
7599.3248866401
 30
0.0
 40
3.287021862500216
100
AcDbArc
 50
184.5097133984
 51
273.8925168936
  0
ARC
  5
200
330
1F
100
AcDbEntity
  8
0
  6
Continuous
 62
     7
370
    25
100
AcDbCircle
 10
3991.1742390056
 20
7844.1210030338
 30
0.0
 40
1.878353591486802
100
AcDbArc
 50
184.5107720464
 51
273.8902766579
  0
LINE
  5
201
330
1F
100
AcDbEntity
  8
0
  6
Continuous
 62
     7
370
    25
100
AcDbLine
 10
3987.8016930015
 20
7843.9732770559
 30
0.0
 11
3989.3017034919
 21
7843.9732770559
 31
0.0
  0
LINE
  5
202
330
1F
100
AcDbEntity
  8
0
  6
Continuous
 62
     7
370
    25
100
AcDbLine
 10
3989.3017034919
 20
7889.719752514
 30
0.0
 11
3987.8016930015
 21
7889.719752514
 31
0.0
  0
LINE
  5
203
330
1F
100
AcDbEntity
  8
0
  6
Continuous
 62
     7
370
    25
100
AcDbLine
 10
3989.3017034919
 20
7843.9732770559
 30
0.0
 11
3989.3017034919
 21
7889.719752514
 31
0.0
  0
ARC
  5
204
330
1F
100
AcDbEntity
  8
0
  6
Continuous
 62
     7
370
    25
100
AcDbCircle
 10
3991.0785375654
 20
7889.4613172529
 30
0.0
 40
3.287019786989051
100
AcDbArc
 50
86.1074677393
 51
175.4905815488
  0
ARC
  5
205
330
1F
100
AcDbEntity
  8
0
  6
Continuous
 62
     7
370
    25
100
AcDbCircle
 10
3991.1742390056
 20
7889.5720265361
 30
0.0
 40
1.878353591485631
100
AcDbArc
 50
86.109723342
 51
175.4892279537
  0
LINE
  5
206
330
1F
100
AcDbEntity
  8
0
  6
Continuous
 62
     7
370
    25
100
AcDbLine
 10
3991.3016777427
 20
7892.7407543298
 30
0.0
 11
3991.3016777427
 21
7891.4460520383
 31
0.0
  0
LINE
  5
207
330
1F
100
AcDbEntity
  8
0
  6
Continuous
 62
     7
370
    25
100
AcDbLine
 10
3991.3016777427
 20
7891.4460520383
 30
0.0
 11
4027.8016548545
 21
7891.4460520383
 31
0.0
  0
LINE
  5
208
330
1F
100
AcDbEntity
  8
0
  6
Continuous
 62
     7
370
    25
100
AcDbLine
 10
4027.8016548545
 20
7891.4460520383
 30
0.0
 11
4027.8016548545
 21
7842.2469775316
 31
0.0
  0
LINE
  5
209
330
1F
100
AcDbEntity
  8
0
  6
Continuous
 62
     7
370
    25
100
AcDbLine
 10
4027.8016548545
 20
7891.4460520383
 30
0.0
 11
4027.8016548545
 21
7892.7407543298
 31
0.0
  0
LINE
  5
20A
330
1F
100
AcDbEntity
  8
0
  6
Continuous
 62
     7
370
    25
100
AcDbLine
 10
3991.3016777427
 20
7892.7407543298
 30
0.0
 11
4027.8016548545
 21
7892.7407543298
 31
0.0
  0
LINE
  5
20B
330
1F
100
AcDbEntity
  8
0
  6
Continuous
 62
     7
370
    25
100
AcDbLine
 10
3984.3017082603
 20
8036.3727788564
 30
0.0
 11
3984.3017082603
 21
7791.4659361478
 31
0.0
  0
ARC
  5
20C
330
1F
100
AcDbEntity
  8
0
  6
Continuous
 62
     7
370
    25
100
AcDbCircle
 10
3984.5248026257
 20
8039.6522690087
 30
0.0
 40
3.287069630374731
100
AcDbArc
 50
266.1083272317
 51
355.4897220564
  0
LINE
  5
20D
330
1F
100
AcDbEntity
  8
0
  6
Continuous
 62
     7
370
    25
100
AcDbLine
 10
3987.8016930015
 20
7962.8743509885
 30
0.0
 11
3987.8016930015
 21
7794.4869379636
 31
0.0
  0
ARC
  5
20E
330
1F
100
AcDbEntity
  8
0
  6
Continuous
 62
     7
370
    25
100
AcDbCircle
 10
3984.5247730931
 20
7794.7454605151
 30
0.0
 40
3.287101762252285
100
AcDbArc
 50
266.1088812887
 51
355.4891679995
  0
ARC
  5
20F
330
1F
100
AcDbEntity
  8
0
  6
Continuous
 62
     7
370
    25
100
AcDbCircle
 10
3984.4292045819
 20
8039.5414722883
 30
0.0
 40
1.878293483072108
100
AcDbArc
 50
266.1078380268
 51
355.4901347382
  0
LINE
  5
210
330
1F
100
AcDbEntity
  8
0
  6
Continuous
 62
     7
370
    25
100
AcDbLine
 10
3986.3016825111
 20
8039.3937806722
 30
0.0
 11
3987.8016930015
 21
8039.3937806722
 31
0.0
  0
LINE
  5
211
330
1F
100
AcDbEntity
  8
0
  6
Continuous
 62
     7
370
    25
100
AcDbLine
 10
3984.3017082603
 20
8036.3727788564
 30
0.0
 11
3984.3017082603
 21
8037.6675109502
 31
0.0
  0
LINE
  5
212
330
1F
100
AcDbEntity
  8
0
  6
Continuous
 62
     7
370
    25
100
AcDbLine
 10
3947.8017311484
 20
8037.6675109502
 30
0.0
 11
3947.8017311484
 21
8036.3727788564
 31
0.0
  0
LINE
  5
213
330
1F
100
AcDbEntity
  8
0
  6
Continuous
 62
     7
370
    25
100
AcDbLine
 10
3984.3017082603
 20
8037.6675109502
 30
0.0
 11
3947.8017311484
 21
8037.6675109502
 31
0.0
  0
LINE
  5
214
330
1F
100
AcDbEntity
  8
0
  6
Continuous
 62
     7
370
    25
100
AcDbLine
 10
3984.3017082603
 20
8036.3727788564
 30
0.0
 11
3947.8017311484
 21
8036.3727788564
 31
0.0
  0
LINE
  5
215
330
1F
100
AcDbEntity
  8
0
  6
Continuous
 62
     7
370
    25
100
AcDbLine
 10
3984.3017082603
 20
7791.4659361478
 30
0.0
 11
3947.8017311484
 21
7791.4659361478
 31
0.0
  0
LINE
  5
216
330
1F
100
AcDbEntity
  8
0
  6
Continuous
 62
     7
370
    25
100
AcDbLine
 10
3947.8017311484
 20
8036.3727788564
 30
0.0
 11
3947.8017311484
 21
7791.4659361478
 31
0.0
  0
LINE
  5
217
330
1F
100
AcDbEntity
  8
0
  6
Continuous
 62
     7
370
    25
100
AcDbLine
 10
3986.3016825111
 20
8066.1701540586
 30
0.0
 11
3986.3016825111
 21
8039.3937806722
 31
0.0
  0
LINE
  5
218
330
1F
100
AcDbEntity
  8
0
  6
Continuous
 62
     7
370
    25
100
AcDbLine
 10
3947.8017311484
 20
8066.1701540586
 30
0.0
 11
3947.8017311484
 21
8037.6675109502
 31
0.0
  0
LINE
  5
219
330
1F
100
AcDbEntity
  8
0
  6
Continuous
 62
     7
370
    25
100
AcDbLine
 10
5462.8017168433
 20
8102.4224738714
 30
0.0
 11
6602.8018217475
 21
8102.4224738714
 31
0.0
  0
LINE
  5
21A
330
1F
100
AcDbEntity
  8
0
  6
Continuous
 62
     7
370
    25
100
AcDbLine
 10
5462.8017168433
 20
8222.8686790105
 30
0.0
 11
5462.8017168433
 21
8102.4224738714
 31
0.0
  0
LINE
  5
21B
330
1F
100
AcDbEntity
  8
0
  6
Continuous
 62
     7
370
    25
100
AcDbLine
 10
5462.901614228
 20
8222.8686790105
 30
0.0
 11
5462.8017168433
 21
8222.8686790105
 31
0.0
  0
LINE
  5
21C
330
1F
100
AcDbEntity
  8
0
  6
Continuous
 62
     7
370
    25
100
AcDbLine
 10
5462.901614228
 20
8222.8686790105
 30
0.0
 11
5462.901614228
 21
8343.3148841497
 31
0.0
  0
LINE
  5
21D
330
1F
100
AcDbEntity
  8
0
  6
Continuous
 62
     7
370
    25
100
AcDbLine
 10
5462.901614228
 20
8343.3148841497
 30
0.0
 11
5462.8017168433
 21
8343.3148841497
 31
0.0
  0
LINE
  5
21E
330
1F
100
AcDbEntity
  8
0
  6
Continuous
 62
     7
370
    25
100
AcDbLine
 10
5462.8017168433
 20
8825.099764311
 30
0.0
 11
5462.8017168433
 21
8343.3148841497
 31
0.0
  0
LINE
  5
21F
330
1F
100
AcDbEntity
  8
0
  6
Continuous
 62
     7
370
    25
100
AcDbLine
 10
5462.901614228
 20
8825.099764311
 30
0.0
 11
5462.8017168433
 21
8825.099764311
 31
0.0
  0
LINE
  5
220
330
1F
100
AcDbEntity
  8
0
  6
Continuous
 62
     7
370
    25
100
AcDbLine
 10
5462.901614228
 20
8825.099764311
 30
0.0
 11
5462.901614228
 21
8945.5459694501
 31
0.0
  0
LINE
  5
221
330
1F
100
AcDbEntity
  8
0
  6
Continuous
 62
     7
370
    25
100
AcDbLine
 10
5462.901614228
 20
8945.5459694501
 30
0.0
 11
5462.8017168433
 21
8945.5459694501
 31
0.0
  0
LINE
  5
222
330
1F
100
AcDbEntity
  8
0
  6
Continuous
 62
     7
370
    25
100
AcDbLine
 10
5462.8017168433
 20
9065.9921745893
 30
0.0
 11
5462.8017168433
 21
8945.5459694501
 31
0.0
  0
LINE
  5
223
330
1F
100
AcDbEntity
  8
0
  6
Continuous
 62
     7
370
    25
100
AcDbLine
 10
6602.8018217475
 20
9065.9921745893
 30
0.0
 11
5462.8017168433
 21
9065.9921745893
 31
0.0
  0
LINE
  5
224
330
1F
100
AcDbEntity
  8
0
  6
Continuous
 62
     7
370
    25
100
AcDbLine
 10
6602.8018217475
 20
8945.5459694501
 30
0.0
 11
6602.8018217475
 21
9065.9921745893
 31
0.0
  0
LINE
  5
225
330
1F
100
AcDbEntity
  8
0
  6
Continuous
 62
     7
370
    25
100
AcDbLine
 10
6602.7016859443
 20
8945.5459694501
 30
0.0
 11
6602.8018217475
 21
8945.5459694501
 31
0.0
  0
LINE
  5
226
330
1F
100
AcDbEntity
  8
0
  6
Continuous
 62
     7
370
    25
100
AcDbLine
 10
6602.7016859443
 20
8825.099764311
 30
0.0
 11
6602.7016859443
 21
8945.5459694501
 31
0.0
  0
LINE
  5
227
330
1F
100
AcDbEntity
  8
0
  6
Continuous
 62
     7
370
    25
100
AcDbLine
 10
6602.7016859443
 20
8825.099764311
 30
0.0
 11
6602.8018217475
 21
8825.099764311
 31
0.0
  0
LINE
  5
228
330
1F
100
AcDbEntity
  8
0
  6
Continuous
 62
     7
370
    25
100
AcDbLine
 10
6602.8018217475
 20
8343.3148841497
 30
0.0
 11
6602.8018217475
 21
8825.099764311
 31
0.0
  0
LINE
  5
229
330
1F
100
AcDbEntity
  8
0
  6
Continuous
 62
     7
370
    25
100
AcDbLine
 10
6602.7016859443
 20
8343.3148841497
 30
0.0
 11
6602.8018217475
 21
8343.3148841497
 31
0.0
  0
LINE
  5
22A
330
1F
100
AcDbEntity
  8
0
  6
Continuous
 62
     7
370
    25
100
AcDbLine
 10
6602.7016859443
 20
8222.8686790105
 30
0.0
 11
6602.7016859443
 21
8343.3148841497
 31
0.0
  0
LINE
  5
22B
330
1F
100
AcDbEntity
  8
0
  6
Continuous
 62
     7
370
    25
100
AcDbLine
 10
6602.7016859443
 20
8222.8686790105
 30
0.0
 11
6602.8018217475
 21
8222.8686790105
 31
0.0
  0
LINE
  5
22C
330
1F
100
AcDbEntity
  8
0
  6
Continuous
 62
     7
370
    25
100
AcDbLine
 10
6602.8018217475
 20
8102.4224738714
 30
0.0
 11
6602.8018217475
 21
8222.8686790105
 31
0.0
  0
LINE
  5
22D
330
1F
100
AcDbEntity
  8
0
  6
Continuous
 62
     7
370
    25
100
AcDbLine
 10
5471.8017797858
 20
9062.1885637876
 30
0.0
 11
6593.8015203864
 21
9062.1885637876
 31
0.0
  0
LINE
  5
22E
330
1F
100
AcDbEntity
  8
0
  6
Continuous
 62
     7
370
    25
100
AcDbLine
 10
5471.8017797858
 20
8106.2260250684
 30
0.0
 11
5471.8017797858
 21
9062.1885637876
 31
0.0
  0
LINE
  5
22F
330
1F
100
AcDbEntity
  8
0
  6
Continuous
 62
     7
370
    25
100
AcDbLine
 10
6593.8015203864
 20
8106.2260250684
 30
0.0
 11
5471.8017797858
 21
8106.2260250684
 31
0.0
  0
LINE
  5
230
330
1F
100
AcDbEntity
  8
0
  6
Continuous
 62
     7
370
    25
100
AcDbLine
 10
6593.8015203864
 20
9062.1885637876
 30
0.0
 11
6593.8015203864
 21
8106.2260250684
 31
0.0
  0
LINE
  5
231
330
1F
100
AcDbEntity
  8
0
  6
Continuous
 62
     7
370
    25
100
AcDbLine
 10
6602.8018217475
 20
8066.1701540586
 30
0.0
 11
6602.8018217475
 21
8102.4224738714
 31
0.0
  0
LINE
  5
232
330
1F
100
AcDbEntity
  8
0
  6
Continuous
 62
     7
370
    25
100
AcDbLine
 10
5462.8017168433
 20
8066.1701540586
 30
0.0
 11
6602.8018217475
 21
8066.1701540586
 31
0.0
  0
LINE
  5
233
330
1F
100
AcDbEntity
  8
0
  6
Continuous
 62
     7
370
    25
100
AcDbLine
 10
5462.8017168433
 20
8066.1701540586
 30
0.0
 11
5462.8017168433
 21
8102.4224738714
 31
0.0
  0
LINE
  5
234
330
1F
100
AcDbEntity
  8
0
  6
Continuous
 62
     7
370
    25
100
AcDbLine
 10
6592.8015928657
 20
8106.2260250684
 30
0.0
 11
6592.8015928657
 21
9061.242638075
 31
0.0
  0
LINE
  5
235
330
1F
100
AcDbEntity
  8
0
  6
Continuous
 62
     7
370
    25
100
AcDbLine
 10
6593.8015203864
 20
9062.1885637876
 30
0.0
 11
6592.8015928657
 21
9061.242638075
 31
0.0
  0
LINE
  5
236
330
1F
100
AcDbEntity
  8
0
  6
Continuous
 62
     7
370
    25
100
AcDbLine
 10
5472.8017073066
 20
9061.242638075
 30
0.0
 11
5472.8017073066
 21
8106.2260250684
 31
0.0
  0
LINE
  5
237
330
1F
100
AcDbEntity
  8
0
  6
Continuous
 62
     7
370
    25
100
AcDbLine
 10
5472.8017073066
 20
9061.242638075
 30
0.0
 11
5471.8017797858
 21
9062.1885637876
 31
0.0
  0
LINE
  5
238
330
1F
100
AcDbEntity
  8
0
  6
Continuous
 62
     7
370
    25
100
AcDbLine
 10
6592.8015928657
 20
9060.4065041181
 30
0.0
 11
5472.8017073066
 21
9060.4065041181
 31
0.0
  0
LINE
  5
239
330
1F
100
AcDbEntity
  8
0
  6
Continuous
 62
     7
370
    25
100
AcDbLine
 10
6602.8018217475
 20
8343.3148841497
 30
0.0
 11
6602.8018217475
 21
8307.0625643369
 31
0.0
  0
LINE
  5
23A
330
1F
100
AcDbEntity
  8
0
  6
Continuous
 62
     7
370
    25
100
AcDbLine
 10
6602.7016859443
 20
8307.0625643369
 30
0.0
 11
6602.8018217475
 21
8307.0625643369
 31
0.0
  0
LINE
  5
23B
330
1F
100
AcDbEntity
  8
0
  6
Continuous
 62
     7
370
    25
100
AcDbLine
 10
5462.8017168433
 20
8343.3148841497
 30
0.0
 11
5462.8017168433
 21
8307.0625643369
 31
0.0
  0
LINE
  5
23C
330
1F
100
AcDbEntity
  8
0
  6
Continuous
 62
     7
370
    25
100
AcDbLine
 10
5462.901614228
 20
8307.0625643369
 30
0.0
 11
5462.8017168433
 21
8307.0625643369
 31
0.0
  0
LINE
  5
23D
330
1F
100
AcDbEntity
  8
0
  6
Continuous
 62
     7
370
    25
100
AcDbLine
 10
5462.8017168433
 20
8945.5459694501
 30
0.0
 11
5462.8017168433
 21
8909.2935900327
 31
0.0
  0
LINE
  5
23E
330
1F
100
AcDbEntity
  8
0
  6
Continuous
 62
     7
370
    25
100
AcDbLine
 10
5462.901614228
 20
8909.2935900327
 30
0.0
 11
5462.8017168433
 21
8909.2935900327
 31
0.0
  0
LINE
  5
23F
330
1F
100
AcDbEntity
  8
0
  6
Continuous
 62
     7
370
    25
100
AcDbLine
 10
6602.8018217475
 20
8945.5459694501
 30
0.0
 11
6602.8018217475
 21
8909.2935900327
 31
0.0
  0
LINE
  5
240
330
1F
100
AcDbEntity
  8
0
  6
Continuous
 62
     7
370
    25
100
AcDbLine
 10
6602.7016859443
 20
8909.2935900327
 30
0.0
 11
6602.8018217475
 21
8909.2935900327
 31
0.0
  0
LINE
  5
241
330
1F
100
AcDbEntity
  8
0
  6
Continuous
 62
     7
370
    25
100
AcDbLine
 10
6592.8015928657
 20
9061.242638075
 30
0.0
 11
5472.8017073066
 21
9061.242638075
 31
0.0
  0
LINE
  5
242
330
1F
100
AcDbEntity
  8
0
  6
Continuous
 62
     7
370
    25
100
AcDbLine
 10
5442.8017359168
 20
8066.1701540586
 30
0.0
 11
5442.8017359168
 21
8102.4224738714
 31
0.0
  0
LINE
  5
243
330
1F
100
AcDbEntity
  8
0
  6
Continuous
 62
     7
370
    25
100
AcDbLine
 10
4302.8016310126
 20
8066.1701540586
 30
0.0
 11
5442.8017359168
 21
8066.1701540586
 31
0.0
  0
LINE
  5
244
330
1F
100
AcDbEntity
  8
0
  6
Continuous
 62
     7
370
    25
100
AcDbLine
 10
4302.8016310126
 20
8066.1701540586
 30
0.0
 11
4302.8016310126
 21
8102.4224738714
 31
0.0
  0
LINE
  5
245
330
1F
100
AcDbEntity
  8
0
  6
Continuous
 62
     7
370
    25
100
AcDbLine
 10
4302.8016310126
 20
8102.4224738714
 30
0.0
 11
5442.8017359168
 21
8102.4224738714
 31
0.0
  0
LINE
  5
246
330
1F
100
AcDbEntity
  8
0
  6
Continuous
 62
     7
370
    25
100
AcDbLine
 10
4302.8016310126
 20
8222.8686790105
 30
0.0
 11
4302.8016310126
 21
8102.4224738714
 31
0.0
  0
LINE
  5
247
330
1F
100
AcDbEntity
  8
0
  6
Continuous
 62
     7
370
    25
100
AcDbLine
 10
4302.9017668159
 20
8222.8686790105
 30
0.0
 11
4302.8016310126
 21
8222.8686790105
 31
0.0
  0
LINE
  5
248
330
1F
100
AcDbEntity
  8
0
  6
Continuous
 62
     7
370
    25
100
AcDbLine
 10
4302.9017668159
 20
8222.8686790105
 30
0.0
 11
4302.9017668159
 21
8343.3148841497
 31
0.0
  0
LINE
  5
249
330
1F
100
AcDbEntity
  8
0
  6
Continuous
 62
     7
370
    25
100
AcDbLine
 10
4302.9017668159
 20
8343.3148841497
 30
0.0
 11
4302.8016310126
 21
8343.3148841497
 31
0.0
  0
LINE
  5
24A
330
1F
100
AcDbEntity
  8
0
  6
Continuous
 62
     7
370
    25
100
AcDbLine
 10
4302.8016310126
 20
8825.099764311
 30
0.0
 11
4302.8016310126
 21
8343.3148841497
 31
0.0
  0
LINE
  5
24B
330
1F
100
AcDbEntity
  8
0
  6
Continuous
 62
     7
370
    25
100
AcDbLine
 10
4302.9017668159
 20
8825.099764311
 30
0.0
 11
4302.8016310126
 21
8825.099764311
 31
0.0
  0
LINE
  5
24C
330
1F
100
AcDbEntity
  8
0
  6
Continuous
 62
     7
370
    25
100
AcDbLine
 10
4302.9017668159
 20
8825.099764311
 30
0.0
 11
4302.9017668159
 21
8945.5459694501
 31
0.0
  0
LINE
  5
24D
330
1F
100
AcDbEntity
  8
0
  6
Continuous
 62
     7
370
    25
100
AcDbLine
 10
4302.9017668159
 20
8945.5459694501
 30
0.0
 11
4302.8016310126
 21
8945.5459694501
 31
0.0
  0
LINE
  5
24E
330
1F
100
AcDbEntity
  8
0
  6
Continuous
 62
     7
370
    25
100
AcDbLine
 10
4302.8016310126
 20
9065.9921745893
 30
0.0
 11
4302.8016310126
 21
8945.5459694501
 31
0.0
  0
LINE
  5
24F
330
1F
100
AcDbEntity
  8
0
  6
Continuous
 62
     7
370
    25
100
AcDbLine
 10
5442.8017359168
 20
9065.9921745893
 30
0.0
 11
4302.8016310126
 21
9065.9921745893
 31
0.0
  0
LINE
  5
250
330
1F
100
AcDbEntity
  8
0
  6
Continuous
 62
     7
370
    25
100
AcDbLine
 10
5442.8017359168
 20
8945.5459694501
 30
0.0
 11
5442.8017359168
 21
9065.9921745893
 31
0.0
  0
LINE
  5
251
330
1F
100
AcDbEntity
  8
0
  6
Continuous
 62
     7
370
    25
100
AcDbLine
 10
5442.7016001136
 20
8945.5459694501
 30
0.0
 11
5442.8017359168
 21
8945.5459694501
 31
0.0
  0
LINE
  5
252
330
1F
100
AcDbEntity
  8
0
  6
Continuous
 62
     7
370
    25
100
AcDbLine
 10
5442.7016001136
 20
8825.099764311
 30
0.0
 11
5442.7016001136
 21
8945.5459694501
 31
0.0
  0
LINE
  5
253
330
1F
100
AcDbEntity
  8
0
  6
Continuous
 62
     7
370
    25
100
AcDbLine
 10
5442.7016001136
 20
8825.099764311
 30
0.0
 11
5442.8017359168
 21
8825.099764311
 31
0.0
  0
LINE
  5
254
330
1F
100
AcDbEntity
  8
0
  6
Continuous
 62
     7
370
    25
100
AcDbLine
 10
5442.8017359168
 20
8343.3148841497
 30
0.0
 11
5442.8017359168
 21
8825.099764311
 31
0.0
  0
LINE
  5
255
330
1F
100
AcDbEntity
  8
0
  6
Continuous
 62
     7
370
    25
100
AcDbLine
 10
5442.7016001136
 20
8343.3148841497
 30
0.0
 11
5442.8017359168
 21
8343.3148841497
 31
0.0
  0
LINE
  5
256
330
1F
100
AcDbEntity
  8
0
  6
Continuous
 62
     7
370
    25
100
AcDbLine
 10
5442.7016001136
 20
8222.8686790105
 30
0.0
 11
5442.7016001136
 21
8343.3148841497
 31
0.0
  0
LINE
  5
257
330
1F
100
AcDbEntity
  8
0
  6
Continuous
 62
     7
370
    25
100
AcDbLine
 10
5442.7016001136
 20
8222.8686790105
 30
0.0
 11
5442.8017359168
 21
8222.8686790105
 31
0.0
  0
LINE
  5
258
330
1F
100
AcDbEntity
  8
0
  6
Continuous
 62
     7
370
    25
100
AcDbLine
 10
5442.8017359168
 20
8102.4224738714
 30
0.0
 11
5442.8017359168
 21
8222.8686790105
 31
0.0
  0
LINE
  5
259
330
1F
100
AcDbEntity
  8
0
  6
Continuous
 62
     7
370
    25
100
AcDbLine
 10
4311.8016939551
 20
9062.1885637876
 30
0.0
 11
5433.8016729743
 21
9062.1885637876
 31
0.0
  0
LINE
  5
25A
330
1F
100
AcDbEntity
  8
0
  6
Continuous
 62
     7
370
    25
100
AcDbLine
 10
4311.8016939551
 20
8106.2260250684
 30
0.0
 11
4311.8016939551
 21
9062.1885637876
 31
0.0
  0
LINE
  5
25B
330
1F
100
AcDbEntity
  8
0
  6
Continuous
 62
     7
370
    25
100
AcDbLine
 10
5433.8016729743
 20
8106.2260250684
 30
0.0
 11
4311.8016939551
 21
8106.2260250684
 31
0.0
  0
LINE
  5
25C
330
1F
100
AcDbEntity
  8
0
  6
Continuous
 62
     7
370
    25
100
AcDbLine
 10
5433.8016729743
 20
9062.1885637876
 30
0.0
 11
5433.8016729743
 21
8106.2260250684
 31
0.0
  0
LINE
  5
25D
330
1F
100
AcDbEntity
  8
0
  6
Continuous
 62
     7
370
    25
100
AcDbLine
 10
4312.8016214759
 20
9061.242638075
 30
0.0
 11
4312.8016214759
 21
8106.2260250684
 31
0.0
  0
LINE
  5
25E
330
1F
100
AcDbEntity
  8
0
  6
Continuous
 62
     7
370
    25
100
AcDbLine
 10
4312.8016214759
 20
9061.242638075
 30
0.0
 11
4311.8016939551
 21
9062.1885637876
 31
0.0
  0
LINE
  5
25F
330
1F
100
AcDbEntity
  8
0
  6
Continuous
 62
     7
370
    25
100
AcDbLine
 10
5432.8017454536
 20
8106.2260250684
 30
0.0
 11
5432.8017454536
 21
9061.242638075
 31
0.0
  0
LINE
  5
260
330
1F
100
AcDbEntity
  8
0
  6
Continuous
 62
     7
370
    25
100
AcDbLine
 10
5433.8016729743
 20
9062.1885637876
 30
0.0
 11
5432.8017454536
 21
9061.242638075
 31
0.0
  0
LINE
  5
261
330
1F
100
AcDbEntity
  8
0
  6
Continuous
 62
     7
370
    25
100
AcDbLine
 10
5432.8017454536
 20
9060.4065041181
 30
0.0
 11
4312.8016214759
 21
9060.4065041181
 31
0.0
  0
LINE
  5
262
330
1F
100
AcDbEntity
  8
0
  6
Continuous
 62
     7
370
    25
100
AcDbLine
 10
5442.8017359168
 20
8343.3148841497
 30
0.0
 11
5442.8017359168
 21
8307.0625643369
 31
0.0
  0
LINE
  5
263
330
1F
100
AcDbEntity
  8
0
  6
Continuous
 62
     7
370
    25
100
AcDbLine
 10
5442.7016001136
 20
8307.0625643369
 30
0.0
 11
5442.8017359168
 21
8307.0625643369
 31
0.0
  0
LINE
  5
264
330
1F
100
AcDbEntity
  8
0
  6
Continuous
 62
     7
370
    25
100
AcDbLine
 10
4302.8016310126
 20
8343.3148841497
 30
0.0
 11
4302.8016310126
 21
8307.0625643369
 31
0.0
  0
LINE
  5
265
330
1F
100
AcDbEntity
  8
0
  6
Continuous
 62
     7
370
    25
100
AcDbLine
 10
4302.9017668159
 20
8307.0625643369
 30
0.0
 11
4302.8016310126
 21
8307.0625643369
 31
0.0
  0
LINE
  5
266
330
1F
100
AcDbEntity
  8
0
  6
Continuous
 62
     7
370
    25
100
AcDbLine
 10
4302.8016310126
 20
8945.5459694501
 30
0.0
 11
4302.8016310126
 21
8909.2935900327
 31
0.0
  0
LINE
  5
267
330
1F
100
AcDbEntity
  8
0
  6
Continuous
 62
     7
370
    25
100
AcDbLine
 10
4302.9017668159
 20
8909.2935900327
 30
0.0
 11
4302.8016310126
 21
8909.2935900327
 31
0.0
  0
LINE
  5
268
330
1F
100
AcDbEntity
  8
0
  6
Continuous
 62
     7
370
    25
100
AcDbLine
 10
5442.8017359168
 20
8945.5459694501
 30
0.0
 11
5442.8017359168
 21
8909.2935900327
 31
0.0
  0
LINE
  5
269
330
1F
100
AcDbEntity
  8
0
  6
Continuous
 62
     7
370
    25
100
AcDbLine
 10
5442.7016001136
 20
8909.2935900327
 30
0.0
 11
5442.8017359168
 21
8909.2935900327
 31
0.0
  0
LINE
  5
26A
330
1F
100
AcDbEntity
  8
0
  6
Continuous
 62
     7
370
    25
100
AcDbLine
 10
5432.8017454536
 20
9061.242638075
 30
0.0
 11
4312.8016214759
 21
9061.242638075
 31
0.0
  0
LINE
  5
26B
330
1F
100
AcDbEntity
  8
0
  6
Continuous
 62
     7
370
    25
100
AcDbLine
 10
3092.801712075
 20
8102.4224738714
 30
0.0
 11
4232.8016977698
 21
8102.4224738714
 31
0.0
  0
LINE
  5
26C
330
1F
100
AcDbEntity
  8
0
  6
Continuous
 62
     7
370
    25
100
AcDbLine
 10
3092.801712075
 20
8222.8686790105
 30
0.0
 11
3092.801712075
 21
8102.4224738714
 31
0.0
  0
LINE
  5
26D
330
1F
100
AcDbEntity
  8
0
  6
Continuous
 62
     7
370
    25
100
AcDbLine
 10
3092.9016690642
 20
8222.8686790105
 30
0.0
 11
3092.801712075
 21
8222.8686790105
 31
0.0
  0
LINE
  5
26E
330
1F
100
AcDbEntity
  8
0
  6
Continuous
 62
     7
370
    25
100
AcDbLine
 10
3092.9016690642
 20
8222.8686790105
 30
0.0
 11
3092.9016690642
 21
8343.3148841497
 31
0.0
  0
LINE
  5
26F
330
1F
100
AcDbEntity
  8
0
  6
Continuous
 62
     7
370
    25
100
AcDbLine
 10
3092.9016690642
 20
8343.3148841497
 30
0.0
 11
3092.801712075
 21
8343.3148841497
 31
0.0
  0
LINE
  5
270
330
1F
100
AcDbEntity
  8
0
  6
Continuous
 62
     7
370
    25
100
AcDbLine
 10
3092.801712075
 20
8825.099764311
 30
0.0
 11
3092.801712075
 21
8343.3148841497
 31
0.0
  0
LINE
  5
271
330
1F
100
AcDbEntity
  8
0
  6
Continuous
 62
     7
370
    25
100
AcDbLine
 10
3092.9016690642
 20
8825.099764311
 30
0.0
 11
3092.801712075
 21
8825.099764311
 31
0.0
  0
LINE
  5
272
330
1F
100
AcDbEntity
  8
0
  6
Continuous
 62
     7
370
    25
100
AcDbLine
 10
3092.9016690642
 20
8825.099764311
 30
0.0
 11
3092.9016690642
 21
8945.5459694501
 31
0.0
  0
LINE
  5
273
330
1F
100
AcDbEntity
  8
0
  6
Continuous
 62
     7
370
    25
100
AcDbLine
 10
3092.9016690642
 20
8945.5459694501
 30
0.0
 11
3092.801712075
 21
8945.5459694501
 31
0.0
  0
LINE
  5
274
330
1F
100
AcDbEntity
  8
0
  6
Continuous
 62
     7
370
    25
100
AcDbLine
 10
3092.801712075
 20
9065.9921745893
 30
0.0
 11
3092.801712075
 21
8945.5459694501
 31
0.0
  0
LINE
  5
275
330
1F
100
AcDbEntity
  8
0
  6
Continuous
 62
     7
370
    25
100
AcDbLine
 10
4232.8016977698
 20
9065.9921745893
 30
0.0
 11
3092.801712075
 21
9065.9921745893
 31
0.0
  0
LINE
  5
276
330
1F
100
AcDbEntity
  8
0
  6
Continuous
 62
     7
370
    25
100
AcDbLine
 10
4232.8016977698
 20
8945.5459694501
 30
0.0
 11
4232.8016977698
 21
9065.9921745893
 31
0.0
  0
LINE
  5
277
330
1F
100
AcDbEntity
  8
0
  6
Continuous
 62
     7
370
    25
100
AcDbLine
 10
4232.7018003852
 20
8945.5459694501
 30
0.0
 11
4232.8016977698
 21
8945.5459694501
 31
0.0
  0
LINE
  5
278
330
1F
100
AcDbEntity
  8
0
  6
Continuous
 62
     7
370
    25
100
AcDbLine
 10
4232.7018003852
 20
8825.099764311
 30
0.0
 11
4232.7018003852
 21
8945.5459694501
 31
0.0
  0
LINE
  5
279
330
1F
100
AcDbEntity
  8
0
  6
Continuous
 62
     7
370
    25
100
AcDbLine
 10
4232.7018003852
 20
8825.099764311
 30
0.0
 11
4232.8016977698
 21
8825.099764311
 31
0.0
  0
LINE
  5
27A
330
1F
100
AcDbEntity
  8
0
  6
Continuous
 62
     7
370
    25
100
AcDbLine
 10
4232.8016977698
 20
8343.3148841497
 30
0.0
 11
4232.8016977698
 21
8825.099764311
 31
0.0
  0
LINE
  5
27B
330
1F
100
AcDbEntity
  8
0
  6
Continuous
 62
     7
370
    25
100
AcDbLine
 10
4232.7018003852
 20
8343.3148841497
 30
0.0
 11
4232.8016977698
 21
8343.3148841497
 31
0.0
  0
LINE
  5
27C
330
1F
100
AcDbEntity
  8
0
  6
Continuous
 62
     7
370
    25
100
AcDbLine
 10
4232.7018003852
 20
8222.8686790105
 30
0.0
 11
4232.7018003852
 21
8343.3148841497
 31
0.0
  0
LINE
  5
27D
330
1F
100
AcDbEntity
  8
0
  6
Continuous
 62
     7
370
    25
100
AcDbLine
 10
4232.7018003852
 20
8222.8686790105
 30
0.0
 11
4232.8016977698
 21
8222.8686790105
 31
0.0
  0
LINE
  5
27E
330
1F
100
AcDbEntity
  8
0
  6
Continuous
 62
     7
370
    25
100
AcDbLine
 10
4232.8016977698
 20
8102.4224738714
 30
0.0
 11
4232.8016977698
 21
8222.8686790105
 31
0.0
  0
LINE
  5
27F
330
1F
100
AcDbEntity
  8
0
  6
Continuous
 62
     7
370
    25
100
AcDbLine
 10
3101.8017154128
 20
9062.1885637876
 30
0.0
 11
4223.8016348273
 21
9062.1885637876
 31
0.0
  0
LINE
  5
280
330
1F
100
AcDbEntity
  8
0
  6
Continuous
 62
     7
370
    25
100
AcDbLine
 10
3101.8017154128
 20
8106.2260250684
 30
0.0
 11
3101.8017154128
 21
9062.1885637876
 31
0.0
  0
LINE
  5
281
330
1F
100
AcDbEntity
  8
0
  6
Continuous
 62
     7
370
    25
100
AcDbLine
 10
4223.8016348273
 20
8106.2260250684
 30
0.0
 11
3101.8017154128
 21
8106.2260250684
 31
0.0
  0
LINE
  5
282
330
1F
100
AcDbEntity
  8
0
  6
Continuous
 62
     7
370
    25
100
AcDbLine
 10
4223.8016348273
 20
9062.1885637876
 30
0.0
 11
4223.8016348273
 21
8106.2260250684
 31
0.0
  0
LINE
  5
283
330
1F
100
AcDbEntity
  8
0
  6
Continuous
 62
     7
370
    25
100
AcDbLine
 10
4232.8016977698
 20
8066.1701540586
 30
0.0
 11
4232.8016977698
 21
8102.4224738714
 31
0.0
  0
LINE
  5
284
330
1F
100
AcDbEntity
  8
0
  6
Continuous
 62
     7
370
    25
100
AcDbLine
 10
3092.801712075
 20
8066.1701540586
 30
0.0
 11
4232.8016977698
 21
8066.1701540586
 31
0.0
  0
LINE
  5
285
330
1F
100
AcDbEntity
  8
0
  6
Continuous
 62
     7
370
    25
100
AcDbLine
 10
3092.801712075
 20
8066.1701540586
 30
0.0
 11
3092.801712075
 21
8102.4224738714
 31
0.0
  0
LINE
  5
286
330
1F
100
AcDbEntity
  8
0
  6
Continuous
 62
     7
370
    25
100
AcDbLine
 10
3102.8017025382
 20
9061.242638075
 30
0.0
 11
3102.8017025382
 21
8106.2260250684
 31
0.0
  0
LINE
  5
287
330
1F
100
AcDbEntity
  8
0
  6
Continuous
 62
     7
370
    25
100
AcDbLine
 10
3102.8017025382
 20
9061.242638075
 30
0.0
 11
3101.8017154128
 21
9062.1885637876
 31
0.0
  0
LINE
  5
288
330
1F
100
AcDbEntity
  8
0
  6
Continuous
 62
     7
370
    25
100
AcDbLine
 10
4222.8017073066
 20
8106.2260250684
 30
0.0
 11
4222.8017073066
 21
9061.242638075
 31
0.0
  0
LINE
  5
289
330
1F
100
AcDbEntity
  8
0
  6
Continuous
 62
     7
370
    25
100
AcDbLine
 10
4223.8016348273
 20
9062.1885637876
 30
0.0
 11
4222.8017073066
 21
9061.242638075
 31
0.0
  0
LINE
  5
28A
330
1F
100
AcDbEntity
  8
0
  6
Continuous
 62
     7
370
    25
100
AcDbLine
 10
4222.8017073066
 20
9060.4065041181
 30
0.0
 11
3102.8017025382
 21
9060.4065041181
 31
0.0
  0
LINE
  5
28B
330
1F
100
AcDbEntity
  8
0
  6
Continuous
 62
     7
370
    25
100
AcDbLine
 10
4232.8016977698
 20
8343.3148841497
 30
0.0
 11
4232.8016977698
 21
8307.0625643369
 31
0.0
  0
LINE
  5
28C
330
1F
100
AcDbEntity
  8
0
  6
Continuous
 62
     7
370
    25
100
AcDbLine
 10
4232.7018003852
 20
8307.0625643369
 30
0.0
 11
4232.8016977698
 21
8307.0625643369
 31
0.0
  0
LINE
  5
28D
330
1F
100
AcDbEntity
  8
0
  6
Continuous
 62
     7
370
    25
100
AcDbLine
 10
3092.801712075
 20
8343.3148841497
 30
0.0
 11
3092.801712075
 21
8307.0625643369
 31
0.0
  0
LINE
  5
28E
330
1F
100
AcDbEntity
  8
0
  6
Continuous
 62
     7
370
    25
100
AcDbLine
 10
3092.9016690642
 20
8307.0625643369
 30
0.0
 11
3092.801712075
 21
8307.0625643369
 31
0.0
  0
LINE
  5
28F
330
1F
100
AcDbEntity
  8
0
  6
Continuous
 62
     7
370
    25
100
AcDbLine
 10
3092.801712075
 20
8945.5459694501
 30
0.0
 11
3092.801712075
 21
8909.2935900327
 31
0.0
  0
LINE
  5
290
330
1F
100
AcDbEntity
  8
0
  6
Continuous
 62
     7
370
    25
100
AcDbLine
 10
3092.9016690642
 20
8909.2935900327
 30
0.0
 11
3092.801712075
 21
8909.2935900327
 31
0.0
  0
LINE
  5
291
330
1F
100
AcDbEntity
  8
0
  6
Continuous
 62
     7
370
    25
100
AcDbLine
 10
4232.8016977698
 20
8945.5459694501
 30
0.0
 11
4232.8016977698
 21
8909.2935900327
 31
0.0
  0
LINE
  5
292
330
1F
100
AcDbEntity
  8
0
  6
Continuous
 62
     7
370
    25
100
AcDbLine
 10
4232.7018003852
 20
8909.2935900327
 30
0.0
 11
4232.8016977698
 21
8909.2935900327
 31
0.0
  0
LINE
  5
293
330
1F
100
AcDbEntity
  8
0
  6
Continuous
 62
     7
370
    25
100
AcDbLine
 10
4222.8017073066
 20
9061.242638075
 30
0.0
 11
3102.8017025382
 21
9061.242638075
 31
0.0
  0
LINE
  5
294
330
1F
100
AcDbEntity
  8
0
  6
Continuous
 62
     7
370
    25
100
AcDbLine
 10
1932.8016858489
 20
8102.4224738714
 30
0.0
 11
3072.8016715438
 21
8102.4224738714
 31
0.0
  0
LINE
  5
295
330
1F
100
AcDbEntity
  8
0
  6
Continuous
 62
     7
370
    25
100
AcDbLine
 10
1932.8016858489
 20
8222.8686790105
 30
0.0
 11
1932.8016858489
 21
8102.4224738714
 31
0.0
  0
LINE
  5
296
330
1F
100
AcDbEntity
  8
0
  6
Continuous
 62
     7
370
    25
100
AcDbLine
 10
1932.9016875417
 20
8222.8686790105
 30
0.0
 11
1932.8016858489
 21
8222.8686790105
 31
0.0
  0
LINE
  5
297
330
1F
100
AcDbEntity
  8
0
  6
Continuous
 62
     7
370
    25
100
AcDbLine
 10
1932.9016875417
 20
8222.8686790105
 30
0.0
 11
1932.9016875417
 21
8343.3148841497
 31
0.0
  0
LINE
  5
298
330
1F
100
AcDbEntity
  8
0
  6
Continuous
 62
     7
370
    25
100
AcDbLine
 10
1932.9016875417
 20
8343.3148841497
 30
0.0
 11
1932.8016858489
 21
8343.3148841497
 31
0.0
  0
LINE
  5
299
330
1F
100
AcDbEntity
  8
0
  6
Continuous
 62
     7
370
    25
100
AcDbLine
 10
1932.8016858489
 20
8825.099764311
 30
0.0
 11
1932.8016858489
 21
8343.3148841497
 31
0.0
  0
LINE
  5
29A
330
1F
100
AcDbEntity
  8
0
  6
Continuous
 62
     7
370
    25
100
AcDbLine
 10
1932.9016875417
 20
8825.099764311
 30
0.0
 11
1932.8016858489
 21
8825.099764311
 31
0.0
  0
LINE
  5
29B
330
1F
100
AcDbEntity
  8
0
  6
Continuous
 62
     7
370
    25
100
AcDbLine
 10
1932.9016875417
 20
8825.099764311
 30
0.0
 11
1932.9016875417
 21
8945.5459694501
 31
0.0
  0
LINE
  5
29C
330
1F
100
AcDbEntity
  8
0
  6
Continuous
 62
     7
370
    25
100
AcDbLine
 10
1932.9016875417
 20
8945.5459694501
 30
0.0
 11
1932.8016858489
 21
8945.5459694501
 31
0.0
  0
LINE
  5
29D
330
1F
100
AcDbEntity
  8
0
  6
Continuous
 62
     7
370
    25
100
AcDbLine
 10
1932.8016858489
 20
9065.9921745893
 30
0.0
 11
1932.8016858489
 21
8945.5459694501
 31
0.0
  0
LINE
  5
29E
330
1F
100
AcDbEntity
  8
0
  6
Continuous
 62
     7
370
    25
100
AcDbLine
 10
3072.8016715438
 20
9065.9921745893
 30
0.0
 11
1932.8016858489
 21
9065.9921745893
 31
0.0
  0
LINE
  5
29F
330
1F
100
AcDbEntity
  8
0
  6
Continuous
 62
     7
370
    25
100
AcDbLine
 10
3072.8016715438
 20
8945.5459694501
 30
0.0
 11
3072.8016715438
 21
9065.9921745893
 31
0.0
  0
LINE
  5
2A0
330
1F
100
AcDbEntity
  8
0
  6
Continuous
 62
     7
370
    25
100
AcDbLine
 10
3072.7017145545
 20
8945.5459694501
 30
0.0
 11
3072.8016715438
 21
8945.5459694501
 31
0.0
  0
LINE
  5
2A1
330
1F
100
AcDbEntity
  8
0
  6
Continuous
 62
     7
370
    25
100
AcDbLine
 10
3072.7017145545
 20
8825.099764311
 30
0.0
 11
3072.7017145545
 21
8945.5459694501
 31
0.0
  0
LINE
  5
2A2
330
1F
100
AcDbEntity
  8
0
  6
Continuous
 62
     7
370
    25
100
AcDbLine
 10
3072.7017145545
 20
8825.099764311
 30
0.0
 11
3072.8016715438
 21
8825.099764311
 31
0.0
  0
LINE
  5
2A3
330
1F
100
AcDbEntity
  8
0
  6
Continuous
 62
     7
370
    25
100
AcDbLine
 10
3072.8016715438
 20
8343.3148841497
 30
0.0
 11
3072.8016715438
 21
8825.099764311
 31
0.0
  0
LINE
  5
2A4
330
1F
100
AcDbEntity
  8
0
  6
Continuous
 62
     7
370
    25
100
AcDbLine
 10
3072.7017145545
 20
8343.3148841497
 30
0.0
 11
3072.8016715438
 21
8343.3148841497
 31
0.0
  0
LINE
  5
2A5
330
1F
100
AcDbEntity
  8
0
  6
Continuous
 62
     7
370
    25
100
AcDbLine
 10
3072.7017145545
 20
8222.8686790105
 30
0.0
 11
3072.7017145545
 21
8343.3148841497
 31
0.0
  0
LINE
  5
2A6
330
1F
100
AcDbEntity
  8
0
  6
Continuous
 62
     7
370
    25
100
AcDbLine
 10
3072.7017145545
 20
8222.8686790105
 30
0.0
 11
3072.8016715438
 21
8222.8686790105
 31
0.0
  0
LINE
  5
2A7
330
1F
100
AcDbEntity
  8
0
  6
Continuous
 62
     7
370
    25
100
AcDbLine
 10
3072.8016715438
 20
8102.4224738714
 30
0.0
 11
3072.8016715438
 21
8222.8686790105
 31
0.0
  0
LINE
  5
2A8
330
1F
100
AcDbEntity
  8
0
  6
Continuous
 62
     7
370
    25
100
AcDbLine
 10
1941.8016891868
 20
9062.1885637876
 30
0.0
 11
3063.8016682059
 21
9062.1885637876
 31
0.0
  0
LINE
  5
2A9
330
1F
100
AcDbEntity
  8
0
  6
Continuous
 62
     7
370
    25
100
AcDbLine
 10
1941.8016891868
 20
8106.2260250684
 30
0.0
 11
1941.8016891868
 21
9062.1885637876
 31
0.0
  0
LINE
  5
2AA
330
1F
100
AcDbEntity
  8
0
  6
Continuous
 62
     7
370
    25
100
AcDbLine
 10
3063.8016682059
 20
8106.2260250684
 30
0.0
 11
1941.8016891868
 21
8106.2260250684
 31
0.0
  0
LINE
  5
2AB
330
1F
100
AcDbEntity
  8
0
  6
Continuous
 62
     7
370
    25
100
AcDbLine
 10
3063.8016682059
 20
9062.1885637876
 30
0.0
 11
3063.8016682059
 21
8106.2260250684
 31
0.0
  0
LINE
  5
2AC
330
1F
100
AcDbEntity
  8
0
  6
Continuous
 62
     7
370
    25
100
AcDbLine
 10
3072.8016715438
 20
8066.1701540586
 30
0.0
 11
3072.8016715438
 21
8102.4224738714
 31
0.0
  0
LINE
  5
2AD
330
1F
100
AcDbEntity
  8
0
  6
Continuous
 62
     7
370
    25
100
AcDbLine
 10
1932.8016858489
 20
8066.1701540586
 30
0.0
 11
3072.8016715438
 21
8066.1701540586
 31
0.0
  0
LINE
  5
2AE
330
1F
100
AcDbEntity
  8
0
  6
Continuous
 62
     7
370
    25
100
AcDbLine
 10
1932.8016858489
 20
8066.1701540586
 30
0.0
 11
1932.8016858489
 21
8102.4224738714
 31
0.0
  0
LINE
  5
2AF
330
1F
100
AcDbEntity
  8
0
  6
Continuous
 62
     7
370
    25
100
AcDbLine
 10
3062.8016810805
 20
8106.2260250684
 30
0.0
 11
3062.8016810805
 21
9061.242638075
 31
0.0
  0
LINE
  5
2B0
330
1F
100
AcDbEntity
  8
0
  6
Continuous
 62
     7
370
    25
100
AcDbLine
 10
3063.8016682059
 20
9062.1885637876
 30
0.0
 11
3062.8016810805
 21
9061.242638075
 31
0.0
  0
LINE
  5
2B1
330
1F
100
AcDbEntity
  8
0
  6
Continuous
 62
     7
370
    25
100
AcDbLine
 10
1942.8016912133
 20
9061.242638075
 30
0.0
 11
1942.8016912133
 21
8106.2260250684
 31
0.0
  0
LINE
  5
2B2
330
1F
100
AcDbEntity
  8
0
  6
Continuous
 62
     7
370
    25
100
AcDbLine
 10
1942.8016912133
 20
9061.242638075
 30
0.0
 11
1941.8016891868
 21
9062.1885637876
 31
0.0
  0
LINE
  5
2B3
330
1F
100
AcDbEntity
  8
0
  6
Continuous
 62
     7
370
    25
100
AcDbLine
 10
3062.8016810805
 20
9060.4065041181
 30
0.0
 11
1942.8016912133
 21
9060.4065041181
 31
0.0
  0
LINE
  5
2B4
330
1F
100
AcDbEntity
  8
0
  6
Continuous
 62
     7
370
    25
100
AcDbLine
 10
3072.8016715438
 20
8343.3148841497
 30
0.0
 11
3072.8016715438
 21
8307.0625643369
 31
0.0
  0
LINE
  5
2B5
330
1F
100
AcDbEntity
  8
0
  6
Continuous
 62
     7
370
    25
100
AcDbLine
 10
3072.7017145545
 20
8307.0625643369
 30
0.0
 11
3072.8016715438
 21
8307.0625643369
 31
0.0
  0
LINE
  5
2B6
330
1F
100
AcDbEntity
  8
0
  6
Continuous
 62
     7
370
    25
100
AcDbLine
 10
1932.8016858489
 20
8343.3148841497
 30
0.0
 11
1932.8016858489
 21
8307.0625643369
 31
0.0
  0
LINE
  5
2B7
330
1F
100
AcDbEntity
  8
0
  6
Continuous
 62
     7
370
    25
100
AcDbLine
 10
1932.9016875417
 20
8307.0625643369
 30
0.0
 11
1932.8016858489
 21
8307.0625643369
 31
0.0
  0
LINE
  5
2B8
330
1F
100
AcDbEntity
  8
0
  6
Continuous
 62
     7
370
    25
100
AcDbLine
 10
1932.8016858489
 20
8945.5459694501
 30
0.0
 11
1932.8016858489
 21
8909.2935900327
 31
0.0
  0
LINE
  5
2B9
330
1F
100
AcDbEntity
  8
0
  6
Continuous
 62
     7
370
    25
100
AcDbLine
 10
1932.9016875417
 20
8909.2935900327
 30
0.0
 11
1932.8016858489
 21
8909.2935900327
 31
0.0
  0
LINE
  5
2BA
330
1F
100
AcDbEntity
  8
0
  6
Continuous
 62
     7
370
    25
100
AcDbLine
 10
3072.8016715438
 20
8945.5459694501
 30
0.0
 11
3072.8016715438
 21
8909.2935900327
 31
0.0
  0
LINE
  5
2BB
330
1F
100
AcDbEntity
  8
0
  6
Continuous
 62
     7
370
    25
100
AcDbLine
 10
3072.7017145545
 20
8909.2935900327
 30
0.0
 11
3072.8016715438
 21
8909.2935900327
 31
0.0
  0
LINE
  5
2BC
330
1F
100
AcDbEntity
  8
0
  6
Continuous
 62
     7
370
    25
100
AcDbLine
 10
3062.8016810805
 20
9061.242638075
 30
0.0
 11
1942.8016912133
 21
9061.242638075
 31
0.0
  0
LINE
  5
2BD
330
1F
100
AcDbEntity
  8
0
  6
Continuous
 62
     7
370
    25
100
AcDbLine
 10
4267.8017836005
 20
8209.226427519
 30
0.0
 11
4267.8017836005
 21
8204.5752386686
 31
0.0
  0
LINE
  5
2BE
330
1F
100
AcDbEntity
  8
0
  6
Continuous
 62
     7
370
    25
100
AcDbLine
 10
1897.8016894252
 20
8204.5752386686
 30
0.0
 11
1897.8016894252
 21
8209.226427519
 31
0.0
  0
LWPOLYLINE
  5
2BF
330
1F
100
AcDbEntity
  8
0
  6
Continuous
 62
     7
370
    25
100
AcDbPolyline
 90
       28
 70
   128
 43
0.0
 10
4236.3016825111
 20
8185.0895862218
 10
4236.4769201667
 20
8183.7310175535
 10
4236.9930963904
 20
8182.4457029935
 10
4237.8223162086
 20
8181.3029627439
 10
4238.9202337653
 20
8180.364308798
 10
4240.227244416
 20
8179.6804051038
 10
4241.6730146796
 20
8179.2880873319
 10
4243.179581681
 20
8179.2085747358
 10
4244.6658831031
 20
8179.4460992452
 10
4246.0515718848
 20
8179.9878458616
 10
4247.2622614295
 20
8180.8046679136
 10
4248.2323866279
 20
8181.8524579641
 10
4248.9097338111
 20
8183.0747704145
 10
4249.2578249366
 20
8184.4056825277
 10
4249.2578249366
 20
8185.773489916
 10
4248.9097338111
 20
8187.1044616338
 10
4248.2323866279
 20
8188.3267740842
 10
4247.2622614295
 20
8189.3745641347
 10
4246.0515718848
 20
8190.1913265821
 10
4244.6658831031
 20
8190.7331328031
 10
4243.179581681
 20
8190.9706573125
 10
4241.6730146796
 20
8190.8910851118
 10
4240.227244416
 20
8190.4988269445
 10
4238.9202337653
 20
8189.8149232503
 10
4237.8223162086
 20
8188.8762693044
 10
4236.9930963904
 20
8187.7334694501
 10
4236.4769201667
 20
8186.4481548902
 10
4236.3016825111
 20
8185.0895862218
  0
LWPOLYLINE
  5
2C0
330
1F
100
AcDbEntity
  8
0
  6
Continuous
 62
     7
370
    25
100
AcDbPolyline
 90
       28
 70
   128
 43
0.0
 10
1929.3016862065
 20
8139.774201357
 10
1929.1264783532
 20
8141.1327700254
 10
1928.6103021295
 20
8142.4180845853
 10
1927.7809780032
 20
8143.5608844396
 10
1926.6832243592
 20
8144.4995383855
 10
1925.3762137086
 20
8145.1834420797
 10
1923.9303987414
 20
8145.575700247
 10
1922.4237423331
 20
8145.6552724477
 10
1920.9374707133
 20
8145.4177479383
 10
1919.5516925246
 20
8144.8759417173
 10
1918.3411221892
 20
8144.0591792699
 10
1917.371011892
 20
8143.0113892194
 10
1916.69367961
 20
8141.789076769
 10
1916.345633188
 20
8140.4581050512
 10
1916.345633188
 20
8139.0902976629
 10
1916.69367961
 20
8137.7593855497
 10
1917.371011892
 20
8136.5370730993
 10
1918.3411221892
 20
8135.4892234441
 10
1919.5516925246
 20
8134.6724609968
 10
1920.9374707133
 20
8134.1307143804
 10
1922.4237423331
 20
8133.893189871
 10
1923.9303987414
 20
8133.9727024671
 10
1925.3762137086
 20
8134.365020239
 10
1926.6832243592
 20
8135.0489239332
 10
1927.7809780032
 20
8135.9875182745
 10
1928.6103021295
 20
8137.1303181287
 10
1929.1264783532
 20
8138.4156326887
 10
1929.3016862065
 20
8139.774201357
  0
LWPOLYLINE
  5
2C1
330
1F
100
AcDbEntity
  8
0
  6
Continuous
 62
     7
370
    25
100
AcDbPolyline
 90
       28
 70
   128
 43
0.0
 10
1929.3016862065
 20
8185.0895862218
 10
1929.1264783532
 20
8186.4481548902
 10
1928.6103021295
 20
8187.7334694501
 10
1927.7809780032
 20
8188.8762693044
 10
1926.6832243592
 20
8189.8149232503
 10
1925.3762137086
 20
8190.4988269445
 10
1923.9303987414
 20
8190.8910851118
 10
1922.4237423331
 20
8190.9706573125
 10
1920.9374707133
 20
8190.7331328031
 10
1919.5516925246
 20
8190.1913265821
 10
1918.3411221892
 20
8189.3745641347
 10
1917.371011892
 20
8188.3267740842
 10
1916.69367961
 20
8187.1044616338
 10
1916.345633188
 20
8185.773489916
 10
1916.345633188
 20
8184.4056825277
 10
1916.69367961
 20
8183.0747704145
 10
1917.371011892
 20
8181.8524579641
 10
1918.3411221892
 20
8180.8046679136
 10
1919.5516925246
 20
8179.9878458616
 10
1920.9374707133
 20
8179.4460992452
 10
1922.4237423331
 20
8179.2085747358
 10
1923.9303987414
 20
8179.2880873319
 10
1925.3762137086
 20
8179.6804051038
 10
1926.6832243592
 20
8180.364308798
 10
1927.7809780032
 20
8181.3029627439
 10
1928.6103021295
 20
8182.4457029935
 10
1929.1264783532
 20
8183.7310175535
 10
1929.3016862065
 20
8185.0895862218
  0
LWPOLYLINE
  5
2C2
330
1F
100
AcDbEntity
  8
0
  6
Continuous
 62
     7
370
    25
100
AcDbPolyline
 90
       28
 70
   128
 43
0.0
 10
4236.3016825111
 20
8139.774201357
 10
4236.4769201667
 20
8138.4156326887
 10
4236.9930963904
 20
8137.1303181287
 10
4237.8223162086
 20
8135.9875182745
 10
4238.9202337653
 20
8135.0489239332
 10
4240.227244416
 20
8134.365020239
 10
4241.6730146796
 20
8133.9727024671
 10
4243.179581681
 20
8133.893189871
 10
4244.6658831031
 20
8134.1307143804
 10
4246.0515718848
 20
8134.6724609968
 10
4247.2622614295
 20
8135.4892234441
 10
4248.2323866279
 20
8136.5370730993
 10
4248.9097338111
 20
8137.7593855497
 10
4249.2578249366
 20
8139.0902976629
 10
4249.2578249366
 20
8140.4581050512
 10
4248.9097338111
 20
8141.789076769
 10
4248.2323866279
 20
8143.0113892194
 10
4247.2622614295
 20
8144.0591792699
 10
4246.0515718848
 20
8144.8759417173
 10
4244.6658831031
 20
8145.4177479383
 10
4243.179581681
 20
8145.6552724477
 10
4241.6730146796
 20
8145.575700247
 10
4240.227244416
 20
8145.1834420797
 10
4238.9202337653
 20
8144.4995383855
 10
4237.8223162086
 20
8143.5608844396
 10
4236.9930963904
 20
8142.4180845853
 10
4236.4769201667
 20
8141.1327700254
 10
4236.3016825111
 20
8139.774201357
  0
LINE
  5
2C3
330
1F
100
AcDbEntity
  8
0
  6
Continuous
 62
     7
370
    25
100
AcDbLine
 10
4267.8017836005
 20
8120.2886085149
 30
0.0
 11
4267.8017836005
 21
8204.5752386686
 31
0.0
  0
LINE
  5
2C4
330
1F
100
AcDbEntity
  8
0
  6
Continuous
 62
     7
370
    25
100
AcDbLine
 10
1897.8016894252
 20
8120.2886085149
 30
0.0
 11
1897.8016894252
 21
8204.5752386686
 31
0.0
  0
LINE
  5
2C5
330
1F
100
AcDbEntity
  8
0
  6
Continuous
 62
     7
370
    25
100
AcDbLine
 10
1897.8016894252
 20
8209.226427519
 30
0.0
 11
1897.8016894252
 21
8227.399049246
 31
0.0
  0
LINE
  5
2C6
330
1F
100
AcDbEntity
  8
0
  6
Continuous
 62
     7
370
    25
100
AcDbLine
 10
4267.8017836005
 20
8209.226427519
 30
0.0
 11
4267.8017836005
 21
8227.399049246
 31
0.0
  0
LINE
  5
2C7
330
1F
100
AcDbEntity
  8
0
  6
Continuous
 62
     7
370
    25
100
AcDbLine
 10
3072.8016715438
 20
8215.5657391187
 30
0.0
 11
3092.801712075
 21
8215.5657391187
 31
0.0
  0
LINE
  5
2C8
330
1F
100
AcDbEntity
  8
0
  6
Continuous
 62
     7
370
    25
100
AcDbLine
 10
3092.801712075
 20
8221.0597972509
 30
0.0
 11
3072.8016715438
 21
8221.0597972509
 31
0.0
  0
LWPOLYLINE
  5
2C9
330
1F
100
AcDbEntity
  8
0
  6
Continuous
 62
     7
370
    25
100
AcDbPolyline
 90
       15
 70
   128
 43
0.0
 10
4236.3112192542
 20
8185.4065637228
 10
4236.4769201667
 20
8184.3649725553
 10
4236.9930963904
 20
8183.0796579954
 10
4237.8223162086
 20
8181.9368581411
 10
4238.9202337653
 20
8180.9982041952
 10
4240.227244416
 20
8180.314300501
 10
4241.6730146796
 20
8179.9220423338
 10
4243.179581681
 20
8179.842470133
 10
4244.6658831031
 20
8180.0799946424
 10
4246.0515718848
 20
8180.6217412588
 10
4247.2622614295
 20
8181.4385633108
 10
4248.2323866279
 20
8182.4863533613
 10
4248.9097338111
 20
8183.7086658117
 10
4249.2578249366
 20
8185.0396375295
 10
4249.292157212
 20
8185.4065637228
  0
LWPOLYLINE
  5
2CA
330
1F
100
AcDbEntity
  8
0
  6
Continuous
 62
     7
370
    25
100
AcDbPolyline
 90
       15
 70
   128
 43
0.0
 10
1916.3111071975
 20
8185.4065637228
 10
1916.345633188
 20
8185.0396375295
 10
1916.69367961
 20
8183.7086658117
 10
1917.371011892
 20
8182.4863533613
 10
1918.3411221892
 20
8181.4385633108
 10
1919.5516925246
 20
8180.6217412588
 10
1920.9374707133
 20
8180.0799946424
 10
1922.4237423331
 20
8179.842470133
 10
1923.9303987414
 20
8179.9220423338
 10
1925.3762137086
 20
8180.314300501
 10
1926.6832243592
 20
8180.9982041952
 10
1927.7809780032
 20
8181.9368581411
 10
1928.6103021295
 20
8183.0796579954
 10
1929.1264783532
 20
8184.3649725553
 10
1929.2922686727
 20
8185.4065637228
  0
LINE
  5
2CB
330
1F
100
AcDbEntity
  8
0
  6
Continuous
 62
     7
370
    25
100
AcDbLine
 10
3092.801712075
 20
8219.7003345129
 30
0.0
 11
3072.8016715438
 21
8219.7003345129
 31
0.0
  0
LWPOLYLINE
  5
2CC
330
1F
100
AcDbEntity
  8
0
  6
Continuous
 62
     7
370
    25
100
AcDbPolyline
 90
       15
 70
   128
 43
0.0
 10
4236.3112192542
 20
8140.091178858
 10
4236.4769201667
 20
8139.0495876905
 10
4236.9930963904
 20
8137.7642731306
 10
4237.8223162086
 20
8136.6214732763
 10
4238.9202337653
 20
8135.6828193304
 10
4240.227244416
 20
8134.9989156362
 10
4241.6730146796
 20
8134.6066574689
 10
4243.179581681
 20
8134.5270852682
 10
4244.6658831031
 20
8134.7646097776
 10
4246.0515718848
 20
8135.306356394
 10
4247.2622614295
 20
8136.123178446
 10
4248.2323866279
 20
8137.1709684965
 10
4248.9097338111
 20
8138.3932809469
 10
4249.2578249366
 20
8139.7242526647
 10
4249.292157212
 20
8140.091178858
  0
LWPOLYLINE
  5
2CD
330
1F
100
AcDbEntity
  8
0
  6
Continuous
 62
     7
370
    25
100
AcDbPolyline
 90
       15
 70
   128
 43
0.0
 10
1916.3111071975
 20
8140.091178858
 10
1916.345633188
 20
8139.7242526647
 10
1916.69367961
 20
8138.3932809469
 10
1917.371011892
 20
8137.1709684965
 10
1918.3411221892
 20
8136.123178446
 10
1919.5516925246
 20
8135.306356394
 10
1920.9374707133
 20
8134.7646097776
 10
1922.4237423331
 20
8134.5270852682
 10
1923.9303987414
 20
8134.6066574689
 10
1925.3762137086
 20
8134.9989156362
 10
1926.6832243592
 20
8135.6828193304
 10
1927.7809780032
 20
8136.6214732763
 10
1928.6103021295
 20
8137.7642731306
 10
1929.1264783532
 20
8139.0495876905
 10
1929.2922686727
 20
8140.091178858
  0
LINE
  5
2CE
330
1F
100
AcDbEntity
  8
0
  6
Continuous
 62
     7
370
    25
100
AcDbLine
 10
4267.8017836005
 20
8120.2886085149
 30
0.0
 11
4267.8017836005
 21
8118.2677726385
 31
0.0
  0
LINE
  5
2CF
330
1F
100
AcDbEntity
  8
0
  6
Continuous
 62
     7
370
    25
100
AcDbLine
 10
1897.8016894252
 20
8118.2677726385
 30
0.0
 11
1897.8016894252
 21
8120.2886085149
 31
0.0
  0
LINE
  5
2D0
330
1F
100
AcDbEntity
  8
0
  6
Continuous
 62
     7
370
    25
100
AcDbLine
 10
1897.8016894252
 20
8227.399049246
 30
0.0
 11
1897.8016894252
 21
8227.7269940015
 31
0.0
  0
LINE
  5
2D1
330
1F
100
AcDbEntity
  8
0
  6
Continuous
 62
     7
370
    25
100
AcDbLine
 10
4267.8017836005
 20
8227.399049246
 30
0.0
 11
4267.8017836005
 21
8227.7269940015
 31
0.0
  0
LINE
  5
2D2
330
1F
100
AcDbEntity
  8
0
  6
Continuous
 62
     7
370
    25
100
AcDbLine
 10
6637.8016691596
 20
8832.1657757398
 30
0.0
 11
6637.8016691596
 21
8827.5145868894
 31
0.0
  0
LINE
  5
2D3
330
1F
100
AcDbEntity
  8
0
  6
Continuous
 62
     7
370
    25
100
AcDbLine
 10
4267.8017836005
 20
8827.5145868894
 30
0.0
 11
4267.8017836005
 21
8832.1657757398
 31
0.0
  0
LWPOLYLINE
  5
2D4
330
1F
100
AcDbEntity
  8
0
  6
Continuous
 62
     7
370
    25
100
AcDbPolyline
 90
       28
 70
   128
 43
0.0
 10
6606.3018064887
 20
8808.028874838
 10
6606.4768057258
 20
8806.6703657743
 10
6606.9932203681
 20
8805.3850512144
 10
6607.8224401862
 20
8804.2423109647
 10
6608.9201193244
 20
8803.3036570188
 10
6610.227129975
 20
8802.6197533247
 10
6611.6729002387
 20
8802.2274355527
 10
6613.1797056586
 20
8802.1479229566
 10
6614.6660070808
 20
8802.3853878614
 10
6616.0516958625
 20
8802.9271940824
 10
6617.2623854072
 20
8803.7440161344
 10
6618.232272187
 20
8804.7917465803
 10
6618.9098577888
 20
8806.0141186353
 10
6619.2579489143
 20
8807.3449711439
 10
6619.2579489143
 20
8808.7127785322
 10
6618.9098577888
 20
8810.04375025
 10
6618.232272187
 20
8811.2661223051
 10
6617.2623854072
 20
8812.3138527509
 10
6616.0516958625
 20
8813.1306748029
 10
6614.6660070808
 20
8813.6724810239
 10
6613.1797056586
 20
8813.9099459287
 10
6611.6729002387
 20
8813.8304333326
 10
6610.227129975
 20
8813.4381155607
 10
6608.9201193244
 20
8812.7542118665
 10
6607.8224401862
 20
8811.8155579206
 10
6606.9932203681
 20
8810.672817671
 10
6606.4768057258
 20
8809.387503111
 10
6606.3018064887
 20
8808.028874838
  0
LWPOLYLINE
  5
2D5
330
1F
100
AcDbEntity
  8
0
  6
Continuous
 62
     7
370
    25
100
AcDbPolyline
 90
       28
 70
   128
 43
0.0
 10
4299.3016462714
 20
8762.7134899732
 10
4299.1264086158
 20
8764.0721182462
 10
4298.610232392
 20
8765.3574328062
 10
4297.7810125739
 20
8766.5001730558
 10
4296.6833334357
 20
8767.4388270017
 10
4295.3763227851
 20
8768.1227306959
 10
4293.9303141029
 20
8768.5150484678
 10
4292.4237471015
 20
8768.5945610639
 10
4290.9374456794
 20
8768.3570961591
 10
4289.5517568977
 20
8767.8152899381
 10
4288.341067353
 20
8766.9984678861
 10
4287.3709421546
 20
8765.9507374403
 10
4286.6935949714
 20
8764.7283653852
 10
4286.3457422645
 20
8763.3973936674
 10
4286.3457422645
 20
8762.0295862791
 10
4286.6935949714
 20
8760.6987337705
 10
4287.3709421546
 20
8759.4763617155
 10
4288.341067353
 20
8758.4285120603
 10
4289.5517568977
 20
8757.6118092176
 10
4290.9374456794
 20
8757.0700029966
 10
4292.4237471015
 20
8756.8325380918
 10
4293.9303141029
 20
8756.9120506879
 10
4295.3763227851
 20
8757.3043684599
 10
4296.6833334357
 20
8757.988272154
 10
4297.7810125739
 20
8758.9268068906
 10
4298.610232392
 20
8760.0696663496
 10
4299.1264086158
 20
8761.3549809095
 10
4299.3016462714
 20
8762.7134899732
  0
LWPOLYLINE
  5
2D6
330
1F
100
AcDbEntity
  8
0
  6
Continuous
 62
     7
370
    25
100
AcDbPolyline
 90
       28
 70
   128
 43
0.0
 10
4299.3016462714
 20
8808.028874838
 10
4299.1264086158
 20
8809.387503111
 10
4298.610232392
 20
8810.672817671
 10
4297.7810125739
 20
8811.8155579206
 10
4296.6833334357
 20
8812.7542118665
 10
4295.3763227851
 20
8813.4381155607
 10
4293.9303141029
 20
8813.8304333326
 10
4292.4237471015
 20
8813.9099459287
 10
4290.9374456794
 20
8813.6724810239
 10
4289.5517568977
 20
8813.1306748029
 10
4288.341067353
 20
8812.3138527509
 10
4287.3709421546
 20
8811.2661223051
 10
4286.6935949714
 20
8810.04375025
 10
4286.3457422645
 20
8808.7127785322
 10
4286.3457422645
 20
8807.3449711439
 10
4286.6935949714
 20
8806.0141186353
 10
4287.3709421546
 20
8804.7917465803
 10
4288.341067353
 20
8803.7440161344
 10
4289.5517568977
 20
8802.9271940824
 10
4290.9374456794
 20
8802.3853878614
 10
4292.4237471015
 20
8802.1479229566
 10
4293.9303141029
 20
8802.2274355527
 10
4295.3763227851
 20
8802.6197533247
 10
4296.6833334357
 20
8803.3036570188
 10
4297.7810125739
 20
8804.2423109647
 10
4298.610232392
 20
8805.3850512144
 10
4299.1264086158
 20
8806.6703657743
 10
4299.3016462714
 20
8808.028874838
  0
LWPOLYLINE
  5
2D7
330
1F
100
AcDbEntity
  8
0
  6
Continuous
 62
     7
370
    25
100
AcDbPolyline
 90
       28
 70
   128
 43
0.0
 10
6606.3018064887
 20
8762.7134899732
 10
6606.4768057258
 20
8761.3549809095
 10
6606.9932203681
 20
8760.0696663496
 10
6607.8224401862
 20
8758.9268068906
 10
6608.9201193244
 20
8757.988272154
 10
6610.227129975
 20
8757.3043684599
 10
6611.6729002387
 20
8756.9120506879
 10
6613.1797056586
 20
8756.8325380918
 10
6614.6660070808
 20
8757.0700029966
 10
6616.0516958625
 20
8757.6118092176
 10
6617.2623854072
 20
8758.4285120603
 10
6618.232272187
 20
8759.4763617155
 10
6618.9098577888
 20
8760.6987337705
 10
6619.2579489143
 20
8762.0295862791
 10
6619.2579489143
 20
8763.3973936674
 10
6618.9098577888
 20
8764.7283653852
 10
6618.232272187
 20
8765.9507374403
 10
6617.2623854072
 20
8766.9984678861
 10
6616.0516958625
 20
8767.8152899381
 10
6614.6660070808
 20
8768.3570961591
 10
6613.1797056586
 20
8768.5945610639
 10
6611.6729002387
 20
8768.5150484678
 10
6610.227129975
 20
8768.1227306959
 10
6608.9201193244
 20
8767.4388270017
 10
6607.8224401862
 20
8766.5001730558
 10
6606.9932203681
 20
8765.3574328062
 10
6606.4768057258
 20
8764.0721182462
 10
6606.3018064887
 20
8762.7134899732
  0
LINE
  5
2D8
330
1F
100
AcDbEntity
  8
0
  6
Continuous
 62
     7
370
    25
100
AcDbLine
 10
6637.8016691596
 20
8743.2278971311
 30
0.0
 11
6637.8016691596
 21
8827.5145868894
 31
0.0
  0
LINE
  5
2D9
330
1F
100
AcDbEntity
  8
0
  6
Continuous
 62
     7
370
    25
100
AcDbLine
 10
4267.8017836005
 20
8743.2278971311
 30
0.0
 11
4267.8017836005
 21
8827.5145868894
 31
0.0
  0
LINE
  5
2DA
330
1F
100
AcDbEntity
  8
0
  6
Continuous
 62
     7
370
    25
100
AcDbLine
 10
4267.8017836005
 20
8832.1657757398
 30
0.0
 11
4267.8017836005
 21
8850.3383974668
 31
0.0
  0
LINE
  5
2DB
330
1F
100
AcDbEntity
  8
0
  6
Continuous
 62
     7
370
    25
100
AcDbLine
 10
6637.8016691596
 20
8832.1657757398
 30
0.0
 11
6637.8016691596
 21
8850.3383974668
 31
0.0
  0
LINE
  5
2DC
330
1F
100
AcDbEntity
  8
0
  6
Continuous
 62
     7
370
    25
100
AcDbLine
 10
5442.7016001136
 20
8838.5050873396
 30
0.0
 11
5462.901614228
 21
8838.5050873396
 31
0.0
  0
LINE
  5
2DD
330
1F
100
AcDbEntity
  8
0
  6
Continuous
 62
     7
370
    25
100
AcDbLine
 10
5462.901614228
 20
8843.9990858671
 30
0.0
 11
5442.7016001136
 21
8843.9990858671
 31
0.0
  0
LWPOLYLINE
  5
2DE
330
1F
100
AcDbEntity
  8
0
  6
Continuous
 62
     7
370
    25
100
AcDbPolyline
 90
       15
 70
   128
 43
0.0
 10
6606.3108663947
 20
8808.3458523389
 10
6606.4768057258
 20
8807.3043207761
 10
6606.9932203681
 20
8806.0190062162
 10
6607.8224401862
 20
8804.8761467573
 10
6608.9201193244
 20
8803.9374928114
 10
6610.227129975
 20
8803.2535891172
 10
6611.6729002387
 20
8802.8613905546
 10
6613.1797056586
 20
8802.7817587492
 10
6614.6660070808
 20
8803.0193428632
 10
6616.0516958625
 20
8803.561029875
 10
6617.2623854072
 20
8804.377851927
 10
6618.232272187
 20
8805.4257015821
 10
6618.9098577888
 20
8806.6479544279
 10
6619.2579489143
 20
8807.9789261457
 10
6619.2922811896
 20
8808.3458523389
  0
LWPOLYLINE
  5
2DF
330
1F
100
AcDbEntity
  8
0
  6
Continuous
 62
     7
370
    25
100
AcDbPolyline
 90
       15
 70
   128
 43
0.0
 10
4286.3111715705
 20
8808.3458523389
 10
4286.3457422645
 20
8807.9789261457
 10
4286.6935949714
 20
8806.6479544279
 10
4287.3709421546
 20
8805.4257015821
 10
4288.341067353
 20
8804.377851927
 10
4289.5517568977
 20
8803.561029875
 10
4290.9374456794
 20
8803.0193428632
 10
4292.4237471015
 20
8802.7817587492
 10
4293.9303141029
 20
8802.8613905546
 10
4295.3763227851
 20
8803.2535891172
 10
4296.6833334357
 20
8803.9374928114
 10
4297.7810125739
 20
8804.8761467573
 10
4298.610232392
 20
8806.0190062162
 10
4299.1264086158
 20
8807.3043207761
 10
4299.2923479468
 20
8808.3458523389
  0
LINE
  5
2E0
330
1F
100
AcDbEntity
  8
0
  6
Continuous
 62
     7
370
    25
100
AcDbLine
 10
5462.901614228
 20
8842.639623129
 30
0.0
 11
5442.7016001136
 21
8842.639623129
 31
0.0
  0
LWPOLYLINE
  5
2E1
330
1F
100
AcDbEntity
  8
0
  6
Continuous
 62
     7
370
    25
100
AcDbPolyline
 90
       15
 70
   128
 43
0.0
 10
6606.3108663947
 20
8763.0304674741
 10
6606.4768057258
 20
8761.9889359113
 10
6606.9932203681
 20
8760.7036213514
 10
6607.8224401862
 20
8759.5607618925
 10
6608.9201193244
 20
8758.6221079465
 10
6610.227129975
 20
8757.9382042524
 10
6611.6729002387
 20
8757.5460056898
 10
6613.1797056586
 20
8757.4663738844
 10
6614.6660070808
 20
8757.7039579984
 10
6616.0516958625
 20
8758.2456450101
 10
6617.2623854072
 20
8759.0624670621
 10
6618.232272187
 20
8760.1103167173
 10
6618.9098577888
 20
8761.3325695631
 10
6619.2579489143
 20
8762.6635412809
 10
6619.2922811896
 20
8763.0304674741
  0
LWPOLYLINE
  5
2E2
330
1F
100
AcDbEntity
  8
0
  6
Continuous
 62
     7
370
    25
100
AcDbPolyline
 90
       15
 70
   128
 43
0.0
 10
4286.3111715705
 20
8763.0304674741
 10
4286.3457422645
 20
8762.6635412809
 10
4286.6935949714
 20
8761.3325695631
 10
4287.3709421546
 20
8760.1103167173
 10
4288.341067353
 20
8759.0624670621
 10
4289.5517568977
 20
8758.2456450101
 10
4290.9374456794
 20
8757.7039579984
 10
4292.4237471015
 20
8757.4663738844
 10
4293.9303141029
 20
8757.5460056898
 10
4295.3763227851
 20
8757.9382042524
 10
4296.6833334357
 20
8758.6221079465
 10
4297.7810125739
 20
8759.5607618925
 10
4298.610232392
 20
8760.7036213514
 10
4299.1264086158
 20
8761.9889359113
 10
4299.2923479468
 20
8763.0304674741
  0
LINE
  5
2E3
330
1F
100
AcDbEntity
  8
0
  6
Continuous
 62
     7
370
    25
100
AcDbLine
 10
6637.8016691596
 20
8743.2278971311
 30
0.0
 11
6637.8016691596
 21
8741.2070612547
 31
0.0
  0
LINE
  5
2E4
330
1F
100
AcDbEntity
  8
0
  6
Continuous
 62
     7
370
    25
100
AcDbLine
 10
4267.8017836005
 20
8741.2070612547
 30
0.0
 11
4267.8017836005
 21
8743.2278971311
 31
0.0
  0
LINE
  5
2E5
330
1F
100
AcDbEntity
  8
0
  6
Continuous
 62
     7
370
    25
100
AcDbLine
 10
4267.8017836005
 20
8850.3383974668
 30
0.0
 11
4267.8017836005
 21
8850.6663422224
 31
0.0
  0
LINE
  5
2E6
330
1F
100
AcDbEntity
  8
0
  6
Continuous
 62
     7
370
    25
100
AcDbLine
 10
6637.8016691596
 20
8850.3383974668
 30
0.0
 11
6637.8016691596
 21
8850.6663422224
 31
0.0
  0
LINE
  5
2E7
330
1F
100
AcDbEntity
  8
0
  6
Continuous
 62
     7
370
    25
100
AcDbLine
 10
6637.8016691596
 20
8209.226427519
 30
0.0
 11
6637.8016691596
 21
8204.5752386686
 31
0.0
  0
LWPOLYLINE
  5
2E8
330
1F
100
AcDbEntity
  8
0
  6
Continuous
 62
     7
370
    25
100
AcDbPolyline
 90
       28
 70
   128
 43
0.0
 10
6606.3018064887
 20
8185.0895862218
 10
6606.4768057258
 20
8183.7310175535
 10
6606.9932203681
 20
8182.4457029935
 10
6607.8224401862
 20
8181.3029627439
 10
6608.9201193244
 20
8180.364308798
 10
6610.227129975
 20
8179.6804051038
 10
6611.6729002387
 20
8179.2880873319
 10
6613.1797056586
 20
8179.2085747358
 10
6614.6660070808
 20
8179.4460992452
 10
6616.0516958625
 20
8179.9878458616
 10
6617.2623854072
 20
8180.8046679136
 10
6618.232272187
 20
8181.8524579641
 10
6618.9098577888
 20
8183.0747704145
 10
6619.2579489143
 20
8184.4056825277
 10
6619.2579489143
 20
8185.773489916
 10
6618.9098577888
 20
8187.1044616338
 10
6618.232272187
 20
8188.3267740842
 10
6617.2623854072
 20
8189.3745641347
 10
6616.0516958625
 20
8190.1913265821
 10
6614.6660070808
 20
8190.7331328031
 10
6613.1797056586
 20
8190.9706573125
 10
6611.6729002387
 20
8190.8910851118
 10
6610.227129975
 20
8190.4988269445
 10
6608.9201193244
 20
8189.8149232503
 10
6607.8224401862
 20
8188.8762693044
 10
6606.9932203681
 20
8187.7334694501
 10
6606.4768057258
 20
8186.4481548902
 10
6606.3018064887
 20
8185.0895862218
  0
LWPOLYLINE
  5
2E9
330
1F
100
AcDbEntity
  8
0
  6
Continuous
 62
     7
370
    25
100
AcDbPolyline
 90
       28
 70
   128
 43
0.0
 10
4299.3016462714
 20
8139.774201357
 10
4299.1264086158
 20
8141.1327700254
 10
4298.610232392
 20
8142.4180845853
 10
4297.7810125739
 20
8143.5608844396
 10
4296.6833334357
 20
8144.4995383855
 10
4295.3763227851
 20
8145.1834420797
 10
4293.9303141029
 20
8145.575700247
 10
4292.4237471015
 20
8145.6552724477
 10
4290.9374456794
 20
8145.4177479383
 10
4289.5517568977
 20
8144.8759417173
 10
4288.341067353
 20
8144.0591792699
 10
4287.3709421546
 20
8143.0113892194
 10
4286.6935949714
 20
8141.789076769
 10
4286.3457422645
 20
8140.4581050512
 10
4286.3457422645
 20
8139.0902976629
 10
4286.6935949714
 20
8137.7593855497
 10
4287.3709421546
 20
8136.5370730993
 10
4288.341067353
 20
8135.4892234441
 10
4289.5517568977
 20
8134.6724609968
 10
4290.9374456794
 20
8134.1307143804
 10
4292.4237471015
 20
8133.893189871
 10
4293.9303141029
 20
8133.9727024671
 10
4295.3763227851
 20
8134.365020239
 10
4296.6833334357
 20
8135.0489239332
 10
4297.7810125739
 20
8135.9875182745
 10
4298.610232392
 20
8137.1303181287
 10
4299.1264086158
 20
8138.4156326887
 10
4299.3016462714
 20
8139.774201357
  0
LWPOLYLINE
  5
2EA
330
1F
100
AcDbEntity
  8
0
  6
Continuous
 62
     7
370
    25
100
AcDbPolyline
 90
       28
 70
   128
 43
0.0
 10
4299.3016462714
 20
8185.0895862218
 10
4299.1264086158
 20
8186.4481548902
 10
4298.610232392
 20
8187.7334694501
 10
4297.7810125739
 20
8188.8762693044
 10
4296.6833334357
 20
8189.8149232503
 10
4295.3763227851
 20
8190.4988269445
 10
4293.9303141029
 20
8190.8910851118
 10
4292.4237471015
 20
8190.9706573125
 10
4290.9374456794
 20
8190.7331328031
 10
4289.5517568977
 20
8190.1913265821
 10
4288.341067353
 20
8189.3745641347
 10
4287.3709421546
 20
8188.3267740842
 10
4286.6935949714
 20
8187.1044616338
 10
4286.3457422645
 20
8185.773489916
 10
4286.3457422645
 20
8184.4056825277
 10
4286.6935949714
 20
8183.0747704145
 10
4287.3709421546
 20
8181.8524579641
 10
4288.341067353
 20
8180.8046679136
 10
4289.5517568977
 20
8179.9878458616
 10
4290.9374456794
 20
8179.4460992452
 10
4292.4237471015
 20
8179.2085747358
 10
4293.9303141029
 20
8179.2880873319
 10
4295.3763227851
 20
8179.6804051038
 10
4296.6833334357
 20
8180.364308798
 10
4297.7810125739
 20
8181.3029627439
 10
4298.610232392
 20
8182.4457029935
 10
4299.1264086158
 20
8183.7310175535
 10
4299.3016462714
 20
8185.0895862218
  0
LWPOLYLINE
  5
2EB
330
1F
100
AcDbEntity
  8
0
  6
Continuous
 62
     7
370
    25
100
AcDbPolyline
 90
       28
 70
   128
 43
0.0
 10
6606.3018064887
 20
8139.774201357
 10
6606.4768057258
 20
8138.4156326887
 10
6606.9932203681
 20
8137.1303181287
 10
6607.8224401862
 20
8135.9875182745
 10
6608.9201193244
 20
8135.0489239332
 10
6610.227129975
 20
8134.365020239
 10
6611.6729002387
 20
8133.9727024671
 10
6613.1797056586
 20
8133.893189871
 10
6614.6660070808
 20
8134.1307143804
 10
6616.0516958625
 20
8134.6724609968
 10
6617.2623854072
 20
8135.4892234441
 10
6618.232272187
 20
8136.5370730993
 10
6618.9098577888
 20
8137.7593855497
 10
6619.2579489143
 20
8139.0902976629
 10
6619.2579489143
 20
8140.4581050512
 10
6618.9098577888
 20
8141.789076769
 10
6618.232272187
 20
8143.0113892194
 10
6617.2623854072
 20
8144.0591792699
 10
6616.0516958625
 20
8144.8759417173
 10
6614.6660070808
 20
8145.4177479383
 10
6613.1797056586
 20
8145.6552724477
 10
6611.6729002387
 20
8145.575700247
 10
6610.227129975
 20
8145.1834420797
 10
6608.9201193244
 20
8144.4995383855
 10
6607.8224401862
 20
8143.5608844396
 10
6606.9932203681
 20
8142.4180845853
 10
6606.4768057258
 20
8141.1327700254
 10
6606.3018064887
 20
8139.774201357
  0
LINE
  5
2EC
330
1F
100
AcDbEntity
  8
0
  6
Continuous
 62
     7
370
    25
100
AcDbLine
 10
6637.8016691596
 20
8120.2886085149
 30
0.0
 11
6637.8016691596
 21
8204.5752386686
 31
0.0
  0
LINE
  5
2ED
330
1F
100
AcDbEntity
  8
0
  6
Continuous
 62
     7
370
    25
100
AcDbLine
 10
6637.8016691596
 20
8209.226427519
 30
0.0
 11
6637.8016691596
 21
8227.399049246
 31
0.0
  0
LINE
  5
2EE
330
1F
100
AcDbEntity
  8
0
  6
Continuous
 62
     7
370
    25
100
AcDbLine
 10
5442.8017359168
 20
8215.5657391187
 30
0.0
 11
5462.8017168433
 21
8215.5657391187
 31
0.0
  0
LINE
  5
2EF
330
1F
100
AcDbEntity
  8
0
  6
Continuous
 62
     7
370
    25
100
AcDbLine
 10
5462.8017168433
 20
8221.0597972509
 30
0.0
 11
5442.8017359168
 21
8221.0597972509
 31
0.0
  0
LWPOLYLINE
  5
2F0
330
1F
100
AcDbEntity
  8
0
  6
Continuous
 62
     7
370
    25
100
AcDbPolyline
 90
       15
 70
   128
 43
0.0
 10
6606.3108663947
 20
8185.4065637228
 10
6606.4768057258
 20
8184.3649725553
 10
6606.9932203681
 20
8183.0796579954
 10
6607.8224401862
 20
8181.9368581411
 10
6608.9201193244
 20
8180.9982041952
 10
6610.227129975
 20
8180.314300501
 10
6611.6729002387
 20
8179.9220423338
 10
6613.1797056586
 20
8179.842470133
 10
6614.6660070808
 20
8180.0799946424
 10
6616.0516958625
 20
8180.6217412588
 10
6617.2623854072
 20
8181.4385633108
 10
6618.232272187
 20
8182.4863533613
 10
6618.9098577888
 20
8183.7086658117
 10
6619.2579489143
 20
8185.0396375295
 10
6619.2922811896
 20
8185.4065637228
  0
LWPOLYLINE
  5
2F1
330
1F
100
AcDbEntity
  8
0
  6
Continuous
 62
     7
370
    25
100
AcDbPolyline
 90
       15
 70
   128
 43
0.0
 10
4286.3111715705
 20
8185.4065637228
 10
4286.3457422645
 20
8185.0396375295
 10
4286.6935949714
 20
8183.7086658117
 10
4287.3709421546
 20
8182.4863533613
 10
4288.341067353
 20
8181.4385633108
 10
4289.5517568977
 20
8180.6217412588
 10
4290.9374456794
 20
8180.0799946424
 10
4292.4237471015
 20
8179.842470133
 10
4293.9303141029
 20
8179.9220423338
 10
4295.3763227851
 20
8180.314300501
 10
4296.6833334357
 20
8180.9982041952
 10
4297.7810125739
 20
8181.9368581411
 10
4298.610232392
 20
8183.0796579954
 10
4299.1264086158
 20
8184.3649725553
 10
4299.2923479468
 20
8185.4065637228
  0
LINE
  5
2F2
330
1F
100
AcDbEntity
  8
0
  6
Continuous
 62
     7
370
    25
100
AcDbLine
 10
5462.8017168433
 20
8219.7003345129
 30
0.0
 11
5442.8017359168
 21
8219.7003345129
 31
0.0
  0
LWPOLYLINE
  5
2F3
330
1F
100
AcDbEntity
  8
0
  6
Continuous
 62
     7
370
    25
100
AcDbPolyline
 90
       15
 70
   128
 43
0.0
 10
6606.3108663947
 20
8140.091178858
 10
6606.4768057258
 20
8139.0495876905
 10
6606.9932203681
 20
8137.7642731306
 10
6607.8224401862
 20
8136.6214732763
 10
6608.9201193244
 20
8135.6828193304
 10
6610.227129975
 20
8134.9989156362
 10
6611.6729002387
 20
8134.6066574689
 10
6613.1797056586
 20
8134.5270852682
 10
6614.6660070808
 20
8134.7646097776
 10
6616.0516958625
 20
8135.306356394
 10
6617.2623854072
 20
8136.123178446
 10
6618.232272187
 20
8137.1709684965
 10
6618.9098577888
 20
8138.3932809469
 10
6619.2579489143
 20
8139.7242526647
 10
6619.2922811896
 20
8140.091178858
  0
LWPOLYLINE
  5
2F4
330
1F
100
AcDbEntity
  8
0
  6
Continuous
 62
     7
370
    25
100
AcDbPolyline
 90
       15
 70
   128
 43
0.0
 10
4286.3111715705
 20
8140.091178858
 10
4286.3457422645
 20
8139.7242526647
 10
4286.6935949714
 20
8138.3932809469
 10
4287.3709421546
 20
8137.1709684965
 10
4288.341067353
 20
8136.123178446
 10
4289.5517568977
 20
8135.306356394
 10
4290.9374456794
 20
8134.7646097776
 10
4292.4237471015
 20
8134.5270852682
 10
4293.9303141029
 20
8134.6066574689
 10
4295.3763227851
 20
8134.9989156362
 10
4296.6833334357
 20
8135.6828193304
 10
4297.7810125739
 20
8136.6214732763
 10
4298.610232392
 20
8137.7642731306
 10
4299.1264086158
 20
8139.0495876905
 10
4299.2923479468
 20
8140.091178858
  0
LINE
  5
2F5
330
1F
100
AcDbEntity
  8
0
  6
Continuous
 62
     7
370
    25
100
AcDbLine
 10
6637.8016691596
 20
8120.2886085149
 30
0.0
 11
6637.8016691596
 21
8118.2677726385
 31
0.0
  0
LINE
  5
2F6
330
1F
100
AcDbEntity
  8
0
  6
Continuous
 62
     7
370
    25
100
AcDbLine
 10
6637.8016691596
 20
8227.399049246
 30
0.0
 11
6637.8016691596
 21
8227.7269940015
 31
0.0
  0
LINE
  5
2F7
330
1F
100
AcDbEntity
  8
0
  6
Continuous
 62
     7
370
    25
100
AcDbLine
 10
1897.8016894252
 20
8827.5145868894
 30
0.0
 11
1897.8016894252
 21
8832.1657757398
 31
0.0
  0
LWPOLYLINE
  5
2F8
330
1F
100
AcDbEntity
  8
0
  6
Continuous
 62
     7
370
    25
100
AcDbPolyline
 90
       28
 70
   128
 43
0.0
 10
4236.3016825111
 20
8808.028874838
 10
4236.4769201667
 20
8806.6703657743
 10
4236.9930963904
 20
8805.3850512144
 10
4237.8223162086
 20
8804.2423109647
 10
4238.9202337653
 20
8803.3036570188
 10
4240.227244416
 20
8802.6197533247
 10
4241.6730146796
 20
8802.2274355527
 10
4243.179581681
 20
8802.1479229566
 10
4244.6658831031
 20
8802.3853878614
 10
4246.0515718848
 20
8802.9271940824
 10
4247.2622614295
 20
8803.7440161344
 10
4248.2323866279
 20
8804.7917465803
 10
4248.9097338111
 20
8806.0141186353
 10
4249.2578249366
 20
8807.3449711439
 10
4249.2578249366
 20
8808.7127785322
 10
4248.9097338111
 20
8810.04375025
 10
4248.2323866279
 20
8811.2661223051
 10
4247.2622614295
 20
8812.3138527509
 10
4246.0515718848
 20
8813.1306748029
 10
4244.6658831031
 20
8813.6724810239
 10
4243.179581681
 20
8813.9099459287
 10
4241.6730146796
 20
8813.8304333326
 10
4240.227244416
 20
8813.4381155607
 10
4238.9202337653
 20
8812.7542118665
 10
4237.8223162086
 20
8811.8155579206
 10
4236.9930963904
 20
8810.672817671
 10
4236.4769201667
 20
8809.387503111
 10
4236.3016825111
 20
8808.028874838
  0
LWPOLYLINE
  5
2F9
330
1F
100
AcDbEntity
  8
0
  6
Continuous
 62
     7
370
    25
100
AcDbPolyline
 90
       28
 70
   128
 43
0.0
 10
1929.3016862065
 20
8762.7134899732
 10
1929.1264783532
 20
8764.0721182462
 10
1928.6103021295
 20
8765.3574328062
 10
1927.7809780032
 20
8766.5001730558
 10
1926.6832243592
 20
8767.4388270017
 10
1925.3762137086
 20
8768.1227306959
 10
1923.9303987414
 20
8768.5150484678
 10
1922.4237423331
 20
8768.5945610639
 10
1920.9374707133
 20
8768.3570961591
 10
1919.5516925246
 20
8767.8152899381
 10
1918.3411221892
 20
8766.9984678861
 10
1917.371011892
 20
8765.9507374403
 10
1916.69367961
 20
8764.7283653852
 10
1916.345633188
 20
8763.3973936674
 10
1916.345633188
 20
8762.0295862791
 10
1916.69367961
 20
8760.6987337705
 10
1917.371011892
 20
8759.4763617155
 10
1918.3411221892
 20
8758.4285120603
 10
1919.5516925246
 20
8757.6118092176
 10
1920.9374707133
 20
8757.0700029966
 10
1922.4237423331
 20
8756.8325380918
 10
1923.9303987414
 20
8756.9120506879
 10
1925.3762137086
 20
8757.3043684599
 10
1926.6832243592
 20
8757.988272154
 10
1927.7809780032
 20
8758.9268068906
 10
1928.6103021295
 20
8760.0696663496
 10
1929.1264783532
 20
8761.3549809095
 10
1929.3016862065
 20
8762.7134899732
  0
LWPOLYLINE
  5
2FA
330
1F
100
AcDbEntity
  8
0
  6
Continuous
 62
     7
370
    25
100
AcDbPolyline
 90
       28
 70
   128
 43
0.0
 10
1929.3016862065
 20
8808.028874838
 10
1929.1264783532
 20
8809.387503111
 10
1928.6103021295
 20
8810.672817671
 10
1927.7809780032
 20
8811.8155579206
 10
1926.6832243592
 20
8812.7542118665
 10
1925.3762137086
 20
8813.4381155607
 10
1923.9303987414
 20
8813.8304333326
 10
1922.4237423331
 20
8813.9099459287
 10
1920.9374707133
 20
8813.6724810239
 10
1919.5516925246
 20
8813.1306748029
 10
1918.3411221892
 20
8812.3138527509
 10
1917.371011892
 20
8811.2661223051
 10
1916.69367961
 20
8810.04375025
 10
1916.345633188
 20
8808.7127785322
 10
1916.345633188
 20
8807.3449711439
 10
1916.69367961
 20
8806.0141186353
 10
1917.371011892
 20
8804.7917465803
 10
1918.3411221892
 20
8803.7440161344
 10
1919.5516925246
 20
8802.9271940824
 10
1920.9374707133
 20
8802.3853878614
 10
1922.4237423331
 20
8802.1479229566
 10
1923.9303987414
 20
8802.2274355527
 10
1925.3762137086
 20
8802.6197533247
 10
1926.6832243592
 20
8803.3036570188
 10
1927.7809780032
 20
8804.2423109647
 10
1928.6103021295
 20
8805.3850512144
 10
1929.1264783532
 20
8806.6703657743
 10
1929.3016862065
 20
8808.028874838
  0
LWPOLYLINE
  5
2FB
330
1F
100
AcDbEntity
  8
0
  6
Continuous
 62
     7
370
    25
100
AcDbPolyline
 90
       28
 70
   128
 43
0.0
 10
4236.3016825111
 20
8762.7134899732
 10
4236.4769201667
 20
8761.3549809095
 10
4236.9930963904
 20
8760.0696663496
 10
4237.8223162086
 20
8758.9268068906
 10
4238.9202337653
 20
8757.988272154
 10
4240.227244416
 20
8757.3043684599
 10
4241.6730146796
 20
8756.9120506879
 10
4243.179581681
 20
8756.8325380918
 10
4244.6658831031
 20
8757.0700029966
 10
4246.0515718848
 20
8757.6118092176
 10
4247.2622614295
 20
8758.4285120603
 10
4248.2323866279
 20
8759.4763617155
 10
4248.9097338111
 20
8760.6987337705
 10
4249.2578249366
 20
8762.0295862791
 10
4249.2578249366
 20
8763.3973936674
 10
4248.9097338111
 20
8764.7283653852
 10
4248.2323866279
 20
8765.9507374403
 10
4247.2622614295
 20
8766.9984678861
 10
4246.0515718848
 20
8767.8152899381
 10
4244.6658831031
 20
8768.3570961591
 10
4243.179581681
 20
8768.5945610639
 10
4241.6730146796
 20
8768.5150484678
 10
4240.227244416
 20
8768.1227306959
 10
4238.9202337653
 20
8767.4388270017
 10
4237.8223162086
 20
8766.5001730558
 10
4236.9930963904
 20
8765.3574328062
 10
4236.4769201667
 20
8764.0721182462
 10
4236.3016825111
 20
8762.7134899732
  0
LINE
  5
2FC
330
1F
100
AcDbEntity
  8
0
  6
Continuous
 62
     7
370
    25
100
AcDbLine
 10
1897.8016894252
 20
8743.2278971311
 30
0.0
 11
1897.8016894252
 21
8827.5145868894
 31
0.0
  0
LINE
  5
2FD
330
1F
100
AcDbEntity
  8
0
  6
Continuous
 62
     7
370
    25
100
AcDbLine
 10
1897.8016894252
 20
8832.1657757398
 30
0.0
 11
1897.8016894252
 21
8850.3383974668
 31
0.0
  0
LINE
  5
2FE
330
1F
100
AcDbEntity
  8
0
  6
Continuous
 62
     7
370
    25
100
AcDbLine
 10
3072.7017145545
 20
8838.5050873396
 30
0.0
 11
3092.9016690642
 21
8838.5050873396
 31
0.0
  0
LINE
  5
2FF
330
1F
100
AcDbEntity
  8
0
  6
Continuous
 62
     7
370
    25
100
AcDbLine
 10
3092.9016690642
 20
8843.9990858671
 30
0.0
 11
3072.7017145545
 21
8843.9990858671
 31
0.0
  0
LWPOLYLINE
  5
300
330
1F
100
AcDbEntity
  8
0
  6
Continuous
 62
     7
370
    25
100
AcDbPolyline
 90
       15
 70
   128
 43
0.0
 10
4236.3112192542
 20
8808.3458523389
 10
4236.4769201667
 20
8807.3043207761
 10
4236.9930963904
 20
8806.0190062162
 10
4237.8223162086
 20
8804.8761467573
 10
4238.9202337653
 20
8803.9374928114
 10
4240.227244416
 20
8803.2535891172
 10
4241.6730146796
 20
8802.8613905546
 10
4243.179581681
 20
8802.7817587492
 10
4244.6658831031
 20
8803.0193428632
 10
4246.0515718848
 20
8803.561029875
 10
4247.2622614295
 20
8804.377851927
 10
4248.2323866279
 20
8805.4257015821
 10
4248.9097338111
 20
8806.6479544279
 10
4249.2578249366
 20
8807.9789261457
 10
4249.292157212
 20
8808.3458523389
  0
LWPOLYLINE
  5
301
330
1F
100
AcDbEntity
  8
0
  6
Continuous
 62
     7
370
    25
100
AcDbPolyline
 90
       15
 70
   128
 43
0.0
 10
1916.3111071975
 20
8808.3458523389
 10
1916.345633188
 20
8807.9789261457
 10
1916.69367961
 20
8806.6479544279
 10
1917.371011892
 20
8805.4257015821
 10
1918.3411221892
 20
8804.377851927
 10
1919.5516925246
 20
8803.561029875
 10
1920.9374707133
 20
8803.0193428632
 10
1922.4237423331
 20
8802.7817587492
 10
1923.9303987414
 20
8802.8613905546
 10
1925.3762137086
 20
8803.2535891172
 10
1926.6832243592
 20
8803.9374928114
 10
1927.7809780032
 20
8804.8761467573
 10
1928.6103021295
 20
8806.0190062162
 10
1929.1264783532
 20
8807.3043207761
 10
1929.2922686727
 20
8808.3458523389
  0
LINE
  5
302
330
1F
100
AcDbEntity
  8
0
  6
Continuous
 62
     7
370
    25
100
AcDbLine
 10
3092.9016690642
 20
8842.639623129
 30
0.0
 11
3072.7017145545
 21
8842.639623129
 31
0.0
  0
LWPOLYLINE
  5
303
330
1F
100
AcDbEntity
  8
0
  6
Continuous
 62
     7
370
    25
100
AcDbPolyline
 90
       15
 70
   128
 43
0.0
 10
4236.3112192542
 20
8763.0304674741
 10
4236.4769201667
 20
8761.9889359113
 10
4236.9930963904
 20
8760.7036213514
 10
4237.8223162086
 20
8759.5607618925
 10
4238.9202337653
 20
8758.6221079465
 10
4240.227244416
 20
8757.9382042524
 10
4241.6730146796
 20
8757.5460056898
 10
4243.179581681
 20
8757.4663738844
 10
4244.6658831031
 20
8757.7039579984
 10
4246.0515718848
 20
8758.2456450101
 10
4247.2622614295
 20
8759.0624670621
 10
4248.2323866279
 20
8760.1103167173
 10
4248.9097338111
 20
8761.3325695631
 10
4249.2578249366
 20
8762.6635412809
 10
4249.292157212
 20
8763.0304674741
  0
LWPOLYLINE
  5
304
330
1F
100
AcDbEntity
  8
0
  6
Continuous
 62
     7
370
    25
100
AcDbPolyline
 90
       15
 70
   128
 43
0.0
 10
1916.3111071975
 20
8763.0304674741
 10
1916.345633188
 20
8762.6635412809
 10
1916.69367961
 20
8761.3325695631
 10
1917.371011892
 20
8760.1103167173
 10
1918.3411221892
 20
8759.0624670621
 10
1919.5516925246
 20
8758.2456450101
 10
1920.9374707133
 20
8757.7039579984
 10
1922.4237423331
 20
8757.4663738844
 10
1923.9303987414
 20
8757.5460056898
 10
1925.3762137086
 20
8757.9382042524
 10
1926.6832243592
 20
8758.6221079465
 10
1927.7809780032
 20
8759.5607618925
 10
1928.6103021295
 20
8760.7036213514
 10
1929.1264783532
 20
8761.9889359113
 10
1929.2922686727
 20
8763.0304674741
  0
LINE
  5
305
330
1F
100
AcDbEntity
  8
0
  6
Continuous
 62
     7
370
    25
100
AcDbLine
 10
1897.8016894252
 20
8741.2070612547
 30
0.0
 11
1897.8016894252
 21
8743.2278971311
 31
0.0
  0
LINE
  5
306
330
1F
100
AcDbEntity
  8
0
  6
Continuous
 62
     7
370
    25
100
AcDbLine
 10
1897.8016894252
 20
8850.3383974668
 30
0.0
 11
1897.8016894252
 21
8850.6663422224
 31
0.0
  0
ARC
  5
307
330
1F
100
AcDbEntity
  8
0
  6
Continuous
 62
     7
370
    25
100
AcDbCircle
 10
6362.2128446625
 20
8058.8437788734
 30
0.0
 40
1.913900279955894
100
AcDbArc
 50
87.3345626709
 51
177.0291680879
  0
LINE
  5
308
330
1F
100
AcDbEntity
  8
0
  6
Continuous
 62
     7
370
    25
100
AcDbLine
 10
6360.3015165717
 20
8058.9429716703
 30
0.0
 11
6357.8014593513
 21
8058.9429716703
 31
0.0
  0
ARC
  5
309
330
1F
100
AcDbEntity
  8
0
  6
Continuous
 62
     7
370
    25
100
AcDbCircle
 10
6362.1010914947
 20
8058.7206678221
 30
0.0
 40
4.305375195003707
100
AcDbArc
 50
87.3273644799
 51
177.0402721824
  0
LINE
  5
30A
330
1F
100
AcDbEntity
  8
0
  6
Continuous
 62
     7
370
    25
100
AcDbLine
 10
6362.3018484504
 20
8063.0213598844
 30
0.0
 11
6362.3018484504
 21
8060.7556085226
 31
0.0
  0
LINE
  5
30B
330
1F
100
AcDbEntity
  8
0
  6
Continuous
 62
     7
370
    25
100
AcDbLine
 10
6413.3014898688
 20
8060.7556085226
 30
0.0
 11
6413.3014898688
 21
8063.0213598844
 31
0.0
  0
LINE
  5
30C
330
1F
100
AcDbEntity
  8
0
  6
Continuous
 62
     7
370
    25
100
AcDbLine
 10
6362.3018484504
 20
8060.7556085226
 30
0.0
 11
6413.3014898688
 21
8060.7556085226
 31
0.0
  0
LINE
  5
30D
330
1F
100
AcDbEntity
  8
0
  6
Continuous
 62
     7
370
    25
100
AcDbLine
 10
6362.3018484504
 20
8063.0213598844
 30
0.0
 11
6413.3014898688
 21
8063.0213598844
 31
0.0
  0
ARC
  5
30E
330
1F
100
AcDbEntity
  8
0
  6
Continuous
 62
     7
370
    25
100
AcDbCircle
 10
6413.390681415
 20
8058.8439860737
 30
0.0
 40
1.913702045519099
100
AcDbArc
 50
2.9649280689
 51
92.6713411722
  0
ARC
  5
30F
330
1F
100
AcDbEntity
  8
0
  6
Continuous
 62
     7
370
    25
100
AcDbCircle
 10
6413.5025010311
 20
8058.7209483321
 30
0.0
 40
4.305106851961599
100
AcDbArc
 50
2.9561742358
 51
92.6761891018
  0
LINE
  5
310
330
1F
100
AcDbEntity
  8
0
  6
Continuous
 62
     7
370
    25
100
AcDbLine
 10
6417.801878968
 20
8058.9429716703
 30
0.0
 11
6415.3018217475
 21
8058.9429716703
 31
0.0
  0
LINE
  5
311
330
1F
100
AcDbEntity
  8
0
  6
Continuous
 62
     7
370
    25
100
AcDbLine
 10
6417.801878968
 20
8058.9429716703
 30
0.0
 11
6417.801878968
 21
8066.1701540586
 31
0.0
  0
LINE
  5
312
330
1F
100
AcDbEntity
  8
0
  6
Continuous
 62
     7
370
    25
100
AcDbLine
 10
6357.8014593513
 20
8058.9429716703
 30
0.0
 11
6357.8014593513
 21
8066.1701540586
 31
0.0
  0
LINE
  5
313
330
1F
100
AcDbEntity
  8
0
  6
Continuous
 62
     7
370
    25
100
AcDbLine
 10
6360.3015165717
 20
7962.8743509885
 30
0.0
 11
6360.3015165717
 21
8058.9429716703
 31
0.0
  0
LINE
  5
314
330
1F
100
AcDbEntity
  8
0
  6
Continuous
 62
     7
370
    25
100
AcDbLine
 10
6357.8014593513
 20
7962.8743509885
 30
0.0
 11
6360.3015165717
 21
7962.8743509885
 31
0.0
  0
LINE
  5
315
330
1F
100
AcDbEntity
  8
0
  6
Continuous
 62
     7
370
    25
100
AcDbLine
 10
6357.8014593513
 20
7962.8743509885
 30
0.0
 11
6357.8014593513
 21
8058.9429716703
 31
0.0
  0
LINE
  5
316
330
1F
100
AcDbEntity
  8
0
  6
Continuous
 62
     7
370
    25
100
AcDbLine
 10
6415.3018217475
 20
8044.8952297803
 30
0.0
 11
6417.801878968
 21
8044.8952297803
 31
0.0
  0
LINE
  5
317
330
1F
100
AcDbEntity
  8
0
  6
Continuous
 62
     7
370
    25
100
AcDbLine
 10
6417.801878968
 20
8058.9429716703
 30
0.0
 11
6417.801878968
 21
8044.8952297803
 31
0.0
  0
LINE
  5
318
330
1F
100
AcDbEntity
  8
0
  6
Continuous
 62
     7
370
    25
100
AcDbLine
 10
6415.3018217475
 20
8058.9429716703
 30
0.0
 11
6415.3018217475
 21
8044.8952297803
 31
0.0
  0
LINE
  5
319
330
1F
100
AcDbEntity
  8
0
  6
Continuous
 62
     7
370
    25
100
AcDbLine
 10
6417.801878968
 20
7976.9221524831
 30
0.0
 11
6415.3018217475
 21
7976.9221524831
 31
0.0
  0
LINE
  5
31A
330
1F
100
AcDbEntity
  8
0
  6
Continuous
 62
     7
370
    25
100
AcDbLine
 10
6415.3018217475
 20
7962.8743509885
 30
0.0
 11
6417.801878968
 21
7962.8743509885
 31
0.0
  0
LINE
  5
31B
330
1F
100
AcDbEntity
  8
0
  6
Continuous
 62
     7
370
    25
100
AcDbLine
 10
6415.3018217475
 20
7976.9221524831
 30
0.0
 11
6415.3018217475
 21
7962.8743509885
 31
0.0
  0
LINE
  5
31C
330
1F
100
AcDbEntity
  8
0
  6
Continuous
 62
     7
370
    25
100
AcDbLine
 10
6417.801878968
 20
7976.9221524831
 30
0.0
 11
6417.801878968
 21
7962.8743509885
 31
0.0
  0
LINE
  5
31D
330
1F
100
AcDbEntity
  8
0
  6
Continuous
 62
     7
370
    25
100
AcDbLine
 10
6415.3018217475
 20
7976.9221524831
 30
0.0
 11
6415.3018217475
 21
8044.8952297803
 31
0.0
  0
LINE
  5
31E
330
1F
100
AcDbEntity
  8
0
  6
Continuous
 62
     7
370
    25
100
AcDbLine
 10
6417.801878968
 20
7976.9221524831
 30
0.0
 11
6417.801878968
 21
8044.8952297803
 31
0.0
  0
ARC
  5
31F
330
1F
100
AcDbEntity
  8
0
  6
Continuous
 62
     7
370
    25
100
AcDbCircle
 10
6413.3906684236
 20
7962.973382352
 30
0.0
 40
1.913717387253336
100
AcDbArc
 50
267.3290696356
 51
357.0337236465
  0
ARC
  5
320
330
1F
100
AcDbEntity
  8
0
  6
Continuous
 62
     7
370
    25
100
AcDbCircle
 10
6413.5024869999
 20
7963.0964212347
 30
0.0
 40
4.305123283853158
100
AcDbArc
 50
267.3240080613
 51
357.0432119391
  0
LINE
  5
321
330
1F
100
AcDbEntity
  8
0
  6
Continuous
 62
     7
370
    25
100
AcDbLine
 10
6413.3014898688
 20
7958.7959925767
 30
0.0
 11
6413.3014898688
 21
7961.0617439386
 31
0.0
  0
ARC
  5
322
330
1F
100
AcDbEntity
  8
0
  6
Continuous
 62
     7
370
    25
100
AcDbCircle
 10
6362.2128576548
 20
7962.9735895567
 30
0.0
 40
1.913915627470387
100
AcDbArc
 50
182.9721801401
 51
272.6650265777
  0
LINE
  5
323
330
1F
100
AcDbEntity
  8
0
  6
Continuous
 62
     7
370
    25
100
AcDbLine
 10
6362.3018484504
 20
7961.0617439386
 30
0.0
 11
6362.3018484504
 21
7958.7959925767
 31
0.0
  0
ARC
  5
324
330
1F
100
AcDbEntity
  8
0
  6
Continuous
 62
     7
370
    25
100
AcDbCircle
 10
6362.1011055186
 20
7963.0967017387
 30
0.0
 40
4.305391622137162
100
AcDbArc
 50
182.9603415157
 51
272.6724384838
  0
LINE
  5
325
330
1F
100
AcDbEntity
  8
0
  6
Continuous
 62
     7
370
    25
100
AcDbLine
 10
6413.3014898688
 20
7961.0617439386
 30
0.0
 11
6362.3018484504
 21
7961.0617439386
 31
0.0
  0
LINE
  5
326
330
1F
100
AcDbEntity
  8
0
  6
Continuous
 62
     7
370
    25
100
AcDbLine
 10
6413.3014898688
 20
7958.7959925767
 30
0.0
 11
6362.3018484504
 21
7958.7959925767
 31
0.0
  0
LWPOLYLINE
  5
327
330
1F
100
AcDbEntity
  8
0
  6
Continuous
 62
     7
370
    25
100
AcDbPolyline
 90
       14
 70
   128
 43
0.0
 10
6381.3019018561
 20
8035.6538872358
 10
6381.4907293708
 20
8036.311266863
 10
6382.0462446601
 20
8036.9304995176
 10
6382.9364996345
 20
8037.4754647848
 10
6384.1090422065
 20
8037.9146318075
 10
6385.4966383369
 20
8038.2223705885
 10
6387.0182257087
 20
8038.3808593389
 10
6388.5851126105
 20
8038.3808593389
 10
6390.1066999824
 20
8038.2223705885
 10
6391.4942961127
 20
8037.9146318075
 10
6392.6668386848
 20
8037.4754647848
 10
6393.5570936591
 20
8036.9304995176
 10
6394.1126089484
 20
8036.311266863
 10
6394.3019133002
 20
8035.6538872358
  0
LINE
  5
328
330
1F
100
AcDbEntity
  8
0
  6
Continuous
 62
     7
370
    25
100
AcDbLine
 10
6381.3019018561
 20
8015.7908181783
 30
0.0
 11
6381.3019018561
 21
8035.6538872358
 31
0.0
  0
LWPOLYLINE
  5
329
330
1F
100
AcDbEntity
  8
0
  6
Continuous
 62
     7
370
    25
100
AcDbPolyline
 90
       14
 70
   128
 43
0.0
 10
6394.3019133002
 20
8015.7908181783
 10
6394.1126089484
 20
8015.1334385511
 10
6393.5570936591
 20
8014.5142058965
 10
6392.6668386848
 20
8013.9691810247
 10
6391.4942961127
 20
8013.5300736066
 10
6390.1066999824
 20
8013.2223348257
 10
6388.5851126105
 20
8013.0638460752
 10
6387.0182257087
 20
8013.0638460752
 10
6385.4966383369
 20
8013.2223348257
 10
6384.1090422065
 20
8013.5300736066
 10
6382.9364996345
 20
8013.9691810247
 10
6382.0462446601
 20
8014.5142058965
 10
6381.4907293708
 20
8015.1334385511
 10
6381.3019018561
 20
8015.7908181783
  0
LINE
  5
32A
330
1F
100
AcDbEntity
  8
0
  6
Continuous
 62
     7
370
    25
100
AcDbLine
 10
6394.3019133002
 20
8035.6538872358
 30
0.0
 11
6394.3019133002
 21
8015.7908181783
 31
0.0
  0
LWPOLYLINE
  5
32B
330
1F
100
AcDbEntity
  8
0
  6
Continuous
 62
     7
370
    25
100
AcDbPolyline
 90
       14
 70
   128
 43
0.0
 10
6381.3019018561
 20
7987.8979901907
 10
6381.4907293708
 20
7988.5554294225
 10
6382.0462446601
 20
7989.1746024725
 10
6382.9364996345
 20
7989.7196273443
 10
6384.1090422065
 20
7990.1587347623
 10
6385.4966383369
 20
7990.466533148
 10
6387.0182257087
 20
7990.6250218984
 10
6388.5851126105
 20
7990.6250218984
 10
6390.1066999824
 20
7990.466533148
 10
6391.4942961127
 20
7990.1587347623
 10
6392.6668386848
 20
7989.7196273443
 10
6393.5570936591
 20
7989.1746024725
 10
6394.1126089484
 20
7988.5554294225
 10
6394.3019133002
 20
7987.8979901907
  0
LINE
  5
32C
330
1F
100
AcDbEntity
  8
0
  6
Continuous
 62
     7
370
    25
100
AcDbLine
 10
6381.3019018561
 20
7968.0349807378
 30
0.0
 11
6381.3019018561
 21
7987.8979901907
 31
0.0
  0
LWPOLYLINE
  5
32D
330
1F
100
AcDbEntity
  8
0
  6
Continuous
 62
     7
370
    25
100
AcDbPolyline
 90
       14
 70
   128
 43
0.0
 10
6394.3019133002
 20
7968.0349807378
 10
6394.1126089484
 20
7967.377541506
 10
6393.5570936591
 20
7966.758368456
 10
6392.6668386848
 20
7966.2133435842
 10
6391.4942961127
 20
7965.7741765615
 10
6390.1066999824
 20
7965.4664377805
 10
6388.5851126105
 20
7965.3079490301
 10
6387.0182257087
 20
7965.3079490301
 10
6385.4966383369
 20
7965.4664377805
 10
6384.1090422065
 20
7965.7741765615
 10
6382.9364996345
 20
7966.2133435842
 10
6382.0462446601
 20
7966.758368456
 10
6381.4907293708
 20
7967.377541506
 10
6381.3019018561
 20
7968.0349807378
  0
LINE
  5
32E
330
1F
100
AcDbEntity
  8
0
  6
Continuous
 62
     7
370
    25
100
AcDbLine
 10
6394.3019133002
 20
7987.8979901907
 30
0.0
 11
6394.3019133002
 21
7968.0349807378
 31
0.0
  0
LWPOLYLINE
  5
32F
330
1F
100
AcDbEntity
  8
0
  6
Continuous
 62
     7
370
    25
100
AcDbPolyline
 90
       14
 70
   128
 43
0.0
 10
6394.3019133002
 20
7985.6322388288
 10
6394.1126089484
 20
7986.289618456
 10
6393.5570936591
 20
7986.9088511106
 10
6392.6668386848
 20
7987.4538759824
 10
6391.4942961127
 20
7987.8929834005
 10
6390.1066999824
 20
7988.2007221815
 10
6388.5851126105
 20
7988.3592109319
 10
6387.0182257087
 20
7988.3592109319
 10
6385.4966383369
 20
7988.2007221815
 10
6384.1090422065
 20
7987.8929834005
 10
6382.9364996345
 20
7987.4538759824
 10
6382.0462446601
 20
7986.9088511106
 10
6381.4907293708
 20
7986.289618456
 10
6381.3019018561
 20
7985.6322388288
  0
LWPOLYLINE
  5
330
330
1F
100
AcDbEntity
  8
0
  6
Continuous
 62
     7
370
    25
100
AcDbPolyline
 90
       14
 70
   128
 43
0.0
 10
6394.3019133002
 20
8033.3880762693
 10
6394.1126089484
 20
8034.0455155012
 10
6393.5570936591
 20
8034.6646885511
 10
6392.6668386848
 20
8035.2097134229
 10
6391.4942961127
 20
8035.6488804456
 10
6390.1066999824
 20
8035.9566192266
 10
6388.5851126105
 20
8036.1151079771
 10
6387.0182257087
 20
8036.1151079771
 10
6385.4966383369
 20
8035.9566192266
 10
6384.1090422065
 20
8035.6488804456
 10
6382.9364996345
 20
8035.2097134229
 10
6382.0462446601
 20
8034.6646885511
 10
6381.4907293708
 20
8034.0455155012
 10
6381.3019018561
 20
8033.3880762693
  0
ARC
  5
331
330
1F
100
AcDbEntity
  8
0
  6
Continuous
 62
     7
370
    25
100
AcDbCircle
 10
2122.2123898072
 20
8058.8444538161
 30
0.0
 40
1.913239787970391
100
AcDbArc
 50
87.3248145277
 51
177.0483811109
  0
LINE
  5
332
330
1F
100
AcDbEntity
  8
0
  6
Continuous
 62
     7
370
    25
100
AcDbLine
 10
2120.3016881772
 20
8058.9429716703
 30
0.0
 11
2117.8016882332
 21
8058.9429716703
 31
0.0
  0
ARC
  5
333
330
1F
100
AcDbEntity
  8
0
  6
Continuous
 62
     7
370
    25
100
AcDbCircle
 10
2122.1007260587
 20
8058.7213044346
 30
0.0
 40
4.304748841586885
100
AcDbArc
 50
87.3242434839
 51
177.0483256872
  0
LINE
  5
334
330
1F
100
AcDbEntity
  8
0
  6
Continuous
 62
     7
370
    25
100
AcDbLine
 10
2122.3016880394
 20
8063.0213598844
 30
0.0
 11
2122.3016880394
 21
8060.7556085226
 31
0.0
  0
LINE
  5
335
330
1F
100
AcDbEntity
  8
0
  6
Continuous
 62
     7
370
    25
100
AcDbLine
 10
2173.3016889484
 20
8060.7556085226
 30
0.0
 11
2173.3016889484
 21
8063.0213598844
 31
0.0
  0
LINE
  5
336
330
1F
100
AcDbEntity
  8
0
  6
Continuous
 62
     7
370
    25
100
AcDbLine
 10
2122.3016880394
 20
8060.7556085226
 30
0.0
 11
2173.3016889484
 21
8060.7556085226
 31
0.0
  0
LINE
  5
337
330
1F
100
AcDbEntity
  8
0
  6
Continuous
 62
     7
370
    25
100
AcDbLine
 10
2122.3016880394
 20
8063.0213598844
 30
0.0
 11
2173.3016889484
 21
8063.0213598844
 31
0.0
  0
ARC
  5
338
330
1F
100
AcDbEntity
  8
0
  6
Continuous
 62
     7
370
    25
100
AcDbCircle
 10
2173.3909859216
 20
8058.8444519362
 30
0.0
 40
1.913241607085947
100
AcDbArc
 50
2.951672453
 51
92.6751451843
  0
ARC
  5
339
330
1F
100
AcDbEntity
  8
0
  6
Continuous
 62
     7
370
    25
100
AcDbCircle
 10
2173.5026516998
 20
8058.7213072484
 30
0.0
 40
4.30474606681216
100
AcDbArc
 50
2.9516387156
 51
92.6757685123
  0
LINE
  5
33A
330
1F
100
AcDbEntity
  8
0
  6
Continuous
 62
     7
370
    25
100
AcDbLine
 10
2177.801686892
 20
8058.9429716703
 30
0.0
 11
2175.3016892762
 21
8058.9429716703
 31
0.0
  0
LINE
  5
33B
330
1F
100
AcDbEntity
  8
0
  6
Continuous
 62
     7
370
    25
100
AcDbLine
 10
2177.801686892
 20
8058.9429716703
 30
0.0
 11
2177.801686892
 21
8066.1701540586
 31
0.0
  0
LINE
  5
33C
330
1F
100
AcDbEntity
  8
0
  6
Continuous
 62
     7
370
    25
100
AcDbLine
 10
2117.8016882332
 20
8058.9429716703
 30
0.0
 11
2117.8016882332
 21
8066.1701540586
 31
0.0
  0
LINE
  5
33D
330
1F
100
AcDbEntity
  8
0
  6
Continuous
 62
     7
370
    25
100
AcDbLine
 10
2120.3016881772
 20
7962.8743509885
 30
0.0
 11
2120.3016881772
 21
8058.9429716703
 31
0.0
  0
LINE
  5
33E
330
1F
100
AcDbEntity
  8
0
  6
Continuous
 62
     7
370
    25
100
AcDbLine
 10
2117.8016882332
 20
7962.8743509885
 30
0.0
 11
2120.3016881772
 21
7962.8743509885
 31
0.0
  0
LINE
  5
33F
330
1F
100
AcDbEntity
  8
0
  6
Continuous
 62
     7
370
    25
100
AcDbLine
 10
2117.8016882332
 20
7962.8743509885
 30
0.0
 11
2117.8016882332
 21
8058.9429716703
 31
0.0
  0
LINE
  5
340
330
1F
100
AcDbEntity
  8
0
  6
Continuous
 62
     7
370
    25
100
AcDbLine
 10
2175.3016892762
 20
8044.8952297803
 30
0.0
 11
2177.801686892
 21
8044.8952297803
 31
0.0
  0
LINE
  5
341
330
1F
100
AcDbEntity
  8
0
  6
Continuous
 62
     7
370
    25
100
AcDbLine
 10
2175.3016892762
 20
8058.9429716703
 30
0.0
 11
2175.3016892762
 21
8044.8952297803
 31
0.0
  0
LINE
  5
342
330
1F
100
AcDbEntity
  8
0
  6
Continuous
 62
     7
370
    25
100
AcDbLine
 10
2177.801686892
 20
8058.9429716703
 30
0.0
 11
2177.801686892
 21
8044.8952297803
 31
0.0
  0
LINE
  5
343
330
1F
100
AcDbEntity
  8
0
  6
Continuous
 62
     7
370
    25
100
AcDbLine
 10
2177.801686892
 20
7976.9221524831
 30
0.0
 11
2175.3016892762
 21
7976.9221524831
 31
0.0
  0
LINE
  5
344
330
1F
100
AcDbEntity
  8
0
  6
Continuous
 62
     7
370
    25
100
AcDbLine
 10
2177.801686892
 20
7976.9221524831
 30
0.0
 11
2177.801686892
 21
7962.8743509885
 31
0.0
  0
LINE
  5
345
330
1F
100
AcDbEntity
  8
0
  6
Continuous
 62
     7
370
    25
100
AcDbLine
 10
2175.3016892762
 20
7962.8743509885
 30
0.0
 11
2177.801686892
 21
7962.8743509885
 31
0.0
  0
LINE
  5
346
330
1F
100
AcDbEntity
  8
0
  6
Continuous
 62
     7
370
    25
100
AcDbLine
 10
2175.3016892762
 20
7976.9221524831
 30
0.0
 11
2175.3016892762
 21
7962.8743509885
 31
0.0
  0
LINE
  5
347
330
1F
100
AcDbEntity
  8
0
  6
Continuous
 62
     7
370
    25
100
AcDbLine
 10
2177.801686892
 20
7976.9221524831
 30
0.0
 11
2177.801686892
 21
8044.8952297803
 31
0.0
  0
LINE
  5
348
330
1F
100
AcDbEntity
  8
0
  6
Continuous
 62
     7
370
    25
100
AcDbLine
 10
2175.3016892762
 20
7976.9221524831
 30
0.0
 11
2175.3016892762
 21
8044.8952297803
 31
0.0
  0
ARC
  5
349
330
1F
100
AcDbEntity
  8
0
  6
Continuous
 62
     7
370
    25
100
AcDbCircle
 10
2173.5026376723
 20
7963.0960623103
 30
0.0
 40
4.30476249092749
100
AcDbArc
 50
267.3244286113
 51
357.0477474953
  0
ARC
  5
34A
330
1F
100
AcDbEntity
  8
0
  6
Continuous
 62
     7
370
    25
100
AcDbCircle
 10
2122.2124027646
 20
7962.9729145621
 30
0.0
 40
1.91325508291779
100
AcDbArc
 50
182.9529662378
 51
272.6747756156
  0
ARC
  5
34B
330
1F
100
AcDbEntity
  8
0
  6
Continuous
 62
     7
370
    25
100
AcDbCircle
 10
2173.3909729642
 20
7962.9729164421
 30
0.0
 40
1.913256902129995
100
AcDbArc
 50
267.3252646733
 51
357.0469801974
  0
LINE
  5
34C
330
1F
100
AcDbEntity
  8
0
  6
Continuous
 62
     7
370
    25
100
AcDbLine
 10
2173.3016889484
 20
7958.7959925767
 30
0.0
 11
2173.3016889484
 21
7961.0617439386
 31
0.0
  0
LINE
  5
34D
330
1F
100
AcDbEntity
  8
0
  6
Continuous
 62
     7
370
    25
100
AcDbLine
 10
2122.3016880394
 20
7961.0617439386
 30
0.0
 11
2122.3016880394
 21
7958.7959925767
 31
0.0
  0
ARC
  5
34E
330
1F
100
AcDbEntity
  8
0
  6
Continuous
 62
     7
370
    25
100
AcDbCircle
 10
2122.1007400862
 20
7963.0960651242
 30
0.0
 40
4.304765265774289
100
AcDbArc
 50
182.9522881023
 51
272.675559392
  0
LINE
  5
34F
330
1F
100
AcDbEntity
  8
0
  6
Continuous
 62
     7
370
    25
100
AcDbLine
 10
2173.3016889484
 20
7961.0617439386
 30
0.0
 11
2122.3016880394
 21
7961.0617439386
 31
0.0
  0
LINE
  5
350
330
1F
100
AcDbEntity
  8
0
  6
Continuous
 62
     7
370
    25
100
AcDbLine
 10
2173.3016889484
 20
7958.7959925767
 30
0.0
 11
2122.3016880394
 21
7958.7959925767
 31
0.0
  0
LWPOLYLINE
  5
351
330
1F
100
AcDbEntity
  8
0
  6
Continuous
 62
     7
370
    25
100
AcDbPolyline
 90
       14
 70
   128
 43
0.0
 10
2141.3016874284
 20
8035.6538872358
 10
2141.4905670972
 20
8036.311266863
 10
2142.0462239475
 20
8036.9304995176
 10
2142.9363690258
 20
8037.4754647848
 10
2144.109267363
 20
8037.9146318075
 10
2145.4967573226
 20
8038.2223705885
 10
2147.0181994081
 20
8038.3808593389
 10
2148.5851775796
 20
8038.3808593389
 10
2150.1066196651
 20
8038.2223705885
 10
2151.4941077621
 20
8037.9146318075
 10
2152.667007962
 20
8037.4754647848
 10
2153.5571511776
 20
8036.9304995176
 10
2154.1128117532
 20
8036.311266863
 10
2154.3016876967
 20
8035.6538872358
  0
LINE
  5
352
330
1F
100
AcDbEntity
  8
0
  6
Continuous
 62
     7
370
    25
100
AcDbLine
 10
2141.3016874284
 20
8015.7908181783
 30
0.0
 11
2141.3016874284
 21
8035.6538872358
 31
0.0
  0
LWPOLYLINE
  5
353
330
1F
100
AcDbEntity
  8
0
  6
Continuous
 62
     7
370
    25
100
AcDbPolyline
 90
       14
 70
   128
 43
0.0
 10
2154.3016876967
 20
8015.7908181783
 10
2154.1128117532
 20
8015.1334385511
 10
2153.5571511776
 20
8014.5142058965
 10
2152.667007962
 20
8013.9691810247
 10
2151.4941077621
 20
8013.5300736066
 10
2150.1066196651
 20
8013.2223348257
 10
2148.5851775796
 20
8013.0638460752
 10
2147.0181994081
 20
8013.0638460752
 10
2145.4967573226
 20
8013.2223348257
 10
2144.109267363
 20
8013.5300736066
 10
2142.9363690258
 20
8013.9691810247
 10
2142.0462239475
 20
8014.5142058965
 10
2141.4905670972
 20
8015.1334385511
 10
2141.3016874284
 20
8015.7908181783
  0
LINE
  5
354
330
1F
100
AcDbEntity
  8
0
  6
Continuous
 62
     7
370
    25
100
AcDbLine
 10
2154.3016876967
 20
8035.6538872358
 30
0.0
 11
2154.3016876967
 21
8015.7908181783
 31
0.0
  0
LWPOLYLINE
  5
355
330
1F
100
AcDbEntity
  8
0
  6
Continuous
 62
     7
370
    25
100
AcDbPolyline
 90
       14
 70
   128
 43
0.0
 10
2141.3016874284
 20
7987.8979901907
 10
2141.4905670972
 20
7988.5554294225
 10
2142.0462239475
 20
7989.1746024725
 10
2142.9363690258
 20
7989.7196273443
 10
2144.109267363
 20
7990.1587347623
 10
2145.4967573226
 20
7990.466533148
 10
2147.0181994081
 20
7990.6250218984
 10
2148.5851775796
 20
7990.6250218984
 10
2150.1066196651
 20
7990.466533148
 10
2151.4941077621
 20
7990.1587347623
 10
2152.667007962
 20
7989.7196273443
 10
2153.5571511776
 20
7989.1746024725
 10
2154.1128117532
 20
7988.5554294225
 10
2154.3016876967
 20
7987.8979901907
  0
LINE
  5
356
330
1F
100
AcDbEntity
  8
0
  6
Continuous
 62
     7
370
    25
100
AcDbLine
 10
2141.3016874284
 20
7968.0349807378
 30
0.0
 11
2141.3016874284
 21
7987.8979901907
 31
0.0
  0
LWPOLYLINE
  5
357
330
1F
100
AcDbEntity
  8
0
  6
Continuous
 62
     7
370
    25
100
AcDbPolyline
 90
       14
 70
   128
 43
0.0
 10
2154.3016876967
 20
7968.0349807378
 10
2154.1128117532
 20
7967.377541506
 10
2153.5571511776
 20
7966.758368456
 10
2152.667007962
 20
7966.2133435842
 10
2151.4941077621
 20
7965.7741765615
 10
2150.1066196651
 20
7965.4664377805
 10
2148.5851775796
 20
7965.3079490301
 10
2147.0181994081
 20
7965.3079490301
 10
2145.4967573226
 20
7965.4664377805
 10
2144.109267363
 20
7965.7741765615
 10
2142.9363690258
 20
7966.2133435842
 10
2142.0462239475
 20
7966.758368456
 10
2141.4905670972
 20
7967.377541506
 10
2141.3016874284
 20
7968.0349807378
  0
LINE
  5
358
330
1F
100
AcDbEntity
  8
0
  6
Continuous
 62
     7
370
    25
100
AcDbLine
 10
2154.3016876967
 20
7987.8979901907
 30
0.0
 11
2154.3016876967
 21
7968.0349807378
 31
0.0
  0
LWPOLYLINE
  5
359
330
1F
100
AcDbEntity
  8
0
  6
Continuous
 62
     7
370
    25
100
AcDbPolyline
 90
       14
 70
   128
 43
0.0
 10
2154.3016876967
 20
7985.6322388288
 10
2154.1128117532
 20
7986.289618456
 10
2153.5571511776
 20
7986.9088511106
 10
2152.667007962
 20
7987.4538759824
 10
2151.4941077621
 20
7987.8929834005
 10
2150.1066196651
 20
7988.2007221815
 10
2148.5851775796
 20
7988.3592109319
 10
2147.0181994081
 20
7988.3592109319
 10
2145.4967573226
 20
7988.2007221815
 10
2144.109267363
 20
7987.8929834005
 10
2142.9363690258
 20
7987.4538759824
 10
2142.0462239475
 20
7986.9088511106
 10
2141.4905670972
 20
7986.289618456
 10
2141.3016874284
 20
7985.6322388288
  0
LWPOLYLINE
  5
35A
330
1F
100
AcDbEntity
  8
0
  6
Continuous
 62
     7
370
    25
100
AcDbPolyline
 90
       14
 70
   128
 43
0.0
 10
2154.3016876967
 20
8033.3880762693
 10
2154.1128117532
 20
8034.0455155012
 10
2153.5571511776
 20
8034.6646885511
 10
2152.667007962
 20
8035.2097134229
 10
2151.4941077621
 20
8035.6488804456
 10
2150.1066196651
 20
8035.9566192266
 10
2148.5851775796
 20
8036.1151079771
 10
2147.0181994081
 20
8036.1151079771
 10
2145.4967573226
 20
8035.9566192266
 10
2144.109267363
 20
8035.6488804456
 10
2142.9363690258
 20
8035.2097134229
 10
2142.0462239475
 20
8034.6646885511
 10
2141.4905670972
 20
8034.0455155012
 10
2141.3016874284
 20
8033.3880762693
  0
LINE
  5
35B
330
1F
100
AcDbEntity
  8
0
  6
Continuous
 62
     7
370
    25
100
AcDbLine
 10
4043.3017235191
 20
8060.7556085226
 30
0.0
 11
4043.3017235191
 21
8063.0213598844
 31
0.0
  0
LINE
  5
35C
330
1F
100
AcDbEntity
  8
0
  6
Continuous
 62
     7
370
    25
100
AcDbLine
 10
3992.3017244727
 20
8060.7556085226
 30
0.0
 11
4043.3017235191
 21
8060.7556085226
 31
0.0
  0
LINE
  5
35D
330
1F
100
AcDbEntity
  8
0
  6
Continuous
 62
     7
370
    25
100
AcDbLine
 10
3992.3017244727
 20
8063.0213598844
 30
0.0
 11
3992.3017244727
 21
8060.7556085226
 31
0.0
  0
LINE
  5
35E
330
1F
100
AcDbEntity
  8
0
  6
Continuous
 62
     7
370
    25
100
AcDbLine
 10
3992.3017244727
 20
8063.0213598844
 30
0.0
 11
4043.3017235191
 21
8063.0213598844
 31
0.0
  0
ARC
  5
35F
330
1F
100
AcDbEntity
  8
0
  6
Continuous
 62
     7
370
    25
100
AcDbCircle
 10
4043.39099691
 20
8058.8444534043
 30
0.0
 40
1.913239040097086
100
AcDbArc
 50
2.951632394
 51
92.6744417858
  0
ARC
  5
360
330
1F
100
AcDbEntity
  8
0
  6
Continuous
 62
     7
370
    25
100
AcDbCircle
 10
4043.5027198603
 20
8058.7214346263
 30
0.0
 40
4.304620396136193
100
AcDbArc
 50
2.950027275
 51
92.6762942657
  0
LINE
  5
361
330
1F
100
AcDbEntity
  8
0
  6
Continuous
 62
     7
370
    25
100
AcDbLine
 10
4047.801635781
 20
8058.9429716703
 30
0.0
 11
4045.3016977698
 21
8058.9429716703
 31
0.0
  0
ARC
  5
362
330
1F
100
AcDbEntity
  8
0
  6
Continuous
 62
     7
370
    25
100
AcDbCircle
 10
3992.2124516082
 20
8058.844327161
 30
0.0
 40
1.913365121345276
100
AcDbArc
 50
87.3257503553
 51
177.0447768887
  0
LINE
  5
363
330
1F
100
AcDbEntity
  8
0
  6
Continuous
 62
     7
370
    25
100
AcDbLine
 10
3990.3016310126
 20
8058.9429716703
 30
0.0
 11
3987.8016930015
 21
8058.9429716703
 31
0.0
  0
ARC
  5
364
330
1F
100
AcDbEntity
  8
0
  6
Continuous
 62
     7
370
    25
100
AcDbCircle
 10
3992.1006647659
 20
8058.7213788859
 30
0.0
 40
4.304679034856873
100
AcDbArc
 50
87.3228978934
 51
177.0492700508
  0
LINE
  5
365
330
1F
100
AcDbEntity
  8
0
  6
Continuous
 62
     7
370
    25
100
AcDbLine
 10
4047.801635781
 20
8058.9429716703
 30
0.0
 11
4047.801635781
 21
8066.1701540586
 31
0.0
  0
LINE
  5
366
330
1F
100
AcDbEntity
  8
0
  6
Continuous
 62
     7
370
    25
100
AcDbLine
 10
3987.8016930015
 20
8058.9429716703
 30
0.0
 11
3987.8016930015
 21
8066.1701540586
 31
0.0
  0
LINE
  5
367
330
1F
100
AcDbEntity
  8
0
  6
Continuous
 62
     7
370
    25
100
AcDbLine
 10
3990.3016310126
 20
7962.8743509885
 30
0.0
 11
3990.3016310126
 21
8058.9429716703
 31
0.0
  0
LINE
  5
368
330
1F
100
AcDbEntity
  8
0
  6
Continuous
 62
     7
370
    25
100
AcDbLine
 10
3987.8016930015
 20
7962.8743509885
 30
0.0
 11
3990.3016310126
 21
7962.8743509885
 31
0.0
  0
LINE
  5
369
330
1F
100
AcDbEntity
  8
0
  6
Continuous
 62
     7
370
    25
100
AcDbLine
 10
3987.8016930015
 20
7962.8743509885
 30
0.0
 11
3987.8016930015
 21
8058.9429716703
 31
0.0
  0
LINE
  5
36A
330
1F
100
AcDbEntity
  8
0
  6
Continuous
 62
     7
370
    25
100
AcDbLine
 10
4045.3016977698
 20
8044.8952297803
 30
0.0
 11
4047.801635781
 21
8044.8952297803
 31
0.0
  0
LINE
  5
36B
330
1F
100
AcDbEntity
  8
0
  6
Continuous
 62
     7
370
    25
100
AcDbLine
 10
4047.801635781
 20
8058.9429716703
 30
0.0
 11
4047.801635781
 21
8044.8952297803
 31
0.0
  0
LINE
  5
36C
330
1F
100
AcDbEntity
  8
0
  6
Continuous
 62
     7
370
    25
100
AcDbLine
 10
4045.3016977698
 20
8058.9429716703
 30
0.0
 11
4045.3016977698
 21
8044.8952297803
 31
0.0
  0
LINE
  5
36D
330
1F
100
AcDbEntity
  8
0
  6
Continuous
 62
     7
370
    25
100
AcDbLine
 10
4047.801635781
 20
7976.9221524831
 30
0.0
 11
4047.801635781
 21
8044.8952297803
 31
0.0
  0
LINE
  5
36E
330
1F
100
AcDbEntity
  8
0
  6
Continuous
 62
     7
370
    25
100
AcDbLine
 10
4047.801635781
 20
7976.9221524831
 30
0.0
 11
4045.3016977698
 21
7976.9221524831
 31
0.0
  0
LINE
  5
36F
330
1F
100
AcDbEntity
  8
0
  6
Continuous
 62
     7
370
    25
100
AcDbLine
 10
4045.3016977698
 20
7976.9221524831
 30
0.0
 11
4045.3016977698
 21
8044.8952297803
 31
0.0
  0
LINE
  5
370
330
1F
100
AcDbEntity
  8
0
  6
Continuous
 62
     7
370
    25
100
AcDbLine
 10
4047.801635781
 20
7976.9221524831
 30
0.0
 11
4047.801635781
 21
7962.8743509885
 31
0.0
  0
LINE
  5
371
330
1F
100
AcDbEntity
  8
0
  6
Continuous
 62
     7
370
    25
100
AcDbLine
 10
4045.3016977698
 20
7962.8743509885
 30
0.0
 11
4047.801635781
 21
7962.8743509885
 31
0.0
  0
LINE
  5
372
330
1F
100
AcDbEntity
  8
0
  6
Continuous
 62
     7
370
    25
100
AcDbLine
 10
4045.3016977698
 20
7976.9221524831
 30
0.0
 11
4045.3016977698
 21
7962.8743509885
 31
0.0
  0
ARC
  5
373
330
1F
100
AcDbEntity
  8
0
  6
Continuous
 62
     7
370
    25
100
AcDbCircle
 10
4043.5027058352
 20
7963.0959349287
 30
0.0
 40
4.304636816400977
100
AcDbArc
 50
267.323902832
 51
357.0493589611
  0
ARC
  5
374
330
1F
100
AcDbEntity
  8
0
  6
Continuous
 62
     7
370
    25
100
AcDbCircle
 10
4043.3909839534
 20
7962.9729149729
 30
0.0
 40
1.913254334202286
100
AcDbArc
 50
267.3259680398
 51
357.0470202873
  0
LINE
  5
375
330
1F
100
AcDbEntity
  8
0
  6
Continuous
 62
     7
370
    25
100
AcDbLine
 10
4043.3017235191
 20
7958.7959925767
 30
0.0
 11
4043.3017235191
 21
7961.0617439386
 31
0.0
  0
ARC
  5
376
330
1F
100
AcDbEntity
  8
0
  6
Continuous
 62
     7
370
    25
100
AcDbCircle
 10
3992.2124645759
 20
7962.9730412314
 30
0.0
 40
1.913380430157234
100
AcDbArc
 50
182.9565707498
 51
272.6738394939
  0
LINE
  5
377
330
1F
100
AcDbEntity
  8
0
  6
Continuous
 62
     7
370
    25
100
AcDbLine
 10
3992.3017244727
 20
7961.0617439386
 30
0.0
 11
3992.3017244727
 21
7958.7959925767
 31
0.0
  0
ARC
  5
378
330
1F
100
AcDbEntity
  8
0
  6
Continuous
 62
     7
370
    25
100
AcDbCircle
 10
3992.1006787931
 20
7963.0959906722
 30
0.0
 40
4.304695458004216
100
AcDbArc
 50
182.9513437431
 51
272.676904978
  0
LINE
  5
379
330
1F
100
AcDbEntity
  8
0
  6
Continuous
 62
     7
370
    25
100
AcDbLine
 10
4043.3017235191
 20
7961.0617439386
 30
0.0
 11
3992.3017244727
 21
7961.0617439386
 31
0.0
  0
LINE
  5
37A
330
1F
100
AcDbEntity
  8
0
  6
Continuous
 62
     7
370
    25
100
AcDbLine
 10
4043.3017235191
 20
7958.7959925767
 30
0.0
 11
3992.3017244727
 21
7958.7959925767
 31
0.0
  0
LWPOLYLINE
  5
37B
330
1F
100
AcDbEntity
  8
0
  6
Continuous
 62
     7
370
    25
100
AcDbPolyline
 90
       14
 70
   128
 43
0.0
 10
4011.3016586692
 20
8035.6538872358
 10
4011.4906053931
 20
8036.311266863
 10
4012.0462398917
 20
8036.9304995176
 10
4012.9363756568
 20
8037.4754647848
 10
4014.1092758567
 20
8037.9146318075
 10
4015.4967527778
 20
8038.2223705885
 10
4017.0182209403
 20
8038.3808593389
 10
4018.5852270515
 20
8038.3808593389
 10
4020.1065760047
 20
8038.2223705885
 10
4021.4940529258
 20
8037.9146318075
 10
4022.6669531257
 20
8037.4754647848
 10
4023.5572081
 20
8036.9304995176
 10
4024.1128425986
 20
8036.311266863
 10
4024.3016701133
 20
8035.6538872358
  0
LINE
  5
37C
330
1F
100
AcDbEntity
  8
0
  6
Continuous
 62
     7
370
    25
100
AcDbLine
 10
4011.3016586692
 20
8015.7908181783
 30
0.0
 11
4011.3016586692
 21
8035.6538872358
 31
0.0
  0
LWPOLYLINE
  5
37D
330
1F
100
AcDbEntity
  8
0
  6
Continuous
 62
     7
370
    25
100
AcDbPolyline
 90
       14
 70
   128
 43
0.0
 10
4024.3016701133
 20
8015.7908181783
 10
4024.1128425986
 20
8015.1334385511
 10
4023.5572081
 20
8014.5142058965
 10
4022.6669531257
 20
8013.9691810247
 10
4021.4940529258
 20
8013.5300736066
 10
4020.1065760047
 20
8013.2223348257
 10
4018.5852270515
 20
8013.0638460752
 10
4017.0182209403
 20
8013.0638460752
 10
4015.4967527778
 20
8013.2223348257
 10
4014.1092758567
 20
8013.5300736066
 10
4012.9363756568
 20
8013.9691810247
 10
4012.0462398917
 20
8014.5142058965
 10
4011.4906053931
 20
8015.1334385511
 10
4011.3016586692
 20
8015.7908181783
  0
LINE
  5
37E
330
1F
100
AcDbEntity
  8
0
  6
Continuous
 62
     7
370
    25
100
AcDbLine
 10
4024.3016701133
 20
8035.6538872358
 30
0.0
 11
4024.3016701133
 21
8015.7908181783
 31
0.0
  0
LWPOLYLINE
  5
37F
330
1F
100
AcDbEntity
  8
0
  6
Continuous
 62
     7
370
    25
100
AcDbPolyline
 90
       14
 70
   128
 43
0.0
 10
4011.3016586692
 20
7987.8979901907
 10
4011.4906053931
 20
7988.5554294225
 10
4012.0462398917
 20
7989.1746024725
 10
4012.9363756568
 20
7989.7196273443
 10
4014.1092758567
 20
7990.1587347623
 10
4015.4967527778
 20
7990.466533148
 10
4017.0182209403
 20
7990.6250218984
 10
4018.5852270515
 20
7990.6250218984
 10
4020.1065760047
 20
7990.466533148
 10
4021.4940529258
 20
7990.1587347623
 10
4022.6669531257
 20
7989.7196273443
 10
4023.5572081
 20
7989.1746024725
 10
4024.1128425986
 20
7988.5554294225
 10
4024.3016701133
 20
7987.8979901907
  0
LINE
  5
380
330
1F
100
AcDbEntity
  8
0
  6
Continuous
 62
     7
370
    25
100
AcDbLine
 10
4011.3016586692
 20
7968.0349807378
 30
0.0
 11
4011.3016586692
 21
7987.8979901907
 31
0.0
  0
LWPOLYLINE
  5
381
330
1F
100
AcDbEntity
  8
0
  6
Continuous
 62
     7
370
    25
100
AcDbPolyline
 90
       14
 70
   128
 43
0.0
 10
4024.3016701133
 20
7968.0349807378
 10
4024.1128425986
 20
7967.377541506
 10
4023.5572081
 20
7966.758368456
 10
4022.6669531257
 20
7966.2133435842
 10
4021.4940529258
 20
7965.7741765615
 10
4020.1065760047
 20
7965.4664377805
 10
4018.5852270515
 20
7965.3079490301
 10
4017.0182209403
 20
7965.3079490301
 10
4015.4967527778
 20
7965.4664377805
 10
4014.1092758567
 20
7965.7741765615
 10
4012.9363756568
 20
7966.2133435842
 10
4012.0462398917
 20
7966.758368456
 10
4011.4906053931
 20
7967.377541506
 10
4011.3016586692
 20
7968.0349807378
  0
LINE
  5
382
330
1F
100
AcDbEntity
  8
0
  6
Continuous
 62
     7
370
    25
100
AcDbLine
 10
4024.3016701133
 20
7987.8979901907
 30
0.0
 11
4024.3016701133
 21
7968.0349807378
 31
0.0
  0
LWPOLYLINE
  5
383
330
1F
100
AcDbEntity
  8
0
  6
Continuous
 62
     7
370
    25
100
AcDbPolyline
 90
       14
 70
   128
 43
0.0
 10
4024.3016701133
 20
7985.6322388288
 10
4024.1128425986
 20
7986.289618456
 10
4023.5572081
 20
7986.9088511106
 10
4022.6669531257
 20
7987.4538759824
 10
4021.4940529258
 20
7987.8929834005
 10
4020.1065760047
 20
7988.2007221815
 10
4018.5852270515
 20
7988.3592109319
 10
4017.0182209403
 20
7988.3592109319
 10
4015.4967527778
 20
7988.2007221815
 10
4014.1092758567
 20
7987.8929834005
 10
4012.9363756568
 20
7987.4538759824
 10
4012.0462398917
 20
7986.9088511106
 10
4011.4906053931
 20
7986.289618456
 10
4011.3016586692
 20
7985.6322388288
  0
LWPOLYLINE
  5
384
330
1F
100
AcDbEntity
  8
0
  6
Continuous
 62
     7
370
    25
100
AcDbPolyline
 90
       14
 70
   128
 43
0.0
 10
4024.3016701133
 20
8033.3880762693
 10
4024.1128425986
 20
8034.0455155012
 10
4023.5572081
 20
8034.6646885511
 10
4022.6669531257
 20
8035.2097134229
 10
4021.4940529258
 20
8035.6488804456
 10
4020.1065760047
 20
8035.9566192266
 10
4018.5852270515
 20
8036.1151079771
 10
4017.0182209403
 20
8036.1151079771
 10
4015.4967527778
 20
8035.9566192266
 10
4014.1092758567
 20
8035.6488804456
 10
4012.9363756568
 20
8035.2097134229
 10
4012.0462398917
 20
8034.6646885511
 10
4011.4906053931
 20
8034.0455155012
 10
4011.3016586692
 20
8033.3880762693
  0
LINE
  5
385
330
1F
100
AcDbEntity
  8
0
  6
Continuous
 62
     7
370
    25
100
AcDbLine
 10
6357.8014593513
 20
7632.3436479208
 30
0.0
 11
6357.8014593513
 21
6062.0389561292
 31
0.0
  0
LINE
  5
386
330
1F
100
AcDbEntity
  8
0
  6
Continuous
 62
     7
370
    25
100
AcDbLine
 10
6357.8014593513
 20
6062.0389561292
 30
0.0
 11
6353.3015470893
 21
6062.0389561292
 31
0.0
  0
LINE
  5
387
330
1F
100
AcDbEntity
  8
0
  6
Continuous
 62
     7
370
    25
100
AcDbLine
 10
6353.3015470893
 20
6062.0389561292
 30
0.0
 11
6302.3019056708
 21
6062.0389561292
 31
0.0
  0
LINE
  5
388
330
1F
100
AcDbEntity
  8
0
  6
Continuous
 62
     7
370
    25
100
AcDbLine
 10
6297.8015165717
 20
8066.1701540586
 30
0.0
 11
6297.8015165717
 21
6062.0389561292
 31
0.0
  0
LINE
  5
389
330
1F
100
AcDbEntity
  8
0
  6
Continuous
 62
     7
370
    25
100
AcDbLine
 10
6302.3019056708
 20
6062.0389561292
 30
0.0
 11
6297.8015165717
 21
6062.0389561292
 31
0.0
  0
LINE
  5
38A
330
1F
100
AcDbEntity
  8
0
  6
Continuous
 62
     7
370
    25
100
AcDbLine
 10
3987.8016930015
 20
7632.3436479208
 30
0.0
 11
3987.8016930015
 21
6062.0389561292
 31
0.0
  0
LINE
  5
38B
330
1F
100
AcDbEntity
  8
0
  6
Continuous
 62
     7
370
    25
100
AcDbLine
 10
3987.8016930015
 20
6062.0389561292
 30
0.0
 11
3983.3016615302
 21
6062.0389561292
 31
0.0
  0
LINE
  5
38C
330
1F
100
AcDbEntity
  8
0
  6
Continuous
 62
     7
370
    25
100
AcDbLine
 10
3983.3016615302
 20
6062.0389561292
 30
0.0
 11
3932.3016624839
 21
6062.0389561292
 31
0.0
  0
LINE
  5
38D
330
1F
100
AcDbEntity
  8
0
  6
Continuous
 62
     7
370
    25
100
AcDbLine
 10
3927.8016310126
 20
8066.1701540586
 30
0.0
 11
3927.8016310126
 21
6062.0389561292
 31
0.0
  0
LINE
  5
38E
330
1F
100
AcDbEntity
  8
0
  6
Continuous
 62
     7
370
    25
100
AcDbLine
 10
3932.3016624839
 20
6062.0389561292
 30
0.0
 11
3927.8016310126
 21
6062.0389561292
 31
0.0
  0
LINE
  5
38F
330
1F
100
AcDbEntity
  8
0
  6
Continuous
 62
     7
370
    25
100
AcDbLine
 10
2113.3016884268
 20
6062.0389561292
 30
0.0
 11
2062.3016875178
 21
6062.0389561292
 31
0.0
  0
LINE
  5
390
330
1F
100
AcDbEntity
  8
0
  6
Continuous
 62
     7
370
    25
100
AcDbLine
 10
2057.8016895742
 20
8066.1701540586
 30
0.0
 11
2057.8016895742
 21
6062.0389561292
 31
0.0
  0
LINE
  5
391
330
1F
100
AcDbEntity
  8
0
  6
Continuous
 62
     7
370
    25
100
AcDbLine
 10
2062.3016875178
 20
6062.0389561292
 30
0.0
 11
2057.8016895742
 21
6062.0389561292
 31
0.0
  0
LINE
  5
392
330
1F
100
AcDbEntity
  8
0
  6
Continuous
 62
     7
370
    25
100
AcDbLine
 10
2117.8016882331
 20
7632.3436479208
 30
0.0
 11
2117.8016882332
 21
6062.0389561292
 31
0.0
  0
LINE
  5
393
330
1F
100
AcDbEntity
  8
0
  6
Continuous
 62
     7
370
    25
100
AcDbLine
 10
2117.8016882332
 20
6062.0389561292
 30
0.0
 11
2113.3016884268
 21
6062.0389561292
 31
0.0
  0
LINE
  5
394
330
1F
100
AcDbEntity
  8
0
  6
Continuous
 62
     8
370
    25
100
AcDbLine
 10
6361.3019209296
 20
7958.8979463216
 30
0.0
 11
6361.3019209296
 21
7892.7407543298
 31
0.0
  0
LINE
  5
395
330
1F
100
AcDbEntity
  8
0
  6
Continuous
 62
     8
370
    25
100
AcDbLine
 10
3991.3016777427
 20
7958.8979463216
 30
0.0
 11
3991.3016777427
 21
7892.7407543298
 31
0.0
  0
LINE
  5
396
330
1F
100
AcDbEntity
  8
0
  6
Continuous
 62
     8
370
    25
100
AcDbLine
 10
2121.3016883411
 20
7958.8979463216
 30
0.0
 11
2121.3016883411
 21
7892.7407543298
 31
0.0
  0
LINE
  5
397
330
1F
100
AcDbEntity
  8
0
  6
Continuous
 62
     8
370
    25
100
AcDbLine
 10
2121.3016883411
 20
7891.4460520383
 30
0.0
 11
2121.3016883411
 21
7842.2469775316
 31
0.0
  0
LINE
  5
398
330
1F
100
AcDbEntity
  8
0
  6
Continuous
 62
     8
370
    25
100
AcDbLine
 10
6354.3014746101
 20
8066.1701540586
 30
0.0
 11
6354.3014746101
 21
8037.6675109502
 31
0.0
  0
LINE
  5
399
330
1F
100
AcDbEntity
  8
0
  6
Continuous
 62
     8
370
    25
100
AcDbLine
 10
6361.3019209296
 20
7891.4460520383
 30
0.0
 11
6361.3019209296
 21
7842.2469775316
 31
0.0
  0
LINE
  5
39A
330
1F
100
AcDbEntity
  8
0
  6
Continuous
 62
     8
370
    25
100
AcDbLine
 10
2114.3016881251
 20
8066.1701540586
 30
0.0
 11
2114.3016881251
 21
8037.6675109502
 31
0.0
  0
LINE
  5
39B
330
1F
100
AcDbEntity
  8
0
  6
Continuous
 62
     8
370
    25
100
AcDbLine
 10
3991.3016777427
 20
7891.4460520383
 30
0.0
 11
3991.3016777427
 21
7842.2469775316
 31
0.0
  0
LINE
  5
39C
330
1F
100
AcDbEntity
  8
0
  6
Continuous
 62
     8
370
    25
100
AcDbLine
 10
3984.3017082603
 20
8066.1701540586
 30
0.0
 11
3984.3017082603
 21
8037.6675109502
 31
0.0
  0
LINE
  5
39D
330
1F
100
AcDbEntity
  8
0
  6
Continuous
 62
     8
370
    25
100
AcDbLine
 10
3092.801712075
 20
8209.226427519
 30
0.0
 11
3072.8016715438
 21
8209.226427519
 31
0.0
  0
LINE
  5
39E
330
1F
100
AcDbEntity
  8
0
  6
Continuous
 62
     8
370
    25
100
AcDbLine
 10
3092.801712075
 20
8204.5752386686
 30
0.0
 11
3072.8016715438
 21
8204.5752386686
 31
0.0
  0
LINE
  5
39F
330
1F
100
AcDbEntity
  8
0
  6
Continuous
 62
     8
370
    25
100
AcDbLine
 10
4267.8017836005
 20
8204.5752386686
 30
0.0
 11
4232.8016977698
 21
8204.5752386686
 31
0.0
  0
LINE
  5
3A0
330
1F
100
AcDbEntity
  8
0
  6
Continuous
 62
     8
370
    25
100
AcDbLine
 10
4267.8017836005
 20
8209.226427519
 30
0.0
 11
4232.8016977698
 21
8209.226427519
 31
0.0
  0
LINE
  5
3A1
330
1F
100
AcDbEntity
  8
0
  6
Continuous
 62
     8
370
    25
100
AcDbLine
 10
1932.8016858489
 20
8209.226427519
 30
0.0
 11
1897.8016894252
 21
8209.226427519
 31
0.0
  0
LINE
  5
3A2
330
1F
100
AcDbEntity
  8
0
  6
Continuous
 62
     8
370
    25
100
AcDbLine
 10
1932.8016858489
 20
8204.5752386686
 30
0.0
 11
1897.8016894252
 21
8204.5752386686
 31
0.0
  0
LINE
  5
3A3
330
1F
100
AcDbEntity
  8
0
  6
Continuous
 62
     8
370
    25
100
AcDbLine
 10
4267.8017836005
 20
8120.2886085149
 30
0.0
 11
4232.8016977698
 21
8120.2886085149
 31
0.0
  0
LINE
  5
3A4
330
1F
100
AcDbEntity
  8
0
  6
Continuous
 62
     8
370
    25
100
AcDbLine
 10
3092.801712075
 20
8120.2886085149
 30
0.0
 11
3072.8016715438
 21
8120.2886085149
 31
0.0
  0
LINE
  5
3A5
330
1F
100
AcDbEntity
  8
0
  6
Continuous
 62
     8
370
    25
100
AcDbLine
 10
1932.8016858489
 20
8120.2886085149
 30
0.0
 11
1897.8016894252
 21
8120.2886085149
 31
0.0
  0
LINE
  5
3A6
330
1F
100
AcDbEntity
  8
0
  6
Continuous
 62
     8
370
    25
100
AcDbLine
 10
4267.8017836005
 20
8227.399049246
 30
0.0
 11
4232.7018003852
 21
8227.399049246
 31
0.0
  0
LINE
  5
3A7
330
1F
100
AcDbEntity
  8
0
  6
Continuous
 62
     8
370
    25
100
AcDbLine
 10
3092.9016690642
 20
8227.399049246
 30
0.0
 11
3072.7017145545
 21
8227.399049246
 31
0.0
  0
LINE
  5
3A8
330
1F
100
AcDbEntity
  8
0
  6
Continuous
 62
     8
370
    25
100
AcDbLine
 10
1932.9016875417
 20
8227.399049246
 30
0.0
 11
1897.8016894252
 21
8227.399049246
 31
0.0
  0
LINE
  5
3A9
330
1F
100
AcDbEntity
  8
0
  6
Continuous
 62
     8
370
    25
100
AcDbLine
 10
4248.794816056
 20
8138.1277422544
 30
0.0
 11
4236.8085604102
 21
8138.1277422544
 31
0.0
  0
LINE
  5
3AA
330
1F
100
AcDbEntity
  8
0
  6
Continuous
 62
     8
370
    25
100
AcDbLine
 10
1928.7949275167
 20
8138.1277422544
 30
0.0
 11
1916.8084483535
 21
8138.1277422544
 31
0.0
  0
LINE
  5
3AB
330
1F
100
AcDbEntity
  8
0
  6
Continuous
 62
     8
370
    25
100
AcDbLine
 10
4249.2051344306
 20
8140.7855729696
 30
0.0
 11
4236.3982420356
 21
8140.7855729696
 31
0.0
  0
LINE
  5
3AC
330
1F
100
AcDbEntity
  8
0
  6
Continuous
 62
     8
370
    25
100
AcDbLine
 10
1929.2051862867
 20
8140.7855729696
 30
0.0
 11
1916.3981895835
 21
8140.7855729696
 31
0.0
  0
LINE
  5
3AD
330
1F
100
AcDbEntity
  8
0
  6
Continuous
 62
     8
370
    25
100
AcDbLine
 10
5462.901614228
 20
8832.1657757398
 30
0.0
 11
5442.7016001136
 21
8832.1657757398
 31
0.0
  0
LINE
  5
3AE
330
1F
100
AcDbEntity
  8
0
  6
Continuous
 62
     8
370
    25
100
AcDbLine
 10
5462.901614228
 20
8827.5145868894
 30
0.0
 11
5442.7016001136
 21
8827.5145868894
 31
0.0
  0
LINE
  5
3AF
330
1F
100
AcDbEntity
  8
0
  6
Continuous
 62
     8
370
    25
100
AcDbLine
 10
6637.8016691596
 20
8827.5145868894
 30
0.0
 11
6602.7016859443
 21
8827.5145868894
 31
0.0
  0
LINE
  5
3B0
330
1F
100
AcDbEntity
  8
0
  6
Continuous
 62
     8
370
    25
100
AcDbLine
 10
6637.8016691596
 20
8832.1657757398
 30
0.0
 11
6602.7016859443
 21
8832.1657757398
 31
0.0
  0
LINE
  5
3B1
330
1F
100
AcDbEntity
  8
0
  6
Continuous
 62
     8
370
    25
100
AcDbLine
 10
4302.9017668159
 20
8832.1657757398
 30
0.0
 11
4267.8017836005
 21
8832.1657757398
 31
0.0
  0
LINE
  5
3B2
330
1F
100
AcDbEntity
  8
0
  6
Continuous
 62
     8
370
    25
100
AcDbLine
 10
4302.9017668159
 20
8827.5145868894
 30
0.0
 11
4267.8017836005
 21
8827.5145868894
 31
0.0
  0
LINE
  5
3B3
330
1F
100
AcDbEntity
  8
0
  6
Continuous
 62
     8
370
    25
100
AcDbLine
 10
6637.8016691596
 20
8743.2278971311
 30
0.0
 11
6602.8018217475
 21
8743.2278971311
 31
0.0
  0
LINE
  5
3B4
330
1F
100
AcDbEntity
  8
0
  6
Continuous
 62
     8
370
    25
100
AcDbLine
 10
5462.8017168433
 20
8743.2278971311
 30
0.0
 11
5442.8017359168
 21
8743.2278971311
 31
0.0
  0
LINE
  5
3B5
330
1F
100
AcDbEntity
  8
0
  6
Continuous
 62
     8
370
    25
100
AcDbLine
 10
4302.8016310126
 20
8743.2278971311
 30
0.0
 11
4267.8017836005
 21
8743.2278971311
 31
0.0
  0
LINE
  5
3B6
330
1F
100
AcDbEntity
  8
0
  6
Continuous
 62
     8
370
    25
100
AcDbLine
 10
6637.8016691596
 20
8850.3383974668
 30
0.0
 11
6602.7016859443
 21
8850.3383974668
 31
0.0
  0
LINE
  5
3B7
330
1F
100
AcDbEntity
  8
0
  6
Continuous
 62
     8
370
    25
100
AcDbLine
 10
5462.901614228
 20
8850.3383974668
 30
0.0
 11
5442.7016001136
 21
8850.3383974668
 31
0.0
  0
LINE
  5
3B8
330
1F
100
AcDbEntity
  8
0
  6
Continuous
 62
     8
370
    25
100
AcDbLine
 10
4302.9017668159
 20
8850.3383974668
 30
0.0
 11
4267.8017836005
 21
8850.3383974668
 31
0.0
  0
LINE
  5
3B9
330
1F
100
AcDbEntity
  8
0
  6
Continuous
 62
     8
370
    25
100
AcDbLine
 10
6618.7949400336
 20
8761.0670904752
 30
0.0
 11
6606.8082075507
 21
8761.0670904752
 31
0.0
  0
LINE
  5
3BA
330
1F
100
AcDbEntity
  8
0
  6
Continuous
 62
     8
370
    25
100
AcDbLine
 10
4298.7950067908
 20
8761.0670904752
 30
0.0
 11
4286.8085127265
 21
8761.0670904752
 31
0.0
  0
LINE
  5
3BB
330
1F
100
AcDbEntity
  8
0
  6
Continuous
 62
     8
370
    25
100
AcDbLine
 10
6619.2050199897
 20
8763.7248615858
 30
0.0
 11
6606.3981275947
 21
8763.7248615858
 31
0.0
  0
LINE
  5
3BC
330
1F
100
AcDbEntity
  8
0
  6
Continuous
 62
     8
370
    25
100
AcDbLine
 10
4299.2050867469
 20
8763.7248615858
 30
0.0
 11
4286.3981943519
 21
8763.7248615858
 31
0.0
  0
LINE
  5
3BD
330
1F
100
AcDbEntity
  8
0
  6
Continuous
 62
     8
370
    25
100
AcDbLine
 10
5462.8017168433
 20
8209.226427519
 30
0.0
 11
5442.8017359168
 21
8209.226427519
 31
0.0
  0
LINE
  5
3BE
330
1F
100
AcDbEntity
  8
0
  6
Continuous
 62
     8
370
    25
100
AcDbLine
 10
5462.8017168433
 20
8204.5752386686
 30
0.0
 11
5442.8017359168
 21
8204.5752386686
 31
0.0
  0
LINE
  5
3BF
330
1F
100
AcDbEntity
  8
0
  6
Continuous
 62
     8
370
    25
100
AcDbLine
 10
6637.8016691596
 20
8204.5752386686
 30
0.0
 11
6602.8018217475
 21
8204.5752386686
 31
0.0
  0
LINE
  5
3C0
330
1F
100
AcDbEntity
  8
0
  6
Continuous
 62
     8
370
    25
100
AcDbLine
 10
6637.8016691596
 20
8209.226427519
 30
0.0
 11
6602.8018217475
 21
8209.226427519
 31
0.0
  0
LINE
  5
3C1
330
1F
100
AcDbEntity
  8
0
  6
Continuous
 62
     8
370
    25
100
AcDbLine
 10
4302.8016310126
 20
8209.226427519
 30
0.0
 11
4267.8017836005
 21
8209.226427519
 31
0.0
  0
LINE
  5
3C2
330
1F
100
AcDbEntity
  8
0
  6
Continuous
 62
     8
370
    25
100
AcDbLine
 10
4302.8016310126
 20
8204.5752386686
 30
0.0
 11
4267.8017836005
 21
8204.5752386686
 31
0.0
  0
LINE
  5
3C3
330
1F
100
AcDbEntity
  8
0
  6
Continuous
 62
     8
370
    25
100
AcDbLine
 10
6637.8016691596
 20
8120.2886085149
 30
0.0
 11
6602.8018217475
 21
8120.2886085149
 31
0.0
  0
LINE
  5
3C4
330
1F
100
AcDbEntity
  8
0
  6
Continuous
 62
     8
370
    25
100
AcDbLine
 10
5462.8017168433
 20
8120.2886085149
 30
0.0
 11
5442.8017359168
 21
8120.2886085149
 31
0.0
  0
LINE
  5
3C5
330
1F
100
AcDbEntity
  8
0
  6
Continuous
 62
     8
370
    25
100
AcDbLine
 10
4302.8016310126
 20
8120.2886085149
 30
0.0
 11
4267.8017836005
 21
8120.2886085149
 31
0.0
  0
LINE
  5
3C6
330
1F
100
AcDbEntity
  8
0
  6
Continuous
 62
     8
370
    25
100
AcDbLine
 10
6637.8016691596
 20
8227.399049246
 30
0.0
 11
6602.7016859443
 21
8227.399049246
 31
0.0
  0
LINE
  5
3C7
330
1F
100
AcDbEntity
  8
0
  6
Continuous
 62
     8
370
    25
100
AcDbLine
 10
5462.901614228
 20
8227.399049246
 30
0.0
 11
5442.7016001136
 21
8227.399049246
 31
0.0
  0
LINE
  5
3C8
330
1F
100
AcDbEntity
  8
0
  6
Continuous
 62
     8
370
    25
100
AcDbLine
 10
4302.9017668159
 20
8227.399049246
 30
0.0
 11
4267.8017836005
 21
8227.399049246
 31
0.0
  0
LINE
  5
3C9
330
1F
100
AcDbEntity
  8
0
  6
Continuous
 62
     8
370
    25
100
AcDbLine
 10
6618.7949400336
 20
8138.1277422544
 30
0.0
 11
6606.8082075507
 21
8138.1277422544
 31
0.0
  0
LINE
  5
3CA
330
1F
100
AcDbEntity
  8
0
  6
Continuous
 62
     8
370
    25
100
AcDbLine
 10
4298.7950067908
 20
8138.1277422544
 30
0.0
 11
4286.8085127265
 21
8138.1277422544
 31
0.0
  0
LINE
  5
3CB
330
1F
100
AcDbEntity
  8
0
  6
Continuous
 62
     8
370
    25
100
AcDbLine
 10
6619.2050199897
 20
8140.7855729696
 30
0.0
 11
6606.3981275947
 21
8140.7855729696
 31
0.0
  0
LINE
  5
3CC
330
1F
100
AcDbEntity
  8
0
  6
Continuous
 62
     8
370
    25
100
AcDbLine
 10
4299.2050867469
 20
8140.7855729696
 30
0.0
 11
4286.3981943519
 21
8140.7855729696
 31
0.0
  0
LINE
  5
3CD
330
1F
100
AcDbEntity
  8
0
  6
Continuous
 62
     8
370
    25
100
AcDbLine
 10
3092.9016690642
 20
8832.1657757398
 30
0.0
 11
3072.7017145545
 21
8832.1657757398
 31
0.0
  0
LINE
  5
3CE
330
1F
100
AcDbEntity
  8
0
  6
Continuous
 62
     8
370
    25
100
AcDbLine
 10
3092.9016690642
 20
8827.5145868894
 30
0.0
 11
3072.7017145545
 21
8827.5145868894
 31
0.0
  0
LINE
  5
3CF
330
1F
100
AcDbEntity
  8
0
  6
Continuous
 62
     8
370
    25
100
AcDbLine
 10
4267.8017836005
 20
8827.5145868894
 30
0.0
 11
4232.7018003852
 21
8827.5145868894
 31
0.0
  0
LINE
  5
3D0
330
1F
100
AcDbEntity
  8
0
  6
Continuous
 62
     8
370
    25
100
AcDbLine
 10
4267.8017836005
 20
8832.1657757398
 30
0.0
 11
4232.7018003852
 21
8832.1657757398
 31
0.0
  0
LINE
  5
3D1
330
1F
100
AcDbEntity
  8
0
  6
Continuous
 62
     8
370
    25
100
AcDbLine
 10
1932.9016875417
 20
8832.1657757398
 30
0.0
 11
1897.8016894252
 21
8832.1657757398
 31
0.0
  0
LINE
  5
3D2
330
1F
100
AcDbEntity
  8
0
  6
Continuous
 62
     8
370
    25
100
AcDbLine
 10
1932.9016875417
 20
8827.5145868894
 30
0.0
 11
1897.8016894252
 21
8827.5145868894
 31
0.0
  0
LINE
  5
3D3
330
1F
100
AcDbEntity
  8
0
  6
Continuous
 62
     8
370
    25
100
AcDbLine
 10
4267.8017836005
 20
8743.2278971311
 30
0.0
 11
4232.8016977698
 21
8743.2278971311
 31
0.0
  0
LINE
  5
3D4
330
1F
100
AcDbEntity
  8
0
  6
Continuous
 62
     8
370
    25
100
AcDbLine
 10
3092.801712075
 20
8743.2278971311
 30
0.0
 11
3072.8016715438
 21
8743.2278971311
 31
0.0
  0
LINE
  5
3D5
330
1F
100
AcDbEntity
  8
0
  6
Continuous
 62
     8
370
    25
100
AcDbLine
 10
1932.8016858489
 20
8743.2278971311
 30
0.0
 11
1897.8016894252
 21
8743.2278971311
 31
0.0
  0
LINE
  5
3D6
330
1F
100
AcDbEntity
  8
0
  6
Continuous
 62
     8
370
    25
100
AcDbLine
 10
4267.8017836005
 20
8850.3383974668
 30
0.0
 11
4232.7018003852
 21
8850.3383974668
 31
0.0
  0
LINE
  5
3D7
330
1F
100
AcDbEntity
  8
0
  6
Continuous
 62
     8
370
    25
100
AcDbLine
 10
3092.9016690642
 20
8850.3383974668
 30
0.0
 11
3072.7017145545
 21
8850.3383974668
 31
0.0
  0
LINE
  5
3D8
330
1F
100
AcDbEntity
  8
0
  6
Continuous
 62
     8
370
    25
100
AcDbLine
 10
1932.9016875417
 20
8850.3383974668
 30
0.0
 11
1897.8016894252
 21
8850.3383974668
 31
0.0
  0
LINE
  5
3D9
330
1F
100
AcDbEntity
  8
0
  6
Continuous
 62
     8
370
    25
100
AcDbLine
 10
4248.794816056
 20
8761.0670904752
 30
0.0
 11
4236.8085604102
 21
8761.0670904752
 31
0.0
  0
LINE
  5
3DA
330
1F
100
AcDbEntity
  8
0
  6
Continuous
 62
     8
370
    25
100
AcDbLine
 10
1928.7949275167
 20
8761.0670904752
 30
0.0
 11
1916.8084483535
 21
8761.0670904752
 31
0.0
  0
LINE
  5
3DB
330
1F
100
AcDbEntity
  8
0
  6
Continuous
 62
     8
370
    25
100
AcDbLine
 10
4249.2051344306
 20
8763.7248615858
 30
0.0
 11
4236.3982420356
 21
8763.7248615858
 31
0.0
  0
LINE
  5
3DC
330
1F
100
AcDbEntity
  8
0
  6
Continuous
 62
     8
370
    25
100
AcDbLine
 10
1929.2051862867
 20
8763.7248615858
 30
0.0
 11
1916.3981895835
 21
8763.7248615858
 31
0.0
  0
LINE
  5
3DD
330
1F
100
AcDbEntity
  8
0
  6
Continuous
 62
     8
370
    25
100
AcDbLine
 10
6413.3014898688
 20
8063.0213598844
 30
0.0
 11
6413.3014898688
 21
8066.1701540586
 31
0.0
  0
LINE
  5
3DE
330
1F
100
AcDbEntity
  8
0
  6
Continuous
 62
     8
370
    25
100
AcDbLine
 10
6362.3018484504
 20
8063.0213598844
 30
0.0
 11
6362.3018484504
 21
8066.1701540586
 31
0.0
  0
LINE
  5
3DF
330
1F
100
AcDbEntity
  8
0
  6
Continuous
 62
     8
370
    25
100
AcDbLine
 10
6362.3018484504
 20
7961.0617439386
 30
0.0
 11
6362.3018484504
 21
8060.7556085226
 31
0.0
  0
LINE
  5
3E0
330
1F
100
AcDbEntity
  8
0
  6
Continuous
 62
     8
370
    25
100
AcDbLine
 10
6413.3014898688
 20
7961.0617439386
 30
0.0
 11
6413.3014898688
 21
8060.7556085226
 31
0.0
  0
LINE
  5
3E1
330
1F
100
AcDbEntity
  8
0
  6
Continuous
 62
     8
370
    25
100
AcDbLine
 10
2173.3016889484
 20
8063.0213598844
 30
0.0
 11
2173.3016889484
 21
8066.1701540586
 31
0.0
  0
LINE
  5
3E2
330
1F
100
AcDbEntity
  8
0
  6
Continuous
 62
     8
370
    25
100
AcDbLine
 10
2122.3016880394
 20
8063.0213598844
 30
0.0
 11
2122.3016880394
 21
8066.1701540586
 31
0.0
  0
LINE
  5
3E3
330
1F
100
AcDbEntity
  8
0
  6
Continuous
 62
     8
370
    25
100
AcDbLine
 10
2122.3016880394
 20
7961.0617439386
 30
0.0
 11
2122.3016880394
 21
8060.7556085226
 31
0.0
  0
LINE
  5
3E4
330
1F
100
AcDbEntity
  8
0
  6
Continuous
 62
     8
370
    25
100
AcDbLine
 10
2173.3016889484
 20
7961.0617439386
 30
0.0
 11
2173.3016889484
 21
8060.7556085226
 31
0.0
  0
LINE
  5
3E5
330
1F
100
AcDbEntity
  8
0
  6
Continuous
 62
     8
370
    25
100
AcDbLine
 10
4043.3017235191
 20
8063.0213598844
 30
0.0
 11
4043.3017235191
 21
8066.1701540586
 31
0.0
  0
LINE
  5
3E6
330
1F
100
AcDbEntity
  8
0
  6
Continuous
 62
     8
370
    25
100
AcDbLine
 10
3992.3017244727
 20
8063.0213598844
 30
0.0
 11
3992.3017244727
 21
8066.1701540586
 31
0.0
  0
LINE
  5
3E7
330
1F
100
AcDbEntity
  8
0
  6
Continuous
 62
     8
370
    25
100
AcDbLine
 10
3992.3017244727
 20
7961.0617439386
 30
0.0
 11
3992.3017244727
 21
8060.7556085226
 31
0.0
  0
LINE
  5
3E8
330
1F
100
AcDbEntity
  8
0
  6
Continuous
 62
     8
370
    25
100
AcDbLine
 10
4043.3017235191
 20
7961.0617439386
 30
0.0
 11
4043.3017235191
 21
8060.7556085226
 31
0.0
  0
LINE
  5
3E9
330
1F
100
AcDbEntity
  8
0
  6
Continuous
 62
     8
370
    25
100
AcDbLine
 10
6353.3015470893
 20
7791.4659361478
 30
0.0
 11
6353.3015470893
 21
6062.0389561292
 31
0.0
  0
LINE
  5
3EA
330
1F
100
AcDbEntity
  8
0
  6
Continuous
 62
     8
370
    25
100
AcDbLine
 10
6302.3019056708
 20
8066.1701540586
 30
0.0
 11
6302.3019056708
 21
6062.0389561292
 31
0.0
  0
LINE
  5
3EB
330
1F
100
AcDbEntity
  8
0
  6
Continuous
 62
     8
370
    25
100
AcDbLine
 10
3983.3016615302
 20
7791.4659361478
 30
0.0
 11
3983.3016615302
 21
6062.0389561292
 31
0.0
  0
LINE
  5
3EC
330
1F
100
AcDbEntity
  8
0
  6
Continuous
 62
     8
370
    25
100
AcDbLine
 10
3932.3016624839
 20
8066.1701540586
 30
0.0
 11
3932.3016624839
 21
6062.0389561292
 31
0.0
  0
LINE
  5
3ED
330
1F
100
AcDbEntity
  8
0
  6
Continuous
 62
     8
370
    25
100
AcDbLine
 10
2062.3016875178
 20
8066.1701540586
 30
0.0
 11
2062.3016875178
 21
6062.0389561292
 31
0.0
  0
LINE
  5
3EE
330
1F
100
AcDbEntity
  8
0
  6
Continuous
 62
     8
370
    25
100
AcDbLine
 10
2113.3016884268
 20
7791.4659361478
 30
0.0
 11
2113.3016884268
 21
6062.0389561292
 31
0.0
  0
POINT
  5
3EF
330
1F
100
AcDbEntity
  8
0
  6
Continuous
 62
     7
370
     0
100
AcDbPoint
 10
3957.8016882331
 20
6062.0389322874
 30
0.0
  0
POINT
  5
3F0
330
1F
100
AcDbEntity
  8
0
  6
Continuous
 62
     7
370
     0
100
AcDbPoint
 10
2087.8016882331
 20
6062.0389322874
 30
0.0
  0
POINT
  5
3F1
330
1F
100
AcDbEntity
  8
0
  6
Continuous
 62
     7
370
     0
100
AcDbPoint
 10
6327.8016882331
 20
6062.0389322873
 30
0.0
  0
DIMENSION
  5
3F2
330
1F
100
AcDbEntity
  8
0
  6
Continuous
 62
     7
370
    18
100
AcDbDimension
  2
_D_8
 10
3957.8016882331
 20
5812.0389322873
 30
0.0
 11
2986.8540611188
 21
5812.0389322873
 31
0.0
 70
   160
  1
<>
 71
     2
 42
-1.0
  3
SLDDIMSTYLE0
100
AcDbAlignedDimension
 13
2087.8016882331
 23
6062.0389322874
 33
0.0
 14
3957.8016882331
 24
6062.0389322874
 34
0.0
 50
0.0
100
AcDbRotatedDimension
  0
DIMENSION
  5
3FC
330
1F
100
AcDbEntity
  8
0
  6
Continuous
 62
     7
370
    18
100
AcDbDimension
  2
_D_9
 10
6327.8016882331
 20
5788.4382089137
 30
0.0
 11
5077.9693990472
 21
5788.4382089137
 31
0.0
 70
   160
  1
<>
 71
     2
 42
-1.0
  3
SLDDIMSTYLE0
100
AcDbAlignedDimension
 13
3957.8016882331
 23
6062.0389322874
 33
0.0
 14
6327.8016882331
 24
6062.0389322873
 34
0.0
 50
0.0
100
AcDbRotatedDimension
  0
DIMENSION
  5
406
330
1F
100
AcDbEntity
  8
0
  6
Continuous
 62
     7
370
    18
100
AcDbDimension
  2
_D_10
 10
3072.8016882331
 20
9315.9921238663
 30
0.0
 11
2520.3149293318
 21
9315.9921238663
 31
0.0
 70
   160
  1
<>
 71
     2
 42
-1.0
  3
SLDDIMSTYLE0
100
AcDbAlignedDimension
 13
1932.8016882331
 23
9065.9921238663
 33
0.0
 14
3072.8016882331
 24
9065.9921238663
 34
0.0
 50
0.0
100
AcDbRotatedDimension
  0
LINE
  5
410
330
1F
100
AcDbEntity
  8
0
  6
Continuous
 62
     7
370
    25
100
AcDbLine
 10
4232.7018003852
 20
2824.5376633154
 30
0.0
 11
4267.8017836005
 21
2824.5376633154
 31
0.0
  0
LINE
  5
411
330
1F
100
AcDbEntity
  8
0
  6
Continuous
 62
     7
370
    25
100
AcDbLine
 10
3072.7017145545
 20
2824.5376633154
 30
0.0
 11
3092.9016690642
 21
2824.5376633154
 31
0.0
  0
LINE
  5
412
330
1F
100
AcDbEntity
  8
0
  6
Continuous
 62
     7
370
    25
100
AcDbLine
 10
1897.8016894252
 20
2824.5376633154
 30
0.0
 11
1932.9016875417
 21
2824.5376633154
 31
0.0
  0
LINE
  5
413
330
1F
100
AcDbEntity
  8
0
  6
Continuous
 62
     7
370
    25
100
AcDbLine
 10
4267.8017836005
 20
2909.8123596655
 30
0.0
 11
4232.7018003852
 21
2909.8123596655
 31
0.0
  0
LINE
  5
414
330
1F
100
AcDbEntity
  8
0
  6
Continuous
 62
     7
370
    25
100
AcDbLine
 10
3092.9016690642
 20
2909.8123596655
 30
0.0
 11
3072.7017145545
 21
2909.8123596655
 31
0.0
  0
LINE
  5
415
330
1F
100
AcDbEntity
  8
0
  6
Continuous
 62
     7
370
    25
100
AcDbLine
 10
1932.9016875417
 20
2909.8123596655
 30
0.0
 11
1897.8016894252
 21
2909.8123596655
 31
0.0
  0
LINE
  5
416
330
1F
100
AcDbEntity
  8
0
  6
Continuous
 62
     7
370
    25
100
AcDbLine
 10
6602.7016859443
 20
4160.4355858312
 30
0.0
 11
6637.8016691596
 21
4160.4355858312
 31
0.0
  0
LINE
  5
417
330
1F
100
AcDbEntity
  8
0
  6
Continuous
 62
     7
370
    25
100
AcDbLine
 10
5442.7016001136
 20
4160.4355858312
 30
0.0
 11
5462.901614228
 21
4160.4355858312
 31
0.0
  0
LINE
  5
418
330
1F
100
AcDbEntity
  8
0
  6
Continuous
 62
     7
370
    25
100
AcDbLine
 10
4267.8017836005
 20
4160.4355858312
 30
0.0
 11
4302.9017668159
 21
4160.4355858312
 31
0.0
  0
LINE
  5
419
330
1F
100
AcDbEntity
  8
0
  6
Continuous
 62
     7
370
    25
100
AcDbLine
 10
6637.8016691596
 20
4245.7102821813
 30
0.0
 11
6602.7016859443
 21
4245.7102821813
 31
0.0
  0
LINE
  5
41A
330
1F
100
AcDbEntity
  8
0
  6
Continuous
 62
     7
370
    25
100
AcDbLine
 10
5462.901614228
 20
4245.7102821813
 30
0.0
 11
5442.7016001136
 21
4245.7102821813
 31
0.0
  0
LINE
  5
41B
330
1F
100
AcDbEntity
  8
0
  6
Continuous
 62
     7
370
    25
100
AcDbLine
 10
4302.9017668159
 20
4245.7102821813
 30
0.0
 11
4267.8017836005
 21
4245.7102821813
 31
0.0
  0
LINE
  5
41C
330
1F
100
AcDbEntity
  8
0
  6
Continuous
 62
     7
370
    25
100
AcDbLine
 10
6602.7016859443
 20
2824.5376633154
 30
0.0
 11
6637.8016691596
 21
2824.5376633154
 31
0.0
  0
LINE
  5
41D
330
1F
100
AcDbEntity
  8
0
  6
Continuous
 62
     7
370
    25
100
AcDbLine
 10
5442.7016001136
 20
2824.5376633154
 30
0.0
 11
5462.901614228
 21
2824.5376633154
 31
0.0
  0
LINE
  5
41E
330
1F
100
AcDbEntity
  8
0
  6
Continuous
 62
     7
370
    25
100
AcDbLine
 10
4267.8017836005
 20
2824.5376633154
 30
0.0
 11
4302.9017668159
 21
2824.5376633154
 31
0.0
  0
LINE
  5
41F
330
1F
100
AcDbEntity
  8
0
  6
Continuous
 62
     7
370
    25
100
AcDbLine
 10
6637.8016691596
 20
2909.8123596655
 30
0.0
 11
6602.7016859443
 21
2909.8123596655
 31
0.0
  0
LINE
  5
420
330
1F
100
AcDbEntity
  8
0
  6
Continuous
 62
     7
370
    25
100
AcDbLine
 10
5462.901614228
 20
2909.8123596655
 30
0.0
 11
5442.7016001136
 21
2909.8123596655
 31
0.0
  0
LINE
  5
421
330
1F
100
AcDbEntity
  8
0
  6
Continuous
 62
     7
370
    25
100
AcDbLine
 10
4302.9017668159
 20
2909.8123596655
 30
0.0
 11
4267.8017836005
 21
2909.8123596655
 31
0.0
  0
LINE
  5
422
330
1F
100
AcDbEntity
  8
0
  6
Continuous
 62
     7
370
    25
100
AcDbLine
 10
4232.7018003852
 20
4160.4355858312
 30
0.0
 11
4267.8017836005
 21
4160.4355858312
 31
0.0
  0
LINE
  5
423
330
1F
100
AcDbEntity
  8
0
  6
Continuous
 62
     7
370
    25
100
AcDbLine
 10
3072.7017145545
 20
4160.4355858312
 30
0.0
 11
3092.9016690642
 21
4160.4355858312
 31
0.0
  0
LINE
  5
424
330
1F
100
AcDbEntity
  8
0
  6
Continuous
 62
     7
370
    25
100
AcDbLine
 10
1897.8016894252
 20
4160.4355858312
 30
0.0
 11
1932.9016875417
 21
4160.4355858312
 31
0.0
  0
LINE
  5
425
330
1F
100
AcDbEntity
  8
0
  6
Continuous
 62
     7
370
    25
100
AcDbLine
 10
4267.8017836005
 20
4245.7102821813
 30
0.0
 11
4232.7018003852
 21
4245.7102821813
 31
0.0
  0
LINE
  5
426
330
1F
100
AcDbEntity
  8
0
  6
Continuous
 62
     7
370
    25
100
AcDbLine
 10
3092.9016690642
 20
4245.7102821813
 30
0.0
 11
3072.7017145545
 21
4245.7102821813
 31
0.0
  0
LINE
  5
427
330
1F
100
AcDbEntity
  8
0
  6
Continuous
 62
     7
370
    25
100
AcDbLine
 10
1932.9016875417
 20
4245.7102821813
 30
0.0
 11
1897.8016894252
 21
4245.7102821813
 31
0.0
  0
LINE
  5
428
330
1F
100
AcDbEntity
  8
0
  6
Continuous
 62
     7
370
    25
100
AcDbLine
 10
5462.8017168433
 20
2502.8685616003
 30
0.0
 11
6602.8018217475
 21
2502.8685616003
 31
0.0
  0
LINE
  5
429
330
1F
100
AcDbEntity
  8
0
  6
Continuous
 62
     7
370
    25
100
AcDbLine
 10
5462.8017168433
 20
2761.1664818273
 30
0.0
 11
5462.8017168433
 21
2502.8685616003
 31
0.0
  0
LINE
  5
42A
330
1F
100
AcDbEntity
  8
0
  6
Continuous
 62
     7
370
    25
100
AcDbLine
 10
5462.901614228
 20
2761.1664818273
 30
0.0
 11
5462.8017168433
 21
2761.1664818273
 31
0.0
  0
LINE
  5
42B
330
1F
100
AcDbEntity
  8
0
  6
Continuous
 62
     7
370
    25
100
AcDbLine
 10
5462.901614228
 20
2761.1664818273
 30
0.0
 11
5462.901614228
 21
3019.4639252172
 31
0.0
  0
LINE
  5
42C
330
1F
100
AcDbEntity
  8
0
  6
Continuous
 62
     7
370
    25
100
AcDbLine
 10
5462.901614228
 20
3019.4639252172
 30
0.0
 11
5462.8017168433
 21
3019.4639252172
 31
0.0
  0
LINE
  5
42D
330
1F
100
AcDbEntity
  8
0
  6
Continuous
 62
     7
370
    25
100
AcDbLine
 10
5462.8017168433
 20
4052.6551292883
 30
0.0
 11
5462.8017168433
 21
3019.4639252172
 31
0.0
  0
LINE
  5
42E
330
1F
100
AcDbEntity
  8
0
  6
Continuous
 62
     7
370
    25
100
AcDbLine
 10
5462.901614228
 20
4052.6551292883
 30
0.0
 11
5462.8017168433
 21
4052.6551292883
 31
0.0
  0
LINE
  5
42F
330
1F
100
AcDbEntity
  8
0
  6
Continuous
 62
     7
370
    25
100
AcDbLine
 10
5462.901614228
 20
4052.6551292883
 30
0.0
 11
5462.901614228
 21
4310.9525726782
 31
0.0
  0
LINE
  5
430
330
1F
100
AcDbEntity
  8
0
  6
Continuous
 62
     7
370
    25
100
AcDbLine
 10
5462.901614228
 20
4310.9525726782
 30
0.0
 11
5462.8017168433
 21
4310.9525726782
 31
0.0
  0
LINE
  5
431
330
1F
100
AcDbEntity
  8
0
  6
Continuous
 62
     7
370
    25
100
AcDbLine
 10
5462.8017168433
 20
4569.2504929052
 30
0.0
 11
5462.8017168433
 21
4310.9525726782
 31
0.0
  0
LINE
  5
432
330
1F
100
AcDbEntity
  8
0
  6
Continuous
 62
     7
370
    25
100
AcDbLine
 10
6602.8018217475
 20
4569.2504929052
 30
0.0
 11
5462.8017168433
 21
4569.2504929052
 31
0.0
  0
LINE
  5
433
330
1F
100
AcDbEntity
  8
0
  6
Continuous
 62
     7
370
    25
100
AcDbLine
 10
6602.8018217475
 20
4310.9525726782
 30
0.0
 11
6602.8018217475
 21
4569.2504929052
 31
0.0
  0
LINE
  5
434
330
1F
100
AcDbEntity
  8
0
  6
Continuous
 62
     7
370
    25
100
AcDbLine
 10
6602.7016859443
 20
4310.9525726782
 30
0.0
 11
6602.8018217475
 21
4310.9525726782
 31
0.0
  0
LINE
  5
435
330
1F
100
AcDbEntity
  8
0
  6
Continuous
 62
     7
370
    25
100
AcDbLine
 10
6602.7016859443
 20
4052.6551292883
 30
0.0
 11
6602.7016859443
 21
4310.9525726782
 31
0.0
  0
LINE
  5
436
330
1F
100
AcDbEntity
  8
0
  6
Continuous
 62
     7
370
    25
100
AcDbLine
 10
6602.7016859443
 20
4052.6551292883
 30
0.0
 11
6602.8018217475
 21
4052.6551292883
 31
0.0
  0
LINE
  5
437
330
1F
100
AcDbEntity
  8
0
  6
Continuous
 62
     7
370
    25
100
AcDbLine
 10
6602.8018217475
 20
3019.4639252172
 30
0.0
 11
6602.8018217475
 21
4052.6551292883
 31
0.0
  0
LINE
  5
438
330
1F
100
AcDbEntity
  8
0
  6
Continuous
 62
     7
370
    25
100
AcDbLine
 10
6602.7016859443
 20
3019.4639252172
 30
0.0
 11
6602.8018217475
 21
3019.4639252172
 31
0.0
  0
LINE
  5
439
330
1F
100
AcDbEntity
  8
0
  6
Continuous
 62
     7
370
    25
100
AcDbLine
 10
6602.7016859443
 20
2761.1664818273
 30
0.0
 11
6602.7016859443
 21
3019.4639252172
 31
0.0
  0
LINE
  5
43A
330
1F
100
AcDbEntity
  8
0
  6
Continuous
 62
     7
370
    25
100
AcDbLine
 10
6602.7016859443
 20
2761.1664818273
 30
0.0
 11
6602.8018217475
 21
2761.1664818273
 31
0.0
  0
LINE
  5
43B
330
1F
100
AcDbEntity
  8
0
  6
Continuous
 62
     7
370
    25
100
AcDbLine
 10
6602.8018217475
 20
2502.8685616003
 30
0.0
 11
6602.8018217475
 21
2761.1664818273
 31
0.0
  0
LINE
  5
43C
330
1F
100
AcDbEntity
  8
0
  6
Continuous
 62
     7
370
    25
100
AcDbLine
 10
5471.8017797858
 20
4561.093716477
 30
0.0
 11
6593.8015203864
 21
4561.093716477
 31
0.0
  0
LINE
  5
43D
330
1F
100
AcDbEntity
  8
0
  6
Continuous
 62
     7
370
    25
100
AcDbLine
 10
5471.8017797858
 20
2511.0253380285
 30
0.0
 11
5471.8017797858
 21
4561.093716477
 31
0.0
  0
LINE
  5
43E
330
1F
100
AcDbEntity
  8
0
  6
Continuous
 62
     7
370
    25
100
AcDbLine
 10
6593.8015203864
 20
2511.0253380285
 30
0.0
 11
5471.8017797858
 21
2511.0253380285
 31
0.0
  0
LINE
  5
43F
330
1F
100
AcDbEntity
  8
0
  6
Continuous
 62
     7
370
    25
100
AcDbLine
 10
6593.8015203864
 20
4561.093716477
 30
0.0
 11
6593.8015203864
 21
2511.0253380285
 31
0.0
  0
LINE
  5
440
330
1F
100
AcDbEntity
  8
0
  6
Continuous
 62
     7
370
    25
100
AcDbLine
 10
5462.8017168433
 20
4586.1548470007
 30
0.0
 11
5462.8017168433
 21
4569.2504929052
 31
0.0
  0
LINE
  5
441
330
1F
100
AcDbEntity
  8
0
  6
Continuous
 62
     7
370
    25
100
AcDbLine
 10
6602.8018217475
 20
4586.1548470007
 30
0.0
 11
5462.8017168433
 21
4586.1548470007
 31
0.0
  0
LINE
  5
442
330
1F
100
AcDbEntity
  8
0
  6
Continuous
 62
     7
370
    25
100
AcDbLine
 10
6602.8018217475
 20
4586.1548470007
 30
0.0
 11
6602.8018217475
 21
4569.2504929052
 31
0.0
  0
LINE
  5
443
330
1F
100
AcDbEntity
  8
0
  6
Continuous
 62
     7
370
    25
100
AcDbLine
 10
6592.8015928657
 20
4560.4313896642
 30
0.0
 11
5472.8017073066
 21
4560.4313896642
 31
0.0
  0
LINE
  5
444
330
1F
100
AcDbEntity
  8
0
  6
Continuous
 62
     7
370
    25
100
AcDbLine
 10
5472.8017073066
 20
4560.4313896642
 30
0.0
 11
5471.8017797858
 21
4561.093716477
 31
0.0
  0
LINE
  5
445
330
1F
100
AcDbEntity
  8
0
  6
Continuous
 62
     7
370
    25
100
AcDbLine
 10
6593.8015203864
 20
4561.093716477
 30
0.0
 11
6592.8015928657
 21
4560.4313896642
 31
0.0
  0
LINE
  5
446
330
1F
100
AcDbEntity
  8
0
  6
Continuous
 62
     7
370
    25
100
AcDbLine
 10
5472.8017073066
 20
4560.4313896642
 30
0.0
 11
5472.8017073066
 21
2512.1754692541
 31
0.0
  0
LINE
  5
447
330
1F
100
AcDbEntity
  8
0
  6
Continuous
 62
     7
370
    25
100
AcDbLine
 10
5472.8017073066
 20
2512.1754692541
 30
0.0
 11
5471.8017797858
 21
2511.0253380285
 31
0.0
  0
LINE
  5
448
330
1F
100
AcDbEntity
  8
0
  6
Continuous
 62
     7
370
    25
100
AcDbLine
 10
6593.8015203864
 20
2511.0253380285
 30
0.0
 11
6592.8015928657
 21
2512.1754692541
 31
0.0
  0
LINE
  5
449
330
1F
100
AcDbEntity
  8
0
  6
Continuous
 62
     7
370
    25
100
AcDbLine
 10
6592.8015928657
 20
2512.1754692541
 30
0.0
 11
6592.8015928657
 21
4560.4313896642
 31
0.0
  0
LINE
  5
44A
330
1F
100
AcDbEntity
  8
0
  6
Continuous
 62
     7
370
    25
100
AcDbLine
 10
5472.8017073066
 20
2512.5655220495
 30
0.0
 11
6592.8015928657
 21
2512.5655220495
 31
0.0
  0
LINE
  5
44B
330
1F
100
AcDbEntity
  8
0
  6
Continuous
 62
     7
370
    25
100
AcDbLine
 10
5462.8017168433
 20
4069.5594833837
 30
0.0
 11
5462.8017168433
 21
4052.6551292883
 31
0.0
  0
LINE
  5
44C
330
1F
100
AcDbEntity
  8
0
  6
Continuous
 62
     7
370
    25
100
AcDbLine
 10
5462.901614228
 20
4069.5594833837
 30
0.0
 11
5462.8017168433
 21
4069.5594833837
 31
0.0
  0
LINE
  5
44D
330
1F
100
AcDbEntity
  8
0
  6
Continuous
 62
     7
370
    25
100
AcDbLine
 10
6602.8018217475
 20
4069.5594833837
 30
0.0
 11
6602.8018217475
 21
4052.6551292883
 31
0.0
  0
LINE
  5
44E
330
1F
100
AcDbEntity
  8
0
  6
Continuous
 62
     7
370
    25
100
AcDbLine
 10
6602.7016859443
 20
4069.5594833837
 30
0.0
 11
6602.8018217475
 21
4069.5594833837
 31
0.0
  0
LINE
  5
44F
330
1F
100
AcDbEntity
  8
0
  6
Continuous
 62
     7
370
    25
100
AcDbLine
 10
5462.8017168433
 20
2778.0708359228
 30
0.0
 11
5462.8017168433
 21
2761.1664818273
 31
0.0
  0
LINE
  5
450
330
1F
100
AcDbEntity
  8
0
  6
Continuous
 62
     7
370
    25
100
AcDbLine
 10
5462.901614228
 20
2778.0708359228
 30
0.0
 11
5462.8017168433
 21
2778.0708359228
 31
0.0
  0
LINE
  5
451
330
1F
100
AcDbEntity
  8
0
  6
Continuous
 62
     7
370
    25
100
AcDbLine
 10
6602.8018217475
 20
2778.0708359228
 30
0.0
 11
6602.8018217475
 21
2761.1664818273
 31
0.0
  0
LINE
  5
452
330
1F
100
AcDbEntity
  8
0
  6
Continuous
 62
     7
370
    25
100
AcDbLine
 10
6602.7016859443
 20
2778.0708359228
 30
0.0
 11
6602.8018217475
 21
2778.0708359228
 31
0.0
  0
LINE
  5
453
330
1F
100
AcDbEntity
  8
0
  6
Continuous
 62
     7
370
    25
100
AcDbLine
 10
5472.8017073066
 20
2512.1754692541
 30
0.0
 11
6592.8015928657
 21
2512.1754692541
 31
0.0
  0
LINE
  5
454
330
1F
100
AcDbEntity
  8
0
  6
Continuous
 62
     7
370
    25
100
AcDbLine
 10
4302.8016310126
 20
2502.8685616003
 30
0.0
 11
5442.8017359168
 21
2502.8685616003
 31
0.0
  0
LINE
  5
455
330
1F
100
AcDbEntity
  8
0
  6
Continuous
 62
     7
370
    25
100
AcDbLine
 10
4302.8016310126
 20
2761.1664818273
 30
0.0
 11
4302.8016310126
 21
2502.8685616003
 31
0.0
  0
LINE
  5
456
330
1F
100
AcDbEntity
  8
0
  6
Continuous
 62
     7
370
    25
100
AcDbLine
 10
4302.9017668159
 20
2761.1664818273
 30
0.0
 11
4302.8016310126
 21
2761.1664818273
 31
0.0
  0
LINE
  5
457
330
1F
100
AcDbEntity
  8
0
  6
Continuous
 62
     7
370
    25
100
AcDbLine
 10
4302.9017668159
 20
2761.1664818273
 30
0.0
 11
4302.9017668159
 21
3019.4639252172
 31
0.0
  0
LINE
  5
458
330
1F
100
AcDbEntity
  8
0
  6
Continuous
 62
     7
370
    25
100
AcDbLine
 10
4302.9017668159
 20
3019.4639252172
 30
0.0
 11
4302.8016310126
 21
3019.4639252172
 31
0.0
  0
LINE
  5
459
330
1F
100
AcDbEntity
  8
0
  6
Continuous
 62
     7
370
    25
100
AcDbLine
 10
4302.8016310126
 20
4052.6551292883
 30
0.0
 11
4302.8016310126
 21
3019.4639252172
 31
0.0
  0
LINE
  5
45A
330
1F
100
AcDbEntity
  8
0
  6
Continuous
 62
     7
370
    25
100
AcDbLine
 10
4302.9017668159
 20
4052.6551292883
 30
0.0
 11
4302.8016310126
 21
4052.6551292883
 31
0.0
  0
LINE
  5
45B
330
1F
100
AcDbEntity
  8
0
  6
Continuous
 62
     7
370
    25
100
AcDbLine
 10
4302.9017668159
 20
4052.6551292883
 30
0.0
 11
4302.9017668159
 21
4310.9525726782
 31
0.0
  0
LINE
  5
45C
330
1F
100
AcDbEntity
  8
0
  6
Continuous
 62
     7
370
    25
100
AcDbLine
 10
4302.9017668159
 20
4310.9525726782
 30
0.0
 11
4302.8016310126
 21
4310.9525726782
 31
0.0
  0
LINE
  5
45D
330
1F
100
AcDbEntity
  8
0
  6
Continuous
 62
     7
370
    25
100
AcDbLine
 10
4302.8016310126
 20
4569.2504929052
 30
0.0
 11
4302.8016310126
 21
4310.9525726782
 31
0.0
  0
LINE
  5
45E
330
1F
100
AcDbEntity
  8
0
  6
Continuous
 62
     7
370
    25
100
AcDbLine
 10
5442.8017359168
 20
4569.2504929052
 30
0.0
 11
4302.8016310126
 21
4569.2504929052
 31
0.0
  0
LINE
  5
45F
330
1F
100
AcDbEntity
  8
0
  6
Continuous
 62
     7
370
    25
100
AcDbLine
 10
5442.8017359168
 20
4310.9525726782
 30
0.0
 11
5442.8017359168
 21
4569.2504929052
 31
0.0
  0
LINE
  5
460
330
1F
100
AcDbEntity
  8
0
  6
Continuous
 62
     7
370
    25
100
AcDbLine
 10
5442.7016001136
 20
4310.9525726782
 30
0.0
 11
5442.8017359168
 21
4310.9525726782
 31
0.0
  0
LINE
  5
461
330
1F
100
AcDbEntity
  8
0
  6
Continuous
 62
     7
370
    25
100
AcDbLine
 10
5442.7016001136
 20
4052.6551292883
 30
0.0
 11
5442.7016001136
 21
4310.9525726782
 31
0.0
  0
LINE
  5
462
330
1F
100
AcDbEntity
  8
0
  6
Continuous
 62
     7
370
    25
100
AcDbLine
 10
5442.7016001136
 20
4052.6551292883
 30
0.0
 11
5442.8017359168
 21
4052.6551292883
 31
0.0
  0
LINE
  5
463
330
1F
100
AcDbEntity
  8
0
  6
Continuous
 62
     7
370
    25
100
AcDbLine
 10
5442.8017359168
 20
3019.4639252172
 30
0.0
 11
5442.8017359168
 21
4052.6551292883
 31
0.0
  0
LINE
  5
464
330
1F
100
AcDbEntity
  8
0
  6
Continuous
 62
     7
370
    25
100
AcDbLine
 10
5442.7016001136
 20
3019.4639252172
 30
0.0
 11
5442.8017359168
 21
3019.4639252172
 31
0.0
  0
LINE
  5
465
330
1F
100
AcDbEntity
  8
0
  6
Continuous
 62
     7
370
    25
100
AcDbLine
 10
5442.7016001136
 20
2761.1664818273
 30
0.0
 11
5442.7016001136
 21
3019.4639252172
 31
0.0
  0
LINE
  5
466
330
1F
100
AcDbEntity
  8
0
  6
Continuous
 62
     7
370
    25
100
AcDbLine
 10
5442.7016001136
 20
2761.1664818273
 30
0.0
 11
5442.8017359168
 21
2761.1664818273
 31
0.0
  0
LINE
  5
467
330
1F
100
AcDbEntity
  8
0
  6
Continuous
 62
     7
370
    25
100
AcDbLine
 10
5442.8017359168
 20
2502.8685616003
 30
0.0
 11
5442.8017359168
 21
2761.1664818273
 31
0.0
  0
LINE
  5
468
330
1F
100
AcDbEntity
  8
0
  6
Continuous
 62
     7
370
    25
100
AcDbLine
 10
4311.8016939551
 20
4561.093716477
 30
0.0
 11
5433.8016729743
 21
4561.093716477
 31
0.0
  0
LINE
  5
469
330
1F
100
AcDbEntity
  8
0
  6
Continuous
 62
     7
370
    25
100
AcDbLine
 10
4311.8016939551
 20
2511.0253380285
 30
0.0
 11
4311.8016939551
 21
4561.093716477
 31
0.0
  0
LINE
  5
46A
330
1F
100
AcDbEntity
  8
0
  6
Continuous
 62
     7
370
    25
100
AcDbLine
 10
5433.8016729743
 20
2511.0253380285
 30
0.0
 11
4311.8016939551
 21
2511.0253380285
 31
0.0
  0
LINE
  5
46B
330
1F
100
AcDbEntity
  8
0
  6
Continuous
 62
     7
370
    25
100
AcDbLine
 10
5433.8016729743
 20
4561.093716477
 30
0.0
 11
5433.8016729743
 21
2511.0253380285
 31
0.0
  0
LINE
  5
46C
330
1F
100
AcDbEntity
  8
0
  6
Continuous
 62
     7
370
    25
100
AcDbLine
 10
4302.8016310126
 20
4586.1548470007
 30
0.0
 11
4302.8016310126
 21
4569.2504929052
 31
0.0
  0
LINE
  5
46D
330
1F
100
AcDbEntity
  8
0
  6
Continuous
 62
     7
370
    25
100
AcDbLine
 10
5442.8017359168
 20
4586.1548470007
 30
0.0
 11
4302.8016310126
 21
4586.1548470007
 31
0.0
  0
LINE
  5
46E
330
1F
100
AcDbEntity
  8
0
  6
Continuous
 62
     7
370
    25
100
AcDbLine
 10
5442.8017359168
 20
4586.1548470007
 30
0.0
 11
5442.8017359168
 21
4569.2504929052
 31
0.0
  0
LINE
  5
46F
330
1F
100
AcDbEntity
  8
0
  6
Continuous
 62
     7
370
    25
100
AcDbLine
 10
5432.8017454536
 20
4560.4313896642
 30
0.0
 11
4312.8016214759
 21
4560.4313896642
 31
0.0
  0
LINE
  5
470
330
1F
100
AcDbEntity
  8
0
  6
Continuous
 62
     7
370
    25
100
AcDbLine
 10
4312.8016214759
 20
4560.4313896642
 30
0.0
 11
4311.8016939551
 21
4561.093716477
 31
0.0
  0
LINE
  5
471
330
1F
100
AcDbEntity
  8
0
  6
Continuous
 62
     7
370
    25
100
AcDbLine
 10
5433.8016729743
 20
4561.093716477
 30
0.0
 11
5432.8017454536
 21
4560.4313896642
 31
0.0
  0
LINE
  5
472
330
1F
100
AcDbEntity
  8
0
  6
Continuous
 62
     7
370
    25
100
AcDbLine
 10
4312.8016214759
 20
4560.4313896642
 30
0.0
 11
4312.8016214759
 21
2512.1754692541
 31
0.0
  0
LINE
  5
473
330
1F
100
AcDbEntity
  8
0
  6
Continuous
 62
     7
370
    25
100
AcDbLine
 10
4312.8016214759
 20
2512.1754692541
 30
0.0
 11
4311.8016939551
 21
2511.0253380285
 31
0.0
  0
LINE
  5
474
330
1F
100
AcDbEntity
  8
0
  6
Continuous
 62
     7
370
    25
100
AcDbLine
 10
5433.8016729743
 20
2511.0253380285
 30
0.0
 11
5432.8017454536
 21
2512.1754692541
 31
0.0
  0
LINE
  5
475
330
1F
100
AcDbEntity
  8
0
  6
Continuous
 62
     7
370
    25
100
AcDbLine
 10
5432.8017454536
 20
2512.1754692541
 30
0.0
 11
5432.8017454536
 21
4560.4313896642
 31
0.0
  0
LINE
  5
476
330
1F
100
AcDbEntity
  8
0
  6
Continuous
 62
     7
370
    25
100
AcDbLine
 10
4312.8016214759
 20
2512.5655220495
 30
0.0
 11
5432.8017454536
 21
2512.5655220495
 31
0.0
  0
LINE
  5
477
330
1F
100
AcDbEntity
  8
0
  6
Continuous
 62
     7
370
    25
100
AcDbLine
 10
4302.8016310126
 20
4069.5594833837
 30
0.0
 11
4302.8016310126
 21
4052.6551292883
 31
0.0
  0
LINE
  5
478
330
1F
100
AcDbEntity
  8
0
  6
Continuous
 62
     7
370
    25
100
AcDbLine
 10
4302.9017668159
 20
4069.5594833837
 30
0.0
 11
4302.8016310126
 21
4069.5594833837
 31
0.0
  0
LINE
  5
479
330
1F
100
AcDbEntity
  8
0
  6
Continuous
 62
     7
370
    25
100
AcDbLine
 10
5442.8017359168
 20
4069.5594833837
 30
0.0
 11
5442.8017359168
 21
4052.6551292883
 31
0.0
  0
LINE
  5
47A
330
1F
100
AcDbEntity
  8
0
  6
Continuous
 62
     7
370
    25
100
AcDbLine
 10
5442.7016001136
 20
4069.5594833837
 30
0.0
 11
5442.8017359168
 21
4069.5594833837
 31
0.0
  0
LINE
  5
47B
330
1F
100
AcDbEntity
  8
0
  6
Continuous
 62
     7
370
    25
100
AcDbLine
 10
4302.8016310126
 20
2778.0708359228
 30
0.0
 11
4302.8016310126
 21
2761.1664818273
 31
0.0
  0
LINE
  5
47C
330
1F
100
AcDbEntity
  8
0
  6
Continuous
 62
     7
370
    25
100
AcDbLine
 10
4302.9017668159
 20
2778.0708359228
 30
0.0
 11
4302.8016310126
 21
2778.0708359228
 31
0.0
  0
LINE
  5
47D
330
1F
100
AcDbEntity
  8
0
  6
Continuous
 62
     7
370
    25
100
AcDbLine
 10
5442.8017359168
 20
2778.0708359228
 30
0.0
 11
5442.8017359168
 21
2761.1664818273
 31
0.0
  0
LINE
  5
47E
330
1F
100
AcDbEntity
  8
0
  6
Continuous
 62
     7
370
    25
100
AcDbLine
 10
5442.7016001136
 20
2778.0708359228
 30
0.0
 11
5442.8017359168
 21
2778.0708359228
 31
0.0
  0
LINE
  5
47F
330
1F
100
AcDbEntity
  8
0
  6
Continuous
 62
     7
370
    25
100
AcDbLine
 10
4312.8016214759
 20
2512.1754692541
 30
0.0
 11
5432.8017454536
 21
2512.1754692541
 31
0.0
  0
LINE
  5
480
330
1F
100
AcDbEntity
  8
0
  6
Continuous
 62
     7
370
    25
100
AcDbLine
 10
3092.801712075
 20
2502.8685616003
 30
0.0
 11
4232.8016977698
 21
2502.8685616003
 31
0.0
  0
LINE
  5
481
330
1F
100
AcDbEntity
  8
0
  6
Continuous
 62
     7
370
    25
100
AcDbLine
 10
3092.801712075
 20
2761.1664818273
 30
0.0
 11
3092.801712075
 21
2502.8685616003
 31
0.0
  0
LINE
  5
482
330
1F
100
AcDbEntity
  8
0
  6
Continuous
 62
     7
370
    25
100
AcDbLine
 10
3092.9016690642
 20
2761.1664818273
 30
0.0
 11
3092.801712075
 21
2761.1664818273
 31
0.0
  0
LINE
  5
483
330
1F
100
AcDbEntity
  8
0
  6
Continuous
 62
     7
370
    25
100
AcDbLine
 10
3092.9016690642
 20
2761.1664818273
 30
0.0
 11
3092.9016690642
 21
3019.4639252172
 31
0.0
  0
LINE
  5
484
330
1F
100
AcDbEntity
  8
0
  6
Continuous
 62
     7
370
    25
100
AcDbLine
 10
3092.9016690642
 20
3019.4639252172
 30
0.0
 11
3092.801712075
 21
3019.4639252172
 31
0.0
  0
LINE
  5
485
330
1F
100
AcDbEntity
  8
0
  6
Continuous
 62
     7
370
    25
100
AcDbLine
 10
3092.801712075
 20
4052.6551292883
 30
0.0
 11
3092.801712075
 21
3019.4639252172
 31
0.0
  0
LINE
  5
486
330
1F
100
AcDbEntity
  8
0
  6
Continuous
 62
     7
370
    25
100
AcDbLine
 10
3092.9016690642
 20
4052.6551292883
 30
0.0
 11
3092.801712075
 21
4052.6551292883
 31
0.0
  0
LINE
  5
487
330
1F
100
AcDbEntity
  8
0
  6
Continuous
 62
     7
370
    25
100
AcDbLine
 10
3092.9016690642
 20
4052.6551292883
 30
0.0
 11
3092.9016690642
 21
4310.9525726782
 31
0.0
  0
LINE
  5
488
330
1F
100
AcDbEntity
  8
0
  6
Continuous
 62
     7
370
    25
100
AcDbLine
 10
3092.9016690642
 20
4310.9525726782
 30
0.0
 11
3092.801712075
 21
4310.9525726782
 31
0.0
  0
LINE
  5
489
330
1F
100
AcDbEntity
  8
0
  6
Continuous
 62
     7
370
    25
100
AcDbLine
 10
3092.801712075
 20
4569.2504929052
 30
0.0
 11
3092.801712075
 21
4310.9525726782
 31
0.0
  0
LINE
  5
48A
330
1F
100
AcDbEntity
  8
0
  6
Continuous
 62
     7
370
    25
100
AcDbLine
 10
4232.8016977698
 20
4569.2504929052
 30
0.0
 11
3092.801712075
 21
4569.2504929052
 31
0.0
  0
LINE
  5
48B
330
1F
100
AcDbEntity
  8
0
  6
Continuous
 62
     7
370
    25
100
AcDbLine
 10
4232.8016977698
 20
4310.9525726782
 30
0.0
 11
4232.8016977698
 21
4569.2504929052
 31
0.0
  0
LINE
  5
48C
330
1F
100
AcDbEntity
  8
0
  6
Continuous
 62
     7
370
    25
100
AcDbLine
 10
4232.7018003852
 20
4310.9525726782
 30
0.0
 11
4232.8016977698
 21
4310.9525726782
 31
0.0
  0
LINE
  5
48D
330
1F
100
AcDbEntity
  8
0
  6
Continuous
 62
     7
370
    25
100
AcDbLine
 10
4232.7018003852
 20
4052.6551292883
 30
0.0
 11
4232.7018003852
 21
4310.9525726782
 31
0.0
  0
LINE
  5
48E
330
1F
100
AcDbEntity
  8
0
  6
Continuous
 62
     7
370
    25
100
AcDbLine
 10
4232.7018003852
 20
4052.6551292883
 30
0.0
 11
4232.8016977698
 21
4052.6551292883
 31
0.0
  0
LINE
  5
48F
330
1F
100
AcDbEntity
  8
0
  6
Continuous
 62
     7
370
    25
100
AcDbLine
 10
4232.8016977698
 20
3019.4639252172
 30
0.0
 11
4232.8016977698
 21
4052.6551292883
 31
0.0
  0
LINE
  5
490
330
1F
100
AcDbEntity
  8
0
  6
Continuous
 62
     7
370
    25
100
AcDbLine
 10
4232.7018003852
 20
3019.4639252172
 30
0.0
 11
4232.8016977698
 21
3019.4639252172
 31
0.0
  0
LINE
  5
491
330
1F
100
AcDbEntity
  8
0
  6
Continuous
 62
     7
370
    25
100
AcDbLine
 10
4232.7018003852
 20
2761.1664818273
 30
0.0
 11
4232.7018003852
 21
3019.4639252172
 31
0.0
  0
LINE
  5
492
330
1F
100
AcDbEntity
  8
0
  6
Continuous
 62
     7
370
    25
100
AcDbLine
 10
4232.7018003852
 20
2761.1664818273
 30
0.0
 11
4232.8016977698
 21
2761.1664818273
 31
0.0
  0
LINE
  5
493
330
1F
100
AcDbEntity
  8
0
  6
Continuous
 62
     7
370
    25
100
AcDbLine
 10
4232.8016977698
 20
2502.8685616003
 30
0.0
 11
4232.8016977698
 21
2761.1664818273
 31
0.0
  0
LINE
  5
494
330
1F
100
AcDbEntity
  8
0
  6
Continuous
 62
     7
370
    25
100
AcDbLine
 10
3101.8017154128
 20
4561.093716477
 30
0.0
 11
4223.8016348273
 21
4561.093716477
 31
0.0
  0
LINE
  5
495
330
1F
100
AcDbEntity
  8
0
  6
Continuous
 62
     7
370
    25
100
AcDbLine
 10
3101.8017154128
 20
2511.0253380285
 30
0.0
 11
3101.8017154128
 21
4561.093716477
 31
0.0
  0
LINE
  5
496
330
1F
100
AcDbEntity
  8
0
  6
Continuous
 62
     7
370
    25
100
AcDbLine
 10
4223.8016348273
 20
2511.0253380285
 30
0.0
 11
3101.8017154128
 21
2511.0253380285
 31
0.0
  0
LINE
  5
497
330
1F
100
AcDbEntity
  8
0
  6
Continuous
 62
     7
370
    25
100
AcDbLine
 10
4223.8016348273
 20
4561.093716477
 30
0.0
 11
4223.8016348273
 21
2511.0253380285
 31
0.0
  0
LINE
  5
498
330
1F
100
AcDbEntity
  8
0
  6
Continuous
 62
     7
370
    25
100
AcDbLine
 10
3092.801712075
 20
4586.1548470007
 30
0.0
 11
3092.801712075
 21
4569.2504929052
 31
0.0
  0
LINE
  5
499
330
1F
100
AcDbEntity
  8
0
  6
Continuous
 62
     7
370
    25
100
AcDbLine
 10
4232.8016977698
 20
4586.1548470007
 30
0.0
 11
3092.801712075
 21
4586.1548470007
 31
0.0
  0
LINE
  5
49A
330
1F
100
AcDbEntity
  8
0
  6
Continuous
 62
     7
370
    25
100
AcDbLine
 10
4232.8016977698
 20
4586.1548470007
 30
0.0
 11
4232.8016977698
 21
4569.2504929052
 31
0.0
  0
LINE
  5
49B
330
1F
100
AcDbEntity
  8
0
  6
Continuous
 62
     7
370
    25
100
AcDbLine
 10
4222.8017073066
 20
4560.4313896642
 30
0.0
 11
3102.8017025382
 21
4560.4313896642
 31
0.0
  0
LINE
  5
49C
330
1F
100
AcDbEntity
  8
0
  6
Continuous
 62
     7
370
    25
100
AcDbLine
 10
3102.8017025382
 20
4560.4313896642
 30
0.0
 11
3101.8017154128
 21
4561.093716477
 31
0.0
  0
LINE
  5
49D
330
1F
100
AcDbEntity
  8
0
  6
Continuous
 62
     7
370
    25
100
AcDbLine
 10
4223.8016348273
 20
4561.093716477
 30
0.0
 11
4222.8017073066
 21
4560.4313896642
 31
0.0
  0
LINE
  5
49E
330
1F
100
AcDbEntity
  8
0
  6
Continuous
 62
     7
370
    25
100
AcDbLine
 10
3102.8017025382
 20
4560.4313896642
 30
0.0
 11
3102.8017025382
 21
2512.1754692541
 31
0.0
  0
LINE
  5
49F
330
1F
100
AcDbEntity
  8
0
  6
Continuous
 62
     7
370
    25
100
AcDbLine
 10
3102.8017025382
 20
2512.1754692541
 30
0.0
 11
3101.8017154128
 21
2511.0253380285
 31
0.0
  0
LINE
  5
4A0
330
1F
100
AcDbEntity
  8
0
  6
Continuous
 62
     7
370
    25
100
AcDbLine
 10
4223.8016348273
 20
2511.0253380285
 30
0.0
 11
4222.8017073066
 21
2512.1754692541
 31
0.0
  0
LINE
  5
4A1
330
1F
100
AcDbEntity
  8
0
  6
Continuous
 62
     7
370
    25
100
AcDbLine
 10
4222.8017073066
 20
2512.1754692541
 30
0.0
 11
4222.8017073066
 21
4560.4313896642
 31
0.0
  0
LINE
  5
4A2
330
1F
100
AcDbEntity
  8
0
  6
Continuous
 62
     7
370
    25
100
AcDbLine
 10
3102.8017025382
 20
2512.5655220495
 30
0.0
 11
4222.8017073066
 21
2512.5655220495
 31
0.0
  0
LINE
  5
4A3
330
1F
100
AcDbEntity
  8
0
  6
Continuous
 62
     7
370
    25
100
AcDbLine
 10
3092.801712075
 20
4069.5594833837
 30
0.0
 11
3092.801712075
 21
4052.6551292883
 31
0.0
  0
LINE
  5
4A4
330
1F
100
AcDbEntity
  8
0
  6
Continuous
 62
     7
370
    25
100
AcDbLine
 10
3092.9016690642
 20
4069.5594833837
 30
0.0
 11
3092.801712075
 21
4069.5594833837
 31
0.0
  0
LINE
  5
4A5
330
1F
100
AcDbEntity
  8
0
  6
Continuous
 62
     7
370
    25
100
AcDbLine
 10
4232.8016977698
 20
4069.5594833837
 30
0.0
 11
4232.8016977698
 21
4052.6551292883
 31
0.0
  0
LINE
  5
4A6
330
1F
100
AcDbEntity
  8
0
  6
Continuous
 62
     7
370
    25
100
AcDbLine
 10
4232.7018003852
 20
4069.5594833837
 30
0.0
 11
4232.8016977698
 21
4069.5594833837
 31
0.0
  0
LINE
  5
4A7
330
1F
100
AcDbEntity
  8
0
  6
Continuous
 62
     7
370
    25
100
AcDbLine
 10
3092.801712075
 20
2778.0708359228
 30
0.0
 11
3092.801712075
 21
2761.1664818273
 31
0.0
  0
LINE
  5
4A8
330
1F
100
AcDbEntity
  8
0
  6
Continuous
 62
     7
370
    25
100
AcDbLine
 10
3092.9016690642
 20
2778.0708359228
 30
0.0
 11
3092.801712075
 21
2778.0708359228
 31
0.0
  0
LINE
  5
4A9
330
1F
100
AcDbEntity
  8
0
  6
Continuous
 62
     7
370
    25
100
AcDbLine
 10
4232.8016977698
 20
2778.0708359228
 30
0.0
 11
4232.8016977698
 21
2761.1664818273
 31
0.0
  0
LINE
  5
4AA
330
1F
100
AcDbEntity
  8
0
  6
Continuous
 62
     7
370
    25
100
AcDbLine
 10
4232.7018003852
 20
2778.0708359228
 30
0.0
 11
4232.8016977698
 21
2778.0708359228
 31
0.0
  0
LINE
  5
4AB
330
1F
100
AcDbEntity
  8
0
  6
Continuous
 62
     7
370
    25
100
AcDbLine
 10
3102.8017025382
 20
2512.1754692541
 30
0.0
 11
4222.8017073066
 21
2512.1754692541
 31
0.0
  0
LINE
  5
4AC
330
1F
100
AcDbEntity
  8
0
  6
Continuous
 62
     7
370
    25
100
AcDbLine
 10
1932.8016858489
 20
2502.8685616003
 30
0.0
 11
3072.8016715438
 21
2502.8685616003
 31
0.0
  0
LINE
  5
4AD
330
1F
100
AcDbEntity
  8
0
  6
Continuous
 62
     7
370
    25
100
AcDbLine
 10
1932.8016858489
 20
2761.1664818273
 30
0.0
 11
1932.8016858489
 21
2502.8685616003
 31
0.0
  0
LINE
  5
4AE
330
1F
100
AcDbEntity
  8
0
  6
Continuous
 62
     7
370
    25
100
AcDbLine
 10
1932.9016875417
 20
2761.1664818273
 30
0.0
 11
1932.8016858489
 21
2761.1664818273
 31
0.0
  0
LINE
  5
4AF
330
1F
100
AcDbEntity
  8
0
  6
Continuous
 62
     7
370
    25
100
AcDbLine
 10
1932.9016875417
 20
2761.1664818273
 30
0.0
 11
1932.9016875417
 21
3019.4639252172
 31
0.0
  0
LINE
  5
4B0
330
1F
100
AcDbEntity
  8
0
  6
Continuous
 62
     7
370
    25
100
AcDbLine
 10
1932.9016875417
 20
3019.4639252172
 30
0.0
 11
1932.8016858489
 21
3019.4639252172
 31
0.0
  0
LINE
  5
4B1
330
1F
100
AcDbEntity
  8
0
  6
Continuous
 62
     7
370
    25
100
AcDbLine
 10
1932.8016858489
 20
4052.6551292883
 30
0.0
 11
1932.8016858489
 21
3019.4639252172
 31
0.0
  0
LINE
  5
4B2
330
1F
100
AcDbEntity
  8
0
  6
Continuous
 62
     7
370
    25
100
AcDbLine
 10
1932.9016875417
 20
4052.6551292883
 30
0.0
 11
1932.8016858489
 21
4052.6551292883
 31
0.0
  0
LINE
  5
4B3
330
1F
100
AcDbEntity
  8
0
  6
Continuous
 62
     7
370
    25
100
AcDbLine
 10
1932.9016875417
 20
4052.6551292883
 30
0.0
 11
1932.9016875417
 21
4310.9525726782
 31
0.0
  0
LINE
  5
4B4
330
1F
100
AcDbEntity
  8
0
  6
Continuous
 62
     7
370
    25
100
AcDbLine
 10
1932.9016875417
 20
4310.9525726782
 30
0.0
 11
1932.8016858489
 21
4310.9525726782
 31
0.0
  0
LINE
  5
4B5
330
1F
100
AcDbEntity
  8
0
  6
Continuous
 62
     7
370
    25
100
AcDbLine
 10
1932.8016858489
 20
4569.2504929052
 30
0.0
 11
1932.8016858489
 21
4310.9525726782
 31
0.0
  0
LINE
  5
4B6
330
1F
100
AcDbEntity
  8
0
  6
Continuous
 62
     7
370
    25
100
AcDbLine
 10
3072.8016715438
 20
4569.2504929052
 30
0.0
 11
1932.8016858489
 21
4569.2504929052
 31
0.0
  0
LINE
  5
4B7
330
1F
100
AcDbEntity
  8
0
  6
Continuous
 62
     7
370
    25
100
AcDbLine
 10
3072.8016715438
 20
4310.9525726782
 30
0.0
 11
3072.8016715438
 21
4569.2504929052
 31
0.0
  0
LINE
  5
4B8
330
1F
100
AcDbEntity
  8
0
  6
Continuous
 62
     7
370
    25
100
AcDbLine
 10
3072.7017145545
 20
4310.9525726782
 30
0.0
 11
3072.8016715438
 21
4310.9525726782
 31
0.0
  0
LINE
  5
4B9
330
1F
100
AcDbEntity
  8
0
  6
Continuous
 62
     7
370
    25
100
AcDbLine
 10
3072.7017145545
 20
4052.6551292883
 30
0.0
 11
3072.7017145545
 21
4310.9525726782
 31
0.0
  0
LINE
  5
4BA
330
1F
100
AcDbEntity
  8
0
  6
Continuous
 62
     7
370
    25
100
AcDbLine
 10
3072.7017145545
 20
4052.6551292883
 30
0.0
 11
3072.8016715438
 21
4052.6551292883
 31
0.0
  0
LINE
  5
4BB
330
1F
100
AcDbEntity
  8
0
  6
Continuous
 62
     7
370
    25
100
AcDbLine
 10
3072.8016715438
 20
3019.4639252172
 30
0.0
 11
3072.8016715438
 21
4052.6551292883
 31
0.0
  0
LINE
  5
4BC
330
1F
100
AcDbEntity
  8
0
  6
Continuous
 62
     7
370
    25
100
AcDbLine
 10
3072.7017145545
 20
3019.4639252172
 30
0.0
 11
3072.8016715438
 21
3019.4639252172
 31
0.0
  0
LINE
  5
4BD
330
1F
100
AcDbEntity
  8
0
  6
Continuous
 62
     7
370
    25
100
AcDbLine
 10
3072.7017145545
 20
2761.1664818273
 30
0.0
 11
3072.7017145545
 21
3019.4639252172
 31
0.0
  0
LINE
  5
4BE
330
1F
100
AcDbEntity
  8
0
  6
Continuous
 62
     7
370
    25
100
AcDbLine
 10
3072.7017145545
 20
2761.1664818273
 30
0.0
 11
3072.8016715438
 21
2761.1664818273
 31
0.0
  0
LINE
  5
4BF
330
1F
100
AcDbEntity
  8
0
  6
Continuous
 62
     7
370
    25
100
AcDbLine
 10
3072.8016715438
 20
2502.8685616003
 30
0.0
 11
3072.8016715438
 21
2761.1664818273
 31
0.0
  0
LINE
  5
4C0
330
1F
100
AcDbEntity
  8
0
  6
Continuous
 62
     7
370
    25
100
AcDbLine
 10
1941.8016891868
 20
4561.093716477
 30
0.0
 11
3063.8016682059
 21
4561.093716477
 31
0.0
  0
LINE
  5
4C1
330
1F
100
AcDbEntity
  8
0
  6
Continuous
 62
     7
370
    25
100
AcDbLine
 10
1941.8016891868
 20
2511.0253380285
 30
0.0
 11
1941.8016891868
 21
4561.093716477
 31
0.0
  0
LINE
  5
4C2
330
1F
100
AcDbEntity
  8
0
  6
Continuous
 62
     7
370
    25
100
AcDbLine
 10
3063.8016682059
 20
2511.0253380285
 30
0.0
 11
1941.8016891868
 21
2511.0253380285
 31
0.0
  0
LINE
  5
4C3
330
1F
100
AcDbEntity
  8
0
  6
Continuous
 62
     7
370
    25
100
AcDbLine
 10
3063.8016682059
 20
4561.093716477
 30
0.0
 11
3063.8016682059
 21
2511.0253380285
 31
0.0
  0
LINE
  5
4C4
330
1F
100
AcDbEntity
  8
0
  6
Continuous
 62
     7
370
    25
100
AcDbLine
 10
1932.8016858489
 20
4586.1548470007
 30
0.0
 11
1932.8016858489
 21
4569.2504929052
 31
0.0
  0
LINE
  5
4C5
330
1F
100
AcDbEntity
  8
0
  6
Continuous
 62
     7
370
    25
100
AcDbLine
 10
3072.8016715438
 20
4586.1548470007
 30
0.0
 11
1932.8016858489
 21
4586.1548470007
 31
0.0
  0
LINE
  5
4C6
330
1F
100
AcDbEntity
  8
0
  6
Continuous
 62
     7
370
    25
100
AcDbLine
 10
3072.8016715438
 20
4586.1548470007
 30
0.0
 11
3072.8016715438
 21
4569.2504929052
 31
0.0
  0
LINE
  5
4C7
330
1F
100
AcDbEntity
  8
0
  6
Continuous
 62
     7
370
    25
100
AcDbLine
 10
3062.8016810805
 20
4560.4313896642
 30
0.0
 11
1942.8016912133
 21
4560.4313896642
 31
0.0
  0
LINE
  5
4C8
330
1F
100
AcDbEntity
  8
0
  6
Continuous
 62
     7
370
    25
100
AcDbLine
 10
1942.8016912133
 20
4560.4313896642
 30
0.0
 11
1941.8016891868
 21
4561.093716477
 31
0.0
  0
LINE
  5
4C9
330
1F
100
AcDbEntity
  8
0
  6
Continuous
 62
     7
370
    25
100
AcDbLine
 10
3063.8016682059
 20
4561.093716477
 30
0.0
 11
3062.8016810805
 21
4560.4313896642
 31
0.0
  0
LINE
  5
4CA
330
1F
100
AcDbEntity
  8
0
  6
Continuous
 62
     7
370
    25
100
AcDbLine
 10
1942.8016912133
 20
4560.4313896642
 30
0.0
 11
1942.8016912133
 21
2512.1754692541
 31
0.0
  0
LINE
  5
4CB
330
1F
100
AcDbEntity
  8
0
  6
Continuous
 62
     7
370
    25
100
AcDbLine
 10
1942.8016912133
 20
2512.1754692541
 30
0.0
 11
1941.8016891868
 21
2511.0253380285
 31
0.0
  0
LINE
  5
4CC
330
1F
100
AcDbEntity
  8
0
  6
Continuous
 62
     7
370
    25
100
AcDbLine
 10
3063.8016682059
 20
2511.0253380285
 30
0.0
 11
3062.8016810805
 21
2512.1754692541
 31
0.0
  0
LINE
  5
4CD
330
1F
100
AcDbEntity
  8
0
  6
Continuous
 62
     7
370
    25
100
AcDbLine
 10
3062.8016810805
 20
2512.1754692541
 30
0.0
 11
3062.8016810805
 21
4560.4313896642
 31
0.0
  0
LINE
  5
4CE
330
1F
100
AcDbEntity
  8
0
  6
Continuous
 62
     7
370
    25
100
AcDbLine
 10
1942.8016912133
 20
2512.5655220495
 30
0.0
 11
3062.8016810805
 21
2512.5655220495
 31
0.0
  0
LINE
  5
4CF
330
1F
100
AcDbEntity
  8
0
  6
Continuous
 62
     7
370
    25
100
AcDbLine
 10
1932.8016858489
 20
4069.5594833837
 30
0.0
 11
1932.8016858489
 21
4052.6551292883
 31
0.0
  0
LINE
  5
4D0
330
1F
100
AcDbEntity
  8
0
  6
Continuous
 62
     7
370
    25
100
AcDbLine
 10
1932.9016875417
 20
4069.5594833837
 30
0.0
 11
1932.8016858489
 21
4069.5594833837
 31
0.0
  0
LINE
  5
4D1
330
1F
100
AcDbEntity
  8
0
  6
Continuous
 62
     7
370
    25
100
AcDbLine
 10
3072.8016715438
 20
4069.5594833837
 30
0.0
 11
3072.8016715438
 21
4052.6551292883
 31
0.0
  0
LINE
  5
4D2
330
1F
100
AcDbEntity
  8
0
  6
Continuous
 62
     7
370
    25
100
AcDbLine
 10
3072.7017145545
 20
4069.5594833837
 30
0.0
 11
3072.8016715438
 21
4069.5594833837
 31
0.0
  0
LINE
  5
4D3
330
1F
100
AcDbEntity
  8
0
  6
Continuous
 62
     7
370
    25
100
AcDbLine
 10
1932.8016858489
 20
2778.0708359228
 30
0.0
 11
1932.8016858489
 21
2761.1664818273
 31
0.0
  0
LINE
  5
4D4
330
1F
100
AcDbEntity
  8
0
  6
Continuous
 62
     7
370
    25
100
AcDbLine
 10
1932.9016875417
 20
2778.0708359228
 30
0.0
 11
1932.8016858489
 21
2778.0708359228
 31
0.0
  0
LINE
  5
4D5
330
1F
100
AcDbEntity
  8
0
  6
Continuous
 62
     7
370
    25
100
AcDbLine
 10
3072.8016715438
 20
2778.0708359228
 30
0.0
 11
3072.8016715438
 21
2761.1664818273
 31
0.0
  0
LINE
  5
4D6
330
1F
100
AcDbEntity
  8
0
  6
Continuous
 62
     7
370
    25
100
AcDbLine
 10
3072.7017145545
 20
2778.0708359228
 30
0.0
 11
3072.8016715438
 21
2778.0708359228
 31
0.0
  0
LINE
  5
4D7
330
1F
100
AcDbEntity
  8
0
  6
Continuous
 62
     7
370
    25
100
AcDbLine
 10
1942.8016912133
 20
2512.1754692541
 30
0.0
 11
3062.8016810805
 21
2512.1754692541
 31
0.0
  0
LINE
  5
4D8
330
1F
100
AcDbEntity
  8
0
  6
Continuous
 62
     7
370
    25
100
AcDbLine
 10
4267.8017836005
 20
2865.5299232946
 30
0.0
 11
4267.8017836005
 21
2870.1809929357
 31
0.0
  0
LINE
  5
4D9
330
1F
100
AcDbEntity
  8
0
  6
Continuous
 62
     7
370
    25
100
AcDbLine
 10
1897.8016894252
 20
2865.5299232946
 30
0.0
 11
1897.8016894252
 21
2870.1809929357
 31
0.0
  0
LINE
  5
4DA
330
1F
100
AcDbEntity
  8
0
  6
Continuous
 62
     7
370
    25
100
AcDbLine
 10
1897.8016894252
 20
2826.5584991918
 30
0.0
 11
1897.8016894252
 21
2865.5299232946
 31
0.0
  0
LINE
  5
4DB
330
1F
100
AcDbEntity
  8
0
  6
Continuous
 62
     7
370
    25
100
AcDbLine
 10
4267.8017836005
 20
2826.5584991918
 30
0.0
 11
4267.8017836005
 21
2865.5299232946
 31
0.0
  0
LINE
  5
4DC
330
1F
100
AcDbEntity
  8
0
  6
Continuous
 62
     7
370
    25
100
AcDbLine
 10
3072.7017145545
 20
2840.1531265722
 30
0.0
 11
3092.9016690642
 21
2840.1531265722
 31
0.0
  0
LINE
  5
4DD
330
1F
100
AcDbEntity
  8
0
  6
Continuous
 62
     7
370
    25
100
AcDbLine
 10
3092.9016690642
 20
2851.9352959142
 30
0.0
 11
3072.7017145545
 21
2851.9352959142
 31
0.0
  0
LINE
  5
4DE
330
1F
100
AcDbEntity
  8
0
  6
Continuous
 62
     7
370
    25
100
AcDbLine
 10
4267.8017836005
 20
2877.1542595373
 30
0.0
 11
4232.7018003852
 21
2877.1542595373
 31
0.0
  0
LINE
  5
4DF
330
1F
100
AcDbEntity
  8
0
  6
Continuous
 62
     7
370
    25
100
AcDbLine
 10
3092.9016690642
 20
2877.1542595373
 30
0.0
 11
3072.7017145545
 21
2877.1542595373
 31
0.0
  0
LINE
  5
4E0
330
1F
100
AcDbEntity
  8
0
  6
Continuous
 62
     7
370
    25
100
AcDbLine
 10
1932.9016875417
 20
2877.1542595373
 30
0.0
 11
1897.8016894252
 21
2877.1542595373
 31
0.0
  0
LINE
  5
4E1
330
1F
100
AcDbEntity
  8
0
  6
Continuous
 62
     7
370
    25
100
AcDbLine
 10
4267.8017836005
 20
2870.1809929357
 30
0.0
 11
4267.8017836005
 21
2877.1542595373
 31
0.0
  0
LINE
  5
4E2
330
1F
100
AcDbEntity
  8
0
  6
Continuous
 62
     7
370
    25
100
AcDbLine
 10
1897.8016894252
 20
2870.1809929357
 30
0.0
 11
1897.8016894252
 21
2877.1542595373
 31
0.0
  0
LINE
  5
4E3
330
1F
100
AcDbEntity
  8
0
  6
Continuous
 62
     7
370
    25
100
AcDbLine
 10
3072.7017145545
 20
2840.7868431555
 30
0.0
 11
3092.9016690642
 21
2840.7868431555
 31
0.0
  0
LINE
  5
4E4
330
1F
100
AcDbEntity
  8
0
  6
Continuous
 62
     7
370
    25
100
AcDbLine
 10
4267.8017836005
 20
2826.5584991918
 30
0.0
 11
4267.8017836005
 21
2824.5376633154
 31
0.0
  0
LINE
  5
4E5
330
1F
100
AcDbEntity
  8
0
  6
Continuous
 62
     7
370
    25
100
AcDbLine
 10
1897.8016894252
 20
2824.5376633154
 30
0.0
 11
1897.8016894252
 21
2826.5584991918
 31
0.0
  0
LINE
  5
4E6
330
1F
100
AcDbEntity
  8
0
  6
Continuous
 62
     7
370
    25
100
AcDbLine
 10
4267.8017836005
 20
2902.5115059362
 30
0.0
 11
4267.8017836005
 21
2909.4842957006
 31
0.0
  0
LINE
  5
4E7
330
1F
100
AcDbEntity
  8
0
  6
Continuous
 62
     7
370
    25
100
AcDbLine
 10
4267.8017836005
 20
2902.5115059362
 30
0.0
 11
4232.7018003852
 21
2902.5115059362
 31
0.0
  0
LINE
  5
4E8
330
1F
100
AcDbEntity
  8
0
  6
Continuous
 62
     7
370
    25
100
AcDbLine
 10
3092.9016690642
 20
2902.5115059362
 30
0.0
 11
3072.7017145545
 21
2902.5115059362
 31
0.0
  0
LINE
  5
4E9
330
1F
100
AcDbEntity
  8
0
  6
Continuous
 62
     7
370
    25
100
AcDbLine
 10
1932.9016875417
 20
2902.5115059362
 30
0.0
 11
1897.8016894252
 21
2902.5115059362
 31
0.0
  0
LINE
  5
4EA
330
1F
100
AcDbEntity
  8
0
  6
Continuous
 62
     7
370
    25
100
AcDbLine
 10
1897.8016894252
 20
2902.5115059362
 30
0.0
 11
1897.8016894252
 21
2909.4842957006
 31
0.0
  0
LINE
  5
4EB
330
1F
100
AcDbEntity
  8
0
  6
Continuous
 62
     7
370
    25
100
AcDbLine
 10
4267.8017836005
 20
2902.5115059362
 30
0.0
 11
4267.8017836005
 21
2901.1520431982
 31
0.0
  0
LINE
  5
4EC
330
1F
100
AcDbEntity
  8
0
  6
Continuous
 62
     7
370
    25
100
AcDbLine
 10
4267.8017836005
 20
2901.1520431982
 30
0.0
 11
4232.7018003852
 21
2901.1520431982
 31
0.0
  0
LINE
  5
4ED
330
1F
100
AcDbEntity
  8
0
  6
Continuous
 62
     7
370
    25
100
AcDbLine
 10
3092.9016690642
 20
2901.1520431982
 30
0.0
 11
3072.7017145545
 21
2901.1520431982
 31
0.0
  0
LINE
  5
4EE
330
1F
100
AcDbEntity
  8
0
  6
Continuous
 62
     7
370
    25
100
AcDbLine
 10
1932.9016875417
 20
2901.1520431982
 30
0.0
 11
1897.8016894252
 21
2901.1520431982
 31
0.0
  0
LINE
  5
4EF
330
1F
100
AcDbEntity
  8
0
  6
Continuous
 62
     7
370
    25
100
AcDbLine
 10
1897.8016894252
 20
2902.5115059362
 30
0.0
 11
1897.8016894252
 21
2901.1520431982
 31
0.0
  0
LINE
  5
4F0
330
1F
100
AcDbEntity
  8
0
  6
Continuous
 62
     7
370
    25
100
AcDbLine
 10
4267.8017836005
 20
2909.4842957006
 30
0.0
 11
4267.8017836005
 21
2909.8123596655
 31
0.0
  0
LINE
  5
4F1
330
1F
100
AcDbEntity
  8
0
  6
Continuous
 62
     7
370
    25
100
AcDbLine
 10
1897.8016894252
 20
2909.4842957006
 30
0.0
 11
1897.8016894252
 21
2909.8123596655
 31
0.0
  0
LINE
  5
4F2
330
1F
100
AcDbEntity
  8
0
  6
Continuous
 62
     7
370
    25
100
AcDbLine
 10
1897.8016894252
 20
2901.1520431982
 30
0.0
 11
1897.8016894252
 21
2877.1542595373
 31
0.0
  0
LINE
  5
4F3
330
1F
100
AcDbEntity
  8
0
  6
Continuous
 62
     7
370
    25
100
AcDbLine
 10
4267.8017836005
 20
2901.1520431982
 30
0.0
 11
4267.8017836005
 21
2877.1542595373
 31
0.0
  0
LINE
  5
4F4
330
1F
100
AcDbEntity
  8
0
  6
Continuous
 62
     7
370
    25
100
AcDbLine
 10
3072.7017145545
 20
2893.5631798254
 30
0.0
 11
3092.9016690642
 21
2893.5631798254
 31
0.0
  0
LINE
  5
4F5
330
1F
100
AcDbEntity
  8
0
  6
Continuous
 62
     7
370
    25
100
AcDbLine
 10
3092.9016690642
 20
2881.7810104833
 30
0.0
 11
3072.7017145545
 21
2881.7810104833
 31
0.0
  0
LINE
  5
4F6
330
1F
100
AcDbEntity
  8
0
  6
Continuous
 62
     7
370
    25
100
AcDbLine
 10
3092.9016690642
 20
2882.4147270666
 30
0.0
 11
3072.7017145545
 21
2882.4147270666
 31
0.0
  0
LINE
  5
4F7
330
1F
100
AcDbEntity
  8
0
  6
Continuous
 62
     7
370
    25
100
AcDbLine
 10
6637.8016691596
 20
4201.4273689733
 30
0.0
 11
6637.8016691596
 21
4206.0784386144
 31
0.0
  0
LINE
  5
4F8
330
1F
100
AcDbEntity
  8
0
  6
Continuous
 62
     7
370
    25
100
AcDbLine
 10
4267.8017836005
 20
4201.4273689733
 30
0.0
 11
4267.8017836005
 21
4206.0784386144
 31
0.0
  0
LINE
  5
4F9
330
1F
100
AcDbEntity
  8
0
  6
Continuous
 62
     7
370
    25
100
AcDbLine
 10
4267.8017836005
 20
4162.4564217077
 30
0.0
 11
4267.8017836005
 21
4201.4273689733
 31
0.0
  0
LINE
  5
4FA
330
1F
100
AcDbEntity
  8
0
  6
Continuous
 62
     7
370
    25
100
AcDbLine
 10
6637.8016691596
 20
4162.4564217077
 30
0.0
 11
6637.8016691596
 21
4201.4273689733
 31
0.0
  0
LINE
  5
4FB
330
1F
100
AcDbEntity
  8
0
  6
Continuous
 62
     7
370
    25
100
AcDbLine
 10
5442.7016001136
 20
4176.0505722509
 30
0.0
 11
5462.901614228
 21
4176.0505722509
 31
0.0
  0
LINE
  5
4FC
330
1F
100
AcDbEntity
  8
0
  6
Continuous
 62
     7
370
    25
100
AcDbLine
 10
5462.901614228
 20
4187.832741593
 30
0.0
 11
5442.7016001136
 21
4187.832741593
 31
0.0
  0
LINE
  5
4FD
330
1F
100
AcDbEntity
  8
0
  6
Continuous
 62
     7
370
    25
100
AcDbLine
 10
6637.8016691596
 20
4213.051705216
 30
0.0
 11
6602.7016859443
 21
4213.051705216
 31
0.0
  0
LINE
  5
4FE
330
1F
100
AcDbEntity
  8
0
  6
Continuous
 62
     7
370
    25
100
AcDbLine
 10
5462.901614228
 20
4213.051705216
 30
0.0
 11
5442.7016001136
 21
4213.051705216
 31
0.0
  0
LINE
  5
4FF
330
1F
100
AcDbEntity
  8
0
  6
Continuous
 62
     7
370
    25
100
AcDbLine
 10
4302.9017668159
 20
4213.051705216
 30
0.0
 11
4267.8017836005
 21
4213.051705216
 31
0.0
  0
LINE
  5
500
330
1F
100
AcDbEntity
  8
0
  6
Continuous
 62
     7
370
    25
100
AcDbLine
 10
6637.8016691596
 20
4206.0784386144
 30
0.0
 11
6637.8016691596
 21
4213.051705216
 31
0.0
  0
LINE
  5
501
330
1F
100
AcDbEntity
  8
0
  6
Continuous
 62
     7
370
    25
100
AcDbLine
 10
4267.8017836005
 20
4206.0784386144
 30
0.0
 11
4267.8017836005
 21
4213.051705216
 31
0.0
  0
LINE
  5
502
330
1F
100
AcDbEntity
  8
0
  6
Continuous
 62
     7
370
    25
100
AcDbLine
 10
5442.7016001136
 20
4176.6847656713
 30
0.0
 11
5462.901614228
 21
4176.6847656713
 31
0.0
  0
LINE
  5
503
330
1F
100
AcDbEntity
  8
0
  6
Continuous
 62
     7
370
    25
100
AcDbLine
 10
6637.8016691596
 20
4162.4564217077
 30
0.0
 11
6637.8016691596
 21
4160.4355858312
 31
0.0
  0
LINE
  5
504
330
1F
100
AcDbEntity
  8
0
  6
Continuous
 62
     7
370
    25
100
AcDbLine
 10
4267.8017836005
 20
4160.4355858312
 30
0.0
 11
4267.8017836005
 21
4162.4564217077
 31
0.0
  0
LINE
  5
505
330
1F
100
AcDbEntity
  8
0
  6
Continuous
 62
     7
370
    25
100
AcDbLine
 10
6637.8016691596
 20
4238.4089516149
 30
0.0
 11
6637.8016691596
 21
4245.3822182165
 31
0.0
  0
LINE
  5
506
330
1F
100
AcDbEntity
  8
0
  6
Continuous
 62
     7
370
    25
100
AcDbLine
 10
6637.8016691596
 20
4238.4089516149
 30
0.0
 11
6602.7016859443
 21
4238.4089516149
 31
0.0
  0
LINE
  5
507
330
1F
100
AcDbEntity
  8
0
  6
Continuous
 62
     7
370
    25
100
AcDbLine
 10
5462.901614228
 20
4238.4089516149
 30
0.0
 11
5442.7016001136
 21
4238.4089516149
 31
0.0
  0
LINE
  5
508
330
1F
100
AcDbEntity
  8
0
  6
Continuous
 62
     7
370
    25
100
AcDbLine
 10
4302.9017668159
 20
4238.4089516149
 30
0.0
 11
4267.8017836005
 21
4238.4089516149
 31
0.0
  0
LINE
  5
509
330
1F
100
AcDbEntity
  8
0
  6
Continuous
 62
     7
370
    25
100
AcDbLine
 10
4267.8017836005
 20
4238.4089516149
 30
0.0
 11
4267.8017836005
 21
4245.3822182165
 31
0.0
  0
LINE
  5
50A
330
1F
100
AcDbEntity
  8
0
  6
Continuous
 62
     7
370
    25
100
AcDbLine
 10
6637.8016691596
 20
4238.4089516149
 30
0.0
 11
6637.8016691596
 21
4237.0494888769
 31
0.0
  0
LINE
  5
50B
330
1F
100
AcDbEntity
  8
0
  6
Continuous
 62
     7
370
    25
100
AcDbLine
 10
6637.8016691596
 20
4237.0494888769
 30
0.0
 11
6602.7016859443
 21
4237.0494888769
 31
0.0
  0
LINE
  5
50C
330
1F
100
AcDbEntity
  8
0
  6
Continuous
 62
     7
370
    25
100
AcDbLine
 10
5462.901614228
 20
4237.0494888769
 30
0.0
 11
5442.7016001136
 21
4237.0494888769
 31
0.0
  0
LINE
  5
50D
330
1F
100
AcDbEntity
  8
0
  6
Continuous
 62
     7
370
    25
100
AcDbLine
 10
4302.9017668159
 20
4237.0494888769
 30
0.0
 11
4267.8017836005
 21
4237.0494888769
 31
0.0
  0
LINE
  5
50E
330
1F
100
AcDbEntity
  8
0
  6
Continuous
 62
     7
370
    25
100
AcDbLine
 10
4267.8017836005
 20
4238.4089516149
 30
0.0
 11
4267.8017836005
 21
4237.0494888769
 31
0.0
  0
LINE
  5
50F
330
1F
100
AcDbEntity
  8
0
  6
Continuous
 62
     7
370
    25
100
AcDbLine
 10
6637.8016691596
 20
4245.3822182165
 30
0.0
 11
6637.8016691596
 21
4245.7102821813
 31
0.0
  0
LINE
  5
510
330
1F
100
AcDbEntity
  8
0
  6
Continuous
 62
     7
370
    25
100
AcDbLine
 10
4267.8017836005
 20
4245.3822182165
 30
0.0
 11
4267.8017836005
 21
4245.7102821813
 31
0.0
  0
LINE
  5
511
330
1F
100
AcDbEntity
  8
0
  6
Continuous
 62
     7
370
    25
100
AcDbLine
 10
4267.8017836005
 20
4237.0494888769
 30
0.0
 11
4267.8017836005
 21
4213.051705216
 31
0.0
  0
LINE
  5
512
330
1F
100
AcDbEntity
  8
0
  6
Continuous
 62
     7
370
    25
100
AcDbLine
 10
6637.8016691596
 20
4237.0494888769
 30
0.0
 11
6637.8016691596
 21
4213.051705216
 31
0.0
  0
LINE
  5
513
330
1F
100
AcDbEntity
  8
0
  6
Continuous
 62
     7
370
    25
100
AcDbLine
 10
5442.7016001136
 20
4229.4606255041
 30
0.0
 11
5462.901614228
 21
4229.4606255041
 31
0.0
  0
LINE
  5
514
330
1F
100
AcDbEntity
  8
0
  6
Continuous
 62
     7
370
    25
100
AcDbLine
 10
5462.901614228
 20
4217.6789329992
 30
0.0
 11
5442.7016001136
 21
4217.6789329992
 31
0.0
  0
LINE
  5
515
330
1F
100
AcDbEntity
  8
0
  6
Continuous
 62
     7
370
    25
100
AcDbLine
 10
5462.901614228
 20
4218.3126495825
 30
0.0
 11
5442.7016001136
 21
4218.3126495825
 31
0.0
  0
LINE
  5
516
330
1F
100
AcDbEntity
  8
0
  6
Continuous
 62
     7
370
    25
100
AcDbLine
 10
6637.8016691596
 20
2865.5299232946
 30
0.0
 11
6637.8016691596
 21
2870.1809929357
 31
0.0
  0
LINE
  5
517
330
1F
100
AcDbEntity
  8
0
  6
Continuous
 62
     7
370
    25
100
AcDbLine
 10
6637.8016691596
 20
2826.5584991918
 30
0.0
 11
6637.8016691596
 21
2865.5299232946
 31
0.0
  0
LINE
  5
518
330
1F
100
AcDbEntity
  8
0
  6
Continuous
 62
     7
370
    25
100
AcDbLine
 10
5442.7016001136
 20
2840.1531265722
 30
0.0
 11
5462.901614228
 21
2840.1531265722
 31
0.0
  0
LINE
  5
519
330
1F
100
AcDbEntity
  8
0
  6
Continuous
 62
     7
370
    25
100
AcDbLine
 10
5462.901614228
 20
2851.9352959142
 30
0.0
 11
5442.7016001136
 21
2851.9352959142
 31
0.0
  0
LINE
  5
51A
330
1F
100
AcDbEntity
  8
0
  6
Continuous
 62
     7
370
    25
100
AcDbLine
 10
6637.8016691596
 20
2877.1542595373
 30
0.0
 11
6602.7016859443
 21
2877.1542595373
 31
0.0
  0
LINE
  5
51B
330
1F
100
AcDbEntity
  8
0
  6
Continuous
 62
     7
370
    25
100
AcDbLine
 10
5462.901614228
 20
2877.1542595373
 30
0.0
 11
5442.7016001136
 21
2877.1542595373
 31
0.0
  0
LINE
  5
51C
330
1F
100
AcDbEntity
  8
0
  6
Continuous
 62
     7
370
    25
100
AcDbLine
 10
4302.9017668159
 20
2877.1542595373
 30
0.0
 11
4267.8017836005
 21
2877.1542595373
 31
0.0
  0
LINE
  5
51D
330
1F
100
AcDbEntity
  8
0
  6
Continuous
 62
     7
370
    25
100
AcDbLine
 10
6637.8016691596
 20
2870.1809929357
 30
0.0
 11
6637.8016691596
 21
2877.1542595373
 31
0.0
  0
LINE
  5
51E
330
1F
100
AcDbEntity
  8
0
  6
Continuous
 62
     7
370
    25
100
AcDbLine
 10
5442.7016001136
 20
2840.7868431555
 30
0.0
 11
5462.901614228
 21
2840.7868431555
 31
0.0
  0
LINE
  5
51F
330
1F
100
AcDbEntity
  8
0
  6
Continuous
 62
     7
370
    25
100
AcDbLine
 10
6637.8016691596
 20
2826.5584991918
 30
0.0
 11
6637.8016691596
 21
2824.5376633154
 31
0.0
  0
LINE
  5
520
330
1F
100
AcDbEntity
  8
0
  6
Continuous
 62
     7
370
    25
100
AcDbLine
 10
6637.8016691596
 20
2902.5115059362
 30
0.0
 11
6637.8016691596
 21
2909.4842957006
 31
0.0
  0
LINE
  5
521
330
1F
100
AcDbEntity
  8
0
  6
Continuous
 62
     7
370
    25
100
AcDbLine
 10
6637.8016691596
 20
2902.5115059362
 30
0.0
 11
6602.7016859443
 21
2902.5115059362
 31
0.0
  0
LINE
  5
522
330
1F
100
AcDbEntity
  8
0
  6
Continuous
 62
     7
370
    25
100
AcDbLine
 10
5462.901614228
 20
2902.5115059362
 30
0.0
 11
5442.7016001136
 21
2902.5115059362
 31
0.0
  0
LINE
  5
523
330
1F
100
AcDbEntity
  8
0
  6
Continuous
 62
     7
370
    25
100
AcDbLine
 10
4302.9017668159
 20
2902.5115059362
 30
0.0
 11
4267.8017836005
 21
2902.5115059362
 31
0.0
  0
LINE
  5
524
330
1F
100
AcDbEntity
  8
0
  6
Continuous
 62
     7
370
    25
100
AcDbLine
 10
6637.8016691596
 20
2902.5115059362
 30
0.0
 11
6637.8016691596
 21
2901.1520431982
 31
0.0
  0
LINE
  5
525
330
1F
100
AcDbEntity
  8
0
  6
Continuous
 62
     7
370
    25
100
AcDbLine
 10
6637.8016691596
 20
2901.1520431982
 30
0.0
 11
6602.7016859443
 21
2901.1520431982
 31
0.0
  0
LINE
  5
526
330
1F
100
AcDbEntity
  8
0
  6
Continuous
 62
     7
370
    25
100
AcDbLine
 10
5462.901614228
 20
2901.1520431982
 30
0.0
 11
5442.7016001136
 21
2901.1520431982
 31
0.0
  0
LINE
  5
527
330
1F
100
AcDbEntity
  8
0
  6
Continuous
 62
     7
370
    25
100
AcDbLine
 10
4302.9017668159
 20
2901.1520431982
 30
0.0
 11
4267.8017836005
 21
2901.1520431982
 31
0.0
  0
LINE
  5
528
330
1F
100
AcDbEntity
  8
0
  6
Continuous
 62
     7
370
    25
100
AcDbLine
 10
6637.8016691596
 20
2909.4842957006
 30
0.0
 11
6637.8016691596
 21
2909.8123596655
 31
0.0
  0
LINE
  5
529
330
1F
100
AcDbEntity
  8
0
  6
Continuous
 62
     7
370
    25
100
AcDbLine
 10
6637.8016691596
 20
2901.1520431982
 30
0.0
 11
6637.8016691596
 21
2877.1542595373
 31
0.0
  0
LINE
  5
52A
330
1F
100
AcDbEntity
  8
0
  6
Continuous
 62
     7
370
    25
100
AcDbLine
 10
5442.7016001136
 20
2893.5631798254
 30
0.0
 11
5462.901614228
 21
2893.5631798254
 31
0.0
  0
LINE
  5
52B
330
1F
100
AcDbEntity
  8
0
  6
Continuous
 62
     7
370
    25
100
AcDbLine
 10
5462.901614228
 20
2881.7810104833
 30
0.0
 11
5442.7016001136
 21
2881.7810104833
 31
0.0
  0
LINE
  5
52C
330
1F
100
AcDbEntity
  8
0
  6
Continuous
 62
     7
370
    25
100
AcDbLine
 10
5462.901614228
 20
2882.4147270666
 30
0.0
 11
5442.7016001136
 21
2882.4147270666
 31
0.0
  0
LINE
  5
52D
330
1F
100
AcDbEntity
  8
0
  6
Continuous
 62
     7
370
    25
100
AcDbLine
 10
1897.8016894252
 20
4201.4273689733
 30
0.0
 11
1897.8016894252
 21
4206.0784386144
 31
0.0
  0
LINE
  5
52E
330
1F
100
AcDbEntity
  8
0
  6
Continuous
 62
     7
370
    25
100
AcDbLine
 10
1897.8016894252
 20
4162.4564217077
 30
0.0
 11
1897.8016894252
 21
4201.4273689733
 31
0.0
  0
LINE
  5
52F
330
1F
100
AcDbEntity
  8
0
  6
Continuous
 62
     7
370
    25
100
AcDbLine
 10
3072.7017145545
 20
4176.0505722509
 30
0.0
 11
3092.9016690642
 21
4176.0505722509
 31
0.0
  0
LINE
  5
530
330
1F
100
AcDbEntity
  8
0
  6
Continuous
 62
     7
370
    25
100
AcDbLine
 10
3092.9016690642
 20
4187.832741593
 30
0.0
 11
3072.7017145545
 21
4187.832741593
 31
0.0
  0
LINE
  5
531
330
1F
100
AcDbEntity
  8
0
  6
Continuous
 62
     7
370
    25
100
AcDbLine
 10
4267.8017836005
 20
4213.051705216
 30
0.0
 11
4232.7018003852
 21
4213.051705216
 31
0.0
  0
LINE
  5
532
330
1F
100
AcDbEntity
  8
0
  6
Continuous
 62
     7
370
    25
100
AcDbLine
 10
3092.9016690642
 20
4213.051705216
 30
0.0
 11
3072.7017145545
 21
4213.051705216
 31
0.0
  0
LINE
  5
533
330
1F
100
AcDbEntity
  8
0
  6
Continuous
 62
     7
370
    25
100
AcDbLine
 10
1932.9016875417
 20
4213.051705216
 30
0.0
 11
1897.8016894252
 21
4213.051705216
 31
0.0
  0
LINE
  5
534
330
1F
100
AcDbEntity
  8
0
  6
Continuous
 62
     7
370
    25
100
AcDbLine
 10
1897.8016894252
 20
4206.0784386144
 30
0.0
 11
1897.8016894252
 21
4213.051705216
 31
0.0
  0
LINE
  5
535
330
1F
100
AcDbEntity
  8
0
  6
Continuous
 62
     7
370
    25
100
AcDbLine
 10
3072.7017145545
 20
4176.6847656713
 30
0.0
 11
3092.9016690642
 21
4176.6847656713
 31
0.0
  0
LINE
  5
536
330
1F
100
AcDbEntity
  8
0
  6
Continuous
 62
     7
370
    25
100
AcDbLine
 10
1897.8016894252
 20
4160.4355858312
 30
0.0
 11
1897.8016894252
 21
4162.4564217077
 31
0.0
  0
LINE
  5
537
330
1F
100
AcDbEntity
  8
0
  6
Continuous
 62
     7
370
    25
100
AcDbLine
 10
4267.8017836005
 20
4238.4089516149
 30
0.0
 11
4232.7018003852
 21
4238.4089516149
 31
0.0
  0
LINE
  5
538
330
1F
100
AcDbEntity
  8
0
  6
Continuous
 62
     7
370
    25
100
AcDbLine
 10
3092.9016690642
 20
4238.4089516149
 30
0.0
 11
3072.7017145545
 21
4238.4089516149
 31
0.0
  0
LINE
  5
539
330
1F
100
AcDbEntity
  8
0
  6
Continuous
 62
     7
370
    25
100
AcDbLine
 10
1932.9016875417
 20
4238.4089516149
 30
0.0
 11
1897.8016894252
 21
4238.4089516149
 31
0.0
  0
LINE
  5
53A
330
1F
100
AcDbEntity
  8
0
  6
Continuous
 62
     7
370
    25
100
AcDbLine
 10
1897.8016894252
 20
4238.4089516149
 30
0.0
 11
1897.8016894252
 21
4245.3822182165
 31
0.0
  0
LINE
  5
53B
330
1F
100
AcDbEntity
  8
0
  6
Continuous
 62
     7
370
    25
100
AcDbLine
 10
4267.8017836005
 20
4237.0494888769
 30
0.0
 11
4232.7018003852
 21
4237.0494888769
 31
0.0
  0
LINE
  5
53C
330
1F
100
AcDbEntity
  8
0
  6
Continuous
 62
     7
370
    25
100
AcDbLine
 10
3092.9016690642
 20
4237.0494888769
 30
0.0
 11
3072.7017145545
 21
4237.0494888769
 31
0.0
  0
LINE
  5
53D
330
1F
100
AcDbEntity
  8
0
  6
Continuous
 62
     7
370
    25
100
AcDbLine
 10
1932.9016875417
 20
4237.0494888769
 30
0.0
 11
1897.8016894252
 21
4237.0494888769
 31
0.0
  0
LINE
  5
53E
330
1F
100
AcDbEntity
  8
0
  6
Continuous
 62
     7
370
    25
100
AcDbLine
 10
1897.8016894252
 20
4238.4089516149
 30
0.0
 11
1897.8016894252
 21
4237.0494888769
 31
0.0
  0
LINE
  5
53F
330
1F
100
AcDbEntity
  8
0
  6
Continuous
 62
     7
370
    25
100
AcDbLine
 10
1897.8016894252
 20
4245.3822182165
 30
0.0
 11
1897.8016894252
 21
4245.7102821813
 31
0.0
  0
LINE
  5
540
330
1F
100
AcDbEntity
  8
0
  6
Continuous
 62
     7
370
    25
100
AcDbLine
 10
1897.8016894252
 20
4237.0494888769
 30
0.0
 11
1897.8016894252
 21
4213.051705216
 31
0.0
  0
LINE
  5
541
330
1F
100
AcDbEntity
  8
0
  6
Continuous
 62
     7
370
    25
100
AcDbLine
 10
3072.7017145545
 20
4229.4606255041
 30
0.0
 11
3092.9016690642
 21
4229.4606255041
 31
0.0
  0
LINE
  5
542
330
1F
100
AcDbEntity
  8
0
  6
Continuous
 62
     7
370
    25
100
AcDbLine
 10
3092.9016690642
 20
4217.6789329992
 30
0.0
 11
3072.7017145545
 21
4217.6789329992
 31
0.0
  0
LINE
  5
543
330
1F
100
AcDbEntity
  8
0
  6
Continuous
 62
     7
370
    25
100
AcDbLine
 10
3092.9016690642
 20
4218.3126495825
 30
0.0
 11
3072.7017145545
 21
4218.3126495825
 31
0.0
  0
LINE
  5
544
330
1F
100
AcDbEntity
  8
0
  6
Continuous
 62
     8
370
    25
100
AcDbLine
 10
4267.8017836005
 20
2870.1809929357
 30
0.0
 11
4232.7018003852
 21
2870.1809929357
 31
0.0
  0
LINE
  5
545
330
1F
100
AcDbEntity
  8
0
  6
Continuous
 62
     8
370
    25
100
AcDbLine
 10
3092.9016690642
 20
2870.1809929357
 30
0.0
 11
3072.7017145545
 21
2870.1809929357
 31
0.0
  0
LINE
  5
546
330
1F
100
AcDbEntity
  8
0
  6
Continuous
 62
     8
370
    25
100
AcDbLine
 10
1932.9016875417
 20
2870.1809929357
 30
0.0
 11
1897.8016894252
 21
2870.1809929357
 31
0.0
  0
LINE
  5
547
330
1F
100
AcDbEntity
  8
0
  6
Continuous
 62
     8
370
    25
100
AcDbLine
 10
4267.8017836005
 20
2865.5299232946
 30
0.0
 11
4232.7018003852
 21
2865.5299232946
 31
0.0
  0
LINE
  5
548
330
1F
100
AcDbEntity
  8
0
  6
Continuous
 62
     8
370
    25
100
AcDbLine
 10
3092.9016690642
 20
2865.5299232946
 30
0.0
 11
3072.7017145545
 21
2865.5299232946
 31
0.0
  0
LINE
  5
549
330
1F
100
AcDbEntity
  8
0
  6
Continuous
 62
     8
370
    25
100
AcDbLine
 10
1932.9016875417
 20
2865.5299232946
 30
0.0
 11
1897.8016894252
 21
2865.5299232946
 31
0.0
  0
LINE
  5
54A
330
1F
100
AcDbEntity
  8
0
  6
Continuous
 62
     8
370
    25
100
AcDbLine
 10
3092.9016690642
 20
2826.5584991918
 30
0.0
 11
3072.7017145545
 21
2826.5584991918
 31
0.0
  0
LINE
  5
54B
330
1F
100
AcDbEntity
  8
0
  6
Continuous
 62
     8
370
    25
100
AcDbLine
 10
1932.9016875417
 20
2826.5584991918
 30
0.0
 11
1897.8016894252
 21
2826.5584991918
 31
0.0
  0
LINE
  5
54C
330
1F
100
AcDbEntity
  8
0
  6
Continuous
 62
     8
370
    25
100
AcDbLine
 10
4267.8017836005
 20
2826.5584991918
 30
0.0
 11
4232.7018003852
 21
2826.5584991918
 31
0.0
  0
LINE
  5
54D
330
1F
100
AcDbEntity
  8
0
  6
Continuous
 62
     8
370
    25
100
AcDbLine
 10
4267.8017836005
 20
2909.4842957006
 30
0.0
 11
4232.7018003852
 21
2909.4842957006
 31
0.0
  0
LINE
  5
54E
330
1F
100
AcDbEntity
  8
0
  6
Continuous
 62
     8
370
    25
100
AcDbLine
 10
3092.9016690642
 20
2909.4842957006
 30
0.0
 11
3072.7017145545
 21
2909.4842957006
 31
0.0
  0
LINE
  5
54F
330
1F
100
AcDbEntity
  8
0
  6
Continuous
 62
     8
370
    25
100
AcDbLine
 10
1932.9016875417
 20
2909.4842957006
 30
0.0
 11
1897.8016894252
 21
2909.4842957006
 31
0.0
  0
LINE
  5
550
330
1F
100
AcDbEntity
  8
0
  6
Continuous
 62
     8
370
    25
100
AcDbLine
 10
6637.8016691596
 20
4206.0784386144
 30
0.0
 11
6602.7016859443
 21
4206.0784386144
 31
0.0
  0
LINE
  5
551
330
1F
100
AcDbEntity
  8
0
  6
Continuous
 62
     8
370
    25
100
AcDbLine
 10
5462.901614228
 20
4206.0784386144
 30
0.0
 11
5442.7016001136
 21
4206.0784386144
 31
0.0
  0
LINE
  5
552
330
1F
100
AcDbEntity
  8
0
  6
Continuous
 62
     8
370
    25
100
AcDbLine
 10
4302.9017668159
 20
4206.0784386144
 30
0.0
 11
4267.8017836005
 21
4206.0784386144
 31
0.0
  0
LINE
  5
553
330
1F
100
AcDbEntity
  8
0
  6
Continuous
 62
     8
370
    25
100
AcDbLine
 10
6637.8016691596
 20
4201.4273689733
 30
0.0
 11
6602.7016859443
 21
4201.4273689733
 31
0.0
  0
LINE
  5
554
330
1F
100
AcDbEntity
  8
0
  6
Continuous
 62
     8
370
    25
100
AcDbLine
 10
5462.901614228
 20
4201.4273689733
 30
0.0
 11
5442.7016001136
 21
4201.4273689733
 31
0.0
  0
LINE
  5
555
330
1F
100
AcDbEntity
  8
0
  6
Continuous
 62
     8
370
    25
100
AcDbLine
 10
4302.9017668159
 20
4201.4273689733
 30
0.0
 11
4267.8017836005
 21
4201.4273689733
 31
0.0
  0
LINE
  5
556
330
1F
100
AcDbEntity
  8
0
  6
Continuous
 62
     8
370
    25
100
AcDbLine
 10
5462.901614228
 20
4162.4564217077
 30
0.0
 11
5442.7016001136
 21
4162.4564217077
 31
0.0
  0
LINE
  5
557
330
1F
100
AcDbEntity
  8
0
  6
Continuous
 62
     8
370
    25
100
AcDbLine
 10
4302.9017668159
 20
4162.4564217077
 30
0.0
 11
4267.8017836005
 21
4162.4564217077
 31
0.0
  0
LINE
  5
558
330
1F
100
AcDbEntity
  8
0
  6
Continuous
 62
     8
370
    25
100
AcDbLine
 10
6637.8016691596
 20
4162.4564217077
 30
0.0
 11
6602.7016859443
 21
4162.4564217077
 31
0.0
  0
LINE
  5
559
330
1F
100
AcDbEntity
  8
0
  6
Continuous
 62
     8
370
    25
100
AcDbLine
 10
6637.8016691596
 20
4245.3822182165
 30
0.0
 11
6602.7016859443
 21
4245.3822182165
 31
0.0
  0
LINE
  5
55A
330
1F
100
AcDbEntity
  8
0
  6
Continuous
 62
     8
370
    25
100
AcDbLine
 10
5462.901614228
 20
4245.3822182165
 30
0.0
 11
5442.7016001136
 21
4245.3822182165
 31
0.0
  0
LINE
  5
55B
330
1F
100
AcDbEntity
  8
0
  6
Continuous
 62
     8
370
    25
100
AcDbLine
 10
4302.9017668159
 20
4245.3822182165
 30
0.0
 11
4267.8017836005
 21
4245.3822182165
 31
0.0
  0
LINE
  5
55C
330
1F
100
AcDbEntity
  8
0
  6
Continuous
 62
     8
370
    25
100
AcDbLine
 10
6637.8016691596
 20
2870.1809929357
 30
0.0
 11
6602.7016859443
 21
2870.1809929357
 31
0.0
  0
LINE
  5
55D
330
1F
100
AcDbEntity
  8
0
  6
Continuous
 62
     8
370
    25
100
AcDbLine
 10
5462.901614228
 20
2870.1809929357
 30
0.0
 11
5442.7016001136
 21
2870.1809929357
 31
0.0
  0
LINE
  5
55E
330
1F
100
AcDbEntity
  8
0
  6
Continuous
 62
     8
370
    25
100
AcDbLine
 10
4302.9017668159
 20
2870.1809929357
 30
0.0
 11
4267.8017836005
 21
2870.1809929357
 31
0.0
  0
LINE
  5
55F
330
1F
100
AcDbEntity
  8
0
  6
Continuous
 62
     8
370
    25
100
AcDbLine
 10
6637.8016691596
 20
2865.5299232946
 30
0.0
 11
6602.7016859443
 21
2865.5299232946
 31
0.0
  0
LINE
  5
560
330
1F
100
AcDbEntity
  8
0
  6
Continuous
 62
     8
370
    25
100
AcDbLine
 10
5462.901614228
 20
2865.5299232946
 30
0.0
 11
5442.7016001136
 21
2865.5299232946
 31
0.0
  0
LINE
  5
561
330
1F
100
AcDbEntity
  8
0
  6
Continuous
 62
     8
370
    25
100
AcDbLine
 10
4302.9017668159
 20
2865.5299232946
 30
0.0
 11
4267.8017836005
 21
2865.5299232946
 31
0.0
  0
LINE
  5
562
330
1F
100
AcDbEntity
  8
0
  6
Continuous
 62
     8
370
    25
100
AcDbLine
 10
5462.901614228
 20
2826.5584991918
 30
0.0
 11
5442.7016001136
 21
2826.5584991918
 31
0.0
  0
LINE
  5
563
330
1F
100
AcDbEntity
  8
0
  6
Continuous
 62
     8
370
    25
100
AcDbLine
 10
4302.9017668159
 20
2826.5584991918
 30
0.0
 11
4267.8017836005
 21
2826.5584991918
 31
0.0
  0
LINE
  5
564
330
1F
100
AcDbEntity
  8
0
  6
Continuous
 62
     8
370
    25
100
AcDbLine
 10
6637.8016691596
 20
2826.5584991918
 30
0.0
 11
6602.7016859443
 21
2826.5584991918
 31
0.0
  0
LINE
  5
565
330
1F
100
AcDbEntity
  8
0
  6
Continuous
 62
     8
370
    25
100
AcDbLine
 10
6637.8016691596
 20
2909.4842957006
 30
0.0
 11
6602.7016859443
 21
2909.4842957006
 31
0.0
  0
LINE
  5
566
330
1F
100
AcDbEntity
  8
0
  6
Continuous
 62
     8
370
    25
100
AcDbLine
 10
5462.901614228
 20
2909.4842957006
 30
0.0
 11
5442.7016001136
 21
2909.4842957006
 31
0.0
  0
LINE
  5
567
330
1F
100
AcDbEntity
  8
0
  6
Continuous
 62
     8
370
    25
100
AcDbLine
 10
4302.9017668159
 20
2909.4842957006
 30
0.0
 11
4267.8017836005
 21
2909.4842957006
 31
0.0
  0
LINE
  5
568
330
1F
100
AcDbEntity
  8
0
  6
Continuous
 62
     8
370
    25
100
AcDbLine
 10
4267.8017836005
 20
4206.0784386144
 30
0.0
 11
4232.7018003852
 21
4206.0784386144
 31
0.0
  0
LINE
  5
569
330
1F
100
AcDbEntity
  8
0
  6
Continuous
 62
     8
370
    25
100
AcDbLine
 10
3092.9016690642
 20
4206.0784386144
 30
0.0
 11
3072.7017145545
 21
4206.0784386144
 31
0.0
  0
LINE
  5
56A
330
1F
100
AcDbEntity
  8
0
  6
Continuous
 62
     8
370
    25
100
AcDbLine
 10
1932.9016875417
 20
4206.0784386144
 30
0.0
 11
1897.8016894252
 21
4206.0784386144
 31
0.0
  0
LINE
  5
56B
330
1F
100
AcDbEntity
  8
0
  6
Continuous
 62
     8
370
    25
100
AcDbLine
 10
4267.8017836005
 20
4201.4273689733
 30
0.0
 11
4232.7018003852
 21
4201.4273689733
 31
0.0
  0
LINE
  5
56C
330
1F
100
AcDbEntity
  8
0
  6
Continuous
 62
     8
370
    25
100
AcDbLine
 10
3092.9016690642
 20
4201.4273689733
 30
0.0
 11
3072.7017145545
 21
4201.4273689733
 31
0.0
  0
LINE
  5
56D
330
1F
100
AcDbEntity
  8
0
  6
Continuous
 62
     8
370
    25
100
AcDbLine
 10
1932.9016875417
 20
4201.4273689733
 30
0.0
 11
1897.8016894252
 21
4201.4273689733
 31
0.0
  0
LINE
  5
56E
330
1F
100
AcDbEntity
  8
0
  6
Continuous
 62
     8
370
    25
100
AcDbLine
 10
3092.9016690642
 20
4162.4564217077
 30
0.0
 11
3072.7017145545
 21
4162.4564217077
 31
0.0
  0
LINE
  5
56F
330
1F
100
AcDbEntity
  8
0
  6
Continuous
 62
     8
370
    25
100
AcDbLine
 10
1932.9016875417
 20
4162.4564217077
 30
0.0
 11
1897.8016894252
 21
4162.4564217077
 31
0.0
  0
LINE
  5
570
330
1F
100
AcDbEntity
  8
0
  6
Continuous
 62
     8
370
    25
100
AcDbLine
 10
4267.8017836005
 20
4162.4564217077
 30
0.0
 11
4232.7018003852
 21
4162.4564217077
 31
0.0
  0
LINE
  5
571
330
1F
100
AcDbEntity
  8
0
  6
Continuous
 62
     8
370
    25
100
AcDbLine
 10
4267.8017836005
 20
4245.3822182165
 30
0.0
 11
4232.7018003852
 21
4245.3822182165
 31
0.0
  0
LINE
  5
572
330
1F
100
AcDbEntity
  8
0
  6
Continuous
 62
     8
370
    25
100
AcDbLine
 10
3092.9016690642
 20
4245.3822182165
 30
0.0
 11
3072.7017145545
 21
4245.3822182165
 31
0.0
  0
LINE
  5
573
330
1F
100
AcDbEntity
  8
0
  6
Continuous
 62
     8
370
    25
100
AcDbLine
 10
1932.9016875417
 20
4245.3822182165
 30
0.0
 11
1897.8016894252
 21
4245.3822182165
 31
0.0
  0
DIMENSION
  5
574
330
1F
100
AcDbEntity
  8
0
  6
Continuous
 62
     7
370
    18
100
AcDbDimension
  2
_D_11
 10
6637.801688233
 20
4986.1550840921
 30
0.0
 11
4211.9450296098
 21
4986.1550840918
 31
0.0
 70
   160
  1
<>
 71
     2
 42
-1.0
  3
SLDDIMSTYLE0
100
AcDbAlignedDimension
 13
1897.8016882331
 23
4201.427428495
 33
0.0
 14
6637.8016882331
 24
4201.427428495
 34
0.0
 50
0.0
100
AcDbRotatedDimension
  0
ENDSEC
  0
SECTION
  2
OBJECTS
  0
DICTIONARY
  5
C
330
0
100
AcDbDictionary
281
     1
  3
ACAD_GROUP
350
D
  3
ACAD_LAYOUT
350
1A
  3
ACAD_MLINESTYLE
350
17
  3
ACAD_PLOTSETTINGS
350
19
  3
ACAD_PLOTSTYLENAME
350
E
  3
ACAD_SCALELIST
350
47
  0
DICTIONARY
  5
D
102
{ACAD_REACTORS
330
C
102
}
330
C
100
AcDbDictionary
281
     1
  0
DICTIONARY
  5
1A
102
{ACAD_REACTORS
330
C
102
}
330
C
100
AcDbDictionary
281
     1
  3
Layout1
350
1E
  3
Layout2
350
26
  3
Model
350
22
  0
DICTIONARY
  5
17
102
{ACAD_REACTORS
330
C
102
}
330
C
100
AcDbDictionary
281
     1
  3
Standard
350
18
  0
DICTIONARY
  5
19
102
{ACAD_REACTORS
330
C
102
}
330
C
100
AcDbDictionary
281
     1
  0
ACDBDICTIONARYWDFLT
  5
E
102
{ACAD_REACTORS
330
C
102
}
330
C
100
AcDbDictionary
281
     1
  3
Normal
350
F
100
AcDbDictionaryWithDefault
340
F
  0
DICTIONARY
  5
47
102
{ACAD_REACTORS
330
C
102
}
330
C
100
AcDbDictionary
281
     1
  3
A0
350
48
  3
A1
350
49
  3
A2
350
4A
  3
A3
350
4B
  3
A4
350
4C
  3
A5
350
4D
  3
A6
350
4E
  3
A7
350
4F
  3
A8
350
50
  3
A9
350
51
  3
B0
350
52
  3
B1
350
53
  3
B2
350
54
  3
B3
350
55
  3
B4
350
56
  3
B5
350
57
  3
B6
350
58
  3
B7
350
59
  3
B8
350
5A
  3
B9
350
5B
  3
C0
350
5C
  3
C1
350
5D
  3
C2
350
5E
  3
C3
350
5F
  3
C4
350
60
  3
C5
350
61
  3
C6
350
62
  3
C7
350
63
  3
C8
350
64
  3
C9
350
65
  3
D0
350
66
  3
D1
350
67
  3
D2
350
68
  0
LAYOUT
  5
1E
102
{ACAD_REACTORS
330
1A
102
}
330
1A
100
AcDbPlotSettings
  1

  2
none_device
  4

  6

 40
0.0
 41
0.0
 42
0.0
 43
0.0
 44
0.0
 45
0.0
 46
0.0
 47
0.0
 48
0.0
 49
0.0
140
0.0
141
0.0
142
1.0
143
1.0
 70
   688
 72
     1
 73
     0
 74
     5
  7

 75
    16
147
1.0
148
0.0
149
0.0
100
AcDbLayout
  1
Layout1
 70
     1
 71
     1
 10
0.0
 20
0.0
 11
420.0
 21
297.0
 12
0.0
 22
0.0
 32
0.0
 14
1.0000000000E+20
 24
1.0000000000E+20
 34
1.0000000000E+20
 15
-1.0000000000E+20
 25
-1.0000000000E+20
 35
-1.0000000000E+20
146
0.0
 13
0.0
 23
0.0
 33
0.0
 16
1.0
 26
0.0
 36
0.0
 17
0.0
 27
1.0
 37
0.0
 76
     0
330
1B
  0
LAYOUT
  5
26
102
{ACAD_REACTORS
330
1A
102
}
330
1A
100
AcDbPlotSettings
  1

  2
none_device
  4

  6

 40
0.0
 41
0.0
 42
0.0
 43
0.0
 44
0.0
 45
0.0
 46
0.0
 47
0.0
 48
0.0
 49
0.0
140
0.0
141
0.0
142
1.0
143
1.0
 70
   688
 72
     1
 73
     0
 74
     5
  7

 75
    16
147
1.0
148
0.0
149
0.0
100
AcDbLayout
  1
Layout2
 70
     1
 71
     2
 10
0.0
 20
0.0
 11
0.0
 21
0.0
 12
0.0
 22
0.0
 32
0.0
 14
0.0
 24
0.0
 34
0.0
 15
0.0
 25
0.0
 35
0.0
146
0.0
 13
0.0
 23
0.0
 33
0.0
 16
1.0
 26
0.0
 36
0.0
 17
0.0
 27
1.0
 37
0.0
 76
     0
330
23
  0
LAYOUT
  5
22
102
{ACAD_REACTORS
330
1A
102
}
330
1A
100
AcDbPlotSettings
  1

  2
none_device
  4
Letter_(8.50_x_11.00_Inches)
  6

 40
6.35
 41
6.35
 42
6.35000508
 43
6.35000508
 44
215.9
 45
279.4
 46
0.0
 47
0.0
 48
0.0
 49
0.0
140
0.0
141
0.0
142
1.0
143
1.0
 70
  1712
 72
     1
 73
     0
 74
     0
  7

 75
     0
147
1.0
148
0.0
149
0.0
100
AcDbLayout
  1
Model
 70
     1
 71
     0
 10
0.0
 20
0.0
 11
14850.0
 21
10500.0
 12
0.0
 22
0.0
 32
0.0
 14
0.0
 24
0.0
 34
0.0
 15
14850.0
 25
10500.0
 35
0.0
146
0.0
 13
0.0
 23
0.0
 33
0.0
 16
1.0
 26
0.0
 36
0.0
 17
0.0
 27
1.0
 37
0.0
 76
     0
330
1F
331
29
  0
MLINESTYLE
  5
18
102
{ACAD_REACTORS
330
17
102
}
330
17
100
AcDbMlineStyle
  2
Standard
 70
     0
  3

 62
   256
 51
90.0
 52
90.0
 71
     2
 49
0.5
 62
   256
  6
BYLAYER
 49
-0.5
 62
   256
  6
BYLAYER
  0
ACDBPLACEHOLDER
  5
F
102
{ACAD_REACTORS
330
E
102
}
330
E
  0
SCALE
  5
48
102
{ACAD_REACTORS
330
47
102
}
330
47
100
AcDbScale
 70
     0
300
1:1
140
1.0
141
1.0
290
     1
  0
SCALE
  5
49
102
{ACAD_REACTORS
330
47
102
}
330
47
100
AcDbScale
 70
     0
300
1:2
140
1.0
141
2.0
290
     0
  0
SCALE
  5
4A
102
{ACAD_REACTORS
330
47
102
}
330
47
100
AcDbScale
 70
     0
300
1:4
140
1.0
141
4.0
290
     0
  0
SCALE
  5
4B
102
{ACAD_REACTORS
330
47
102
}
330
47
100
AcDbScale
 70
     0
300
1:5
140
1.0
141
5.0
290
     0
  0
SCALE
  5
4C
102
{ACAD_REACTORS
330
47
102
}
330
47
100
AcDbScale
 70
     0
300
1:8
140
1.0
141
8.0
290
     0
  0
SCALE
  5
4D
102
{ACAD_REACTORS
330
47
102
}
330
47
100
AcDbScale
 70
     0
300
1:10
140
1.0
141
10.0
290
     0
  0
SCALE
  5
4E
102
{ACAD_REACTORS
330
47
102
}
330
47
100
AcDbScale
 70
     0
300
1:16
140
1.0
141
16.0
290
     0
  0
SCALE
  5
4F
102
{ACAD_REACTORS
330
47
102
}
330
47
100
AcDbScale
 70
     0
300
1:20
140
1.0
141
20.0
290
     0
  0
SCALE
  5
50
102
{ACAD_REACTORS
330
47
102
}
330
47
100
AcDbScale
 70
     0
300
1:30
140
1.0
141
30.0
290
     0
  0
SCALE
  5
51
102
{ACAD_REACTORS
330
47
102
}
330
47
100
AcDbScale
 70
     0
300
1:40
140
1.0
141
40.0
290
     0
  0
SCALE
  5
52
102
{ACAD_REACTORS
330
47
102
}
330
47
100
AcDbScale
 70
     0
300
1:50
140
1.0
141
50.0
290
     0
  0
SCALE
  5
53
102
{ACAD_REACTORS
330
47
102
}
330
47
100
AcDbScale
 70
     0
300
1:100
140
1.0
141
100.0
290
     0
  0
SCALE
  5
54
102
{ACAD_REACTORS
330
47
102
}
330
47
100
AcDbScale
 70
     0
300
2:1
140
2.0
141
1.0
290
     0
  0
SCALE
  5
55
102
{ACAD_REACTORS
330
47
102
}
330
47
100
AcDbScale
 70
     0
300
4:1
140
4.0
141
1.0
290
     0
  0
SCALE
  5
56
102
{ACAD_REACTORS
330
47
102
}
330
47
100
AcDbScale
 70
     0
300
8:1
140
8.0
141
1.0
290
     0
  0
SCALE
  5
57
102
{ACAD_REACTORS
330
47
102
}
330
47
100
AcDbScale
 70
     0
300
10:1
140
10.0
141
1.0
290
     0
  0
SCALE
  5
58
102
{ACAD_REACTORS
330
47
102
}
330
47
100
AcDbScale
 70
     0
300
100:1
140
100.0
141
1.0
290
     0
  0
SCALE
  5
59
102
{ACAD_REACTORS
330
47
102
}
330
47
100
AcDbScale
 70
     0
300
1/128" = 1'-0"
140
0.0078125
141
12.0
290
     0
  0
SCALE
  5
5A
102
{ACAD_REACTORS
330
47
102
}
330
47
100
AcDbScale
 70
     0
300
1/64" = 1'-0"
140
0.015625
141
12.0
290
     0
  0
SCALE
  5
5B
102
{ACAD_REACTORS
330
47
102
}
330
47
100
AcDbScale
 70
     0
300
1/32" = 1'-0"
140
0.03125
141
12.0
290
     0
  0
SCALE
  5
5C
102
{ACAD_REACTORS
330
47
102
}
330
47
100
AcDbScale
 70
     0
300
1/16" = 1'-0"
140
0.0625
141
12.0
290
     0
  0
SCALE
  5
5D
102
{ACAD_REACTORS
330
47
102
}
330
47
100
AcDbScale
 70
     0
300
3/32" = 1'-0"
140
0.09375
141
12.0
290
     0
  0
SCALE
  5
5E
102
{ACAD_REACTORS
330
47
102
}
330
47
100
AcDbScale
 70
     0
300
1/8" = 1'-0"
140
0.125
141
12.0
290
     0
  0
SCALE
  5
5F
102
{ACAD_REACTORS
330
47
102
}
330
47
100
AcDbScale
 70
     0
300
3/16" = 1'-0"
140
0.1875
141
12.0
290
     0
  0
SCALE
  5
60
102
{ACAD_REACTORS
330
47
102
}
330
47
100
AcDbScale
 70
     0
300
1/4" = 1'-0"
140
0.25
141
12.0
290
     0
  0
SCALE
  5
61
102
{ACAD_REACTORS
330
47
102
}
330
47
100
AcDbScale
 70
     0
300
3/8" = 1'-0"
140
0.375
141
12.0
290
     0
  0
SCALE
  5
62
102
{ACAD_REACTORS
330
47
102
}
330
47
100
AcDbScale
 70
     0
300
1/2" = 1'-0"
140
0.5
141
12.0
290
     0
  0
SCALE
  5
63
102
{ACAD_REACTORS
330
47
102
}
330
47
100
AcDbScale
 70
     0
300
3/4" = 1'-0"
140
0.75
141
12.0
290
     0
  0
SCALE
  5
64
102
{ACAD_REACTORS
330
47
102
}
330
47
100
AcDbScale
 70
     0
300
1" = 1'-0"
140
1.0
141
12.0
290
     0
  0
SCALE
  5
65
102
{ACAD_REACTORS
330
47
102
}
330
47
100
AcDbScale
 70
     0
300
1-1/2" = 1'-0"
140
1.5
141
12.0
290
     0
  0
SCALE
  5
66
102
{ACAD_REACTORS
330
47
102
}
330
47
100
AcDbScale
 70
     0
300
3" = 1'-0"
140
3.0
141
12.0
290
     0
  0
SCALE
  5
67
102
{ACAD_REACTORS
330
47
102
}
330
47
100
AcDbScale
 70
     0
300
6" = 1'-0"
140
6.0
141
12.0
290
     0
  0
SCALE
  5
68
102
{ACAD_REACTORS
330
47
102
}
330
47
100
AcDbScale
 70
     0
300
1'-0" = 1'-0"
140
12.0
141
12.0
290
     0
  0
ENDSEC
  0
EOF
