  0
SECTION
  2
HEADER
  9
$ACADVER
  1
AC1015
  9
$ACADMAINTVER
 70
     6
  9
$DWGCODEPAGE
  3
ANSI_1250
  9
$INSBASE
 10
0.0
 20
0.0
 30
0.0
  9
$EXTMIN
 10
0.0
 20
0.0
 30
0.0
  9
$EXTMAX
 10
14850.0
 20
10500.0
 30
0.0
  9
$LIMMIN
 10
0.0
 20
0.0
  9
$LIMMAX
 10
14850.0
 20
10500.0
  9
$ORTHOMODE
 70
     0
  9
$REGENMODE
 70
     1
  9
$FILLMODE
 70
     1
  9
$QTEXTMODE
 70
     0
  9
$MIRRTEXT
 70
     1
  9
$LTSCALE
 40
25.0
  9
$ATTMODE
 70
     1
  9
$TEXTSIZE
 40
112.5
  9
$TRACEWID
 40
1.0
  9
$TEXTSTYLE
  7
Standard
  9
$CLAYER
  8
0
  9
$CELTYPE
  6
ByLayer
  9
$CECOLOR
 62
   256
  9
$CELTSCALE
 40
1.0
  9
$DISPSILH
 70
     0
  9
$DIMSCALE
 40
1.0
  9
$DIMASZ
 40
82.55
  9
$DIMEXO
 40
25.0
  9
$DIMDLI
 40
3.75
  9
$DIMRND
 40
0.0
  9
$DIMDLE
 40
0.0
  9
$DIMEXE
 40
25.0
  9
$DIMTP
 40
0.0
  9
$DIMTM
 40
0.0
  9
$DIMTXT
 40
112.5
  9
$DIMCEN
 40
2.5
  9
$DIMTSZ
 40
0.0
  9
$DIMTOL
 70
     0
  9
$DIMLIM
 70
     0
  9
$DIMTIH
 70
     1
  9
$DIMTOH
 70
     1
  9
$DIMSE1
 70
     0
  9
$DIMSE2
 70
     0
  9
$DIMTAD
 70
     1
  9
$DIMZIN
 70
     1
  9
$DIMBLK
  1

  9
$DIMASO
 70
     1
  9
$DIMSHO
 70
     1
  9
$DIMPOST
  1

  9
$DIMAPOST
  1

  9
$DIMALT
 70
     0
  9
$DIMALTD
 70
     3
  9
$DIMALTF
 40
0.0393700787
  9
$DIMLFAC
 40
1.0
  9
$DIMTOFL
 70
     1
  9
$DIMTVP
 40
0.0
  9
$DIMTIX
 70
     0
  9
$DIMSOXD
 70
     0
  9
$DIMSAH
 70
     0
  9
$DIMBLK1
  1

  9
$DIMBLK2
  1

  9
$DIMSTYLE
  2
ISO-25
  9
$DIMCLRD
 70
     0
  9
$DIMCLRE
 70
     0
  9
$DIMCLRT
 70
     0
  9
$DIMTFAC
 40
1.0
  9
$DIMGAP
 40
38.1
  9
$DIMJUST
 70
     0
  9
$DIMSD1
 70
     0
  9
$DIMSD2
 70
     0
  9
$DIMTOLJ
 70
     0
  9
$DIMTZIN
 70
     1
  9
$DIMALTZ
 70
     0
  9
$DIMALTTZ
 70
     0
  9
$DIMUPT
 70
     0
  9
$DIMDEC
 70
     0
  9
$DIMTDEC
 70
     0
  9
$DIMALTU
 70
     2
  9
$DIMALTTD
 70
     3
  9
$DIMTXSTY
  7
Standard
  9
$DIMAUNIT
 70
     0
  9
$DIMADEC
 70
     2
  9
$DIMALTRND
 40
0.0
  9
$DIMAZIN
 70
     0
  9
$DIMDSEP
 70
    44
  9
$DIMATFIT
 70
     3
  9
$DIMFRAC
 70
     0
  9
$DIMLDRBLK
  1

  9
$DIMLUNIT
 70
     2
  9
$DIMLWD
 70
    -2
  9
$DIMLWE
 70
    -2
  9
$DIMTMOVE
 70
     0
  9
$LUNITS
 70
     2
  9
$LUPREC
 70
     2
  9
$SKETCHINC
 40
1.0
  9
$FILLETRAD
 40
10.0
  9
$AUNITS
 70
     0
  9
$AUPREC
 70
     2
  9
$MENU
  1
.
  9
$ELEVATION
 40
0.0
  9
$PELEVATION
 40
0.0
  9
$THICKNESS
 40
0.0
  9
$LIMCHECK
 70
     0
  9
$CHAMFERA
 40
0.0
  9
$CHAMFERB
 40
0.0
  9
$CHAMFERC
 40
0.0
  9
$CHAMFERD
 40
0.0
  9
$SKPOLY
 70
     0
  9
$TDCREATE
 40
2460695.891011921
  9
$TDUCREATE
 40
2460695.849345255
  9
$TDUPDATE
 40
2460695.891013056
  9
$TDUUPDATE
 40
2460695.849346389
  9
$TDINDWG
 40
0.0000000116
  9
$TDUSRTIMER
 40
0.0000000116
  9
$USRTIMER
 70
     1
  9
$ANGBASE
 50
0.0
  9
$ANGDIR
 70
     0
  9
$PDMODE
 70
     0
  9
$PDSIZE
 40
-1.0
  9
$PLINEWID
 40
0.0
  9
$SPLFRAME
 70
     0
  9
$SPLINETYPE
 70
     6
  9
$SPLINESEGS
 70
     8
  9
$HANDSEED
  5
3CF
  9
$SURFTAB1
 70
     6
  9
$SURFTAB2
 70
     6
  9
$SURFTYPE
 70
     6
  9
$SURFU
 70
     6
  9
$SURFV
 70
     6
  9
$UCSBASE
  2

  9
$UCSNAME
  2

  9
$UCSORG
 10
0.0
 20
0.0
 30
0.0
  9
$UCSXDIR
 10
1.0
 20
0.0
 30
0.0
  9
$UCSYDIR
 10
0.0
 20
1.0
 30
0.0
  9
$UCSORTHOREF
  2

  9
$UCSORTHOVIEW
 70
     0
  9
$UCSORGTOP
 10
0.0
 20
0.0
 30
0.0
  9
$UCSORGBOTTOM
 10
0.0
 20
0.0
 30
0.0
  9
$UCSORGLEFT
 10
0.0
 20
0.0
 30
0.0
  9
$UCSORGRIGHT
 10
0.0
 20
0.0
 30
0.0
  9
$UCSORGFRONT
 10
0.0
 20
0.0
 30
0.0
  9
$UCSORGBACK
 10
0.0
 20
0.0
 30
0.0
  9
$PUCSBASE
  2

  9
$PUCSNAME
  2

  9
$PUCSORG
 10
0.0
 20
0.0
 30
0.0
  9
$PUCSXDIR
 10
1.0
 20
0.0
 30
0.0
  9
$PUCSYDIR
 10
0.0
 20
1.0
 30
0.0
  9
$PUCSORTHOREF
  2

  9
$PUCSORTHOVIEW
 70
     0
  9
$PUCSORGTOP
 10
0.0
 20
0.0
 30
0.0
  9
$PUCSORGBOTTOM
 10
0.0
 20
0.0
 30
0.0
  9
$PUCSORGLEFT
 10
0.0
 20
0.0
 30
0.0
  9
$PUCSORGRIGHT
 10
0.0
 20
0.0
 30
0.0
  9
$PUCSORGFRONT
 10
0.0
 20
0.0
 30
0.0
  9
$PUCSORGBACK
 10
0.0
 20
0.0
 30
0.0
  9
$USERI1
 70
     0
  9
$USERI2
 70
     0
  9
$USERI3
 70
     0
  9
$USERI4
 70
     0
  9
$USERI5
 70
     0
  9
$USERR1
 40
0.0
  9
$USERR2
 40
0.0
  9
$USERR3
 40
0.0
  9
$USERR4
 40
0.0
  9
$USERR5
 40
0.0
  9
$WORLDVIEW
 70
     1
  9
$SHADEDGE
 70
     3
  9
$SHADEDIF
 70
    70
  9
$TILEMODE
 70
     1
  9
$MAXACTVP
 70
    64
  9
$PINSBASE
 10
0.0
 20
0.0
 30
0.0
  9
$PLIMCHECK
 70
     0
  9
$PEXTMIN
 10
1.0000000000E+20
 20
1.0000000000E+20
 30
1.0000000000E+20
  9
$PEXTMAX
 10
-1.0000000000E+20
 20
-1.0000000000E+20
 30
-1.0000000000E+20
  9
$PLIMMIN
 10
0.0
 20
0.0
  9
$PLIMMAX
 10
420.0
 20
297.0
  9
$UNITMODE
 70
     0
  9
$VISRETAIN
 70
     1
  9
$PLINEGEN
 70
     0
  9
$PSLTSCALE
 70
     1
  9
$TREEDEPTH
 70
  3020
  9
$CMLSTYLE
  2
Standard
  9
$CMLJUST
 70
     0
  9
$CMLSCALE
 40
20.0
  9
$PROXYGRAPHICS
 70
     1
  9
$MEASUREMENT
 70
     1
  9
$CELWEIGHT
370
    -1
  9
$ENDCAPS
280
     0
  9
$JOINSTYLE
280
     0
  9
$LWDISPLAY
290
     1
  9
$INSUNITS
 70
     4
  9
$HYPERLINKBASE
  1

  9
$STYLESHEET
  1

  9
$XEDIT
290
     1
  9
$CEPSNTYPE
380
     0
  9
$PSTYLEMODE
290
     1
  9
$FINGERPRINTGUID
  2
{88d06acd-0c01-41df-af64-7252e2baa981}
  9
$VERSIONGUID
  2
{FAEB1C32-E019-11D5-929B-00C0DF256EC4}
  9
$EXTNAMES
290
     1
  9
$PSVPSCALE
 40
0.0
  9
$OLESTARTUP
290
     0
  0
ENDSEC
  0
SECTION
  2
CLASSES
  0
CLASS
  1
ACDBDICTIONARYWDFLT
  2
AcDbDictionaryWithDefault
  3
ObjectDBX Classes
 90
        0
280
     0
281
     0
  0
CLASS
  1
VISUALSTYLE
  2
AcDbVisualStyle
  3
ObjectDBX Classes
 90
     4095
280
     0
281
     0
  0
CLASS
  1
MATERIAL
  2
AcDbMaterial
  3
ObjectDBX Classes
 90
     1153
280
     0
281
     0
  0
CLASS
  1
SCALE
  2
AcDbScale
  3
ObjectDBX Classes
 90
     1153
280
     0
281
     0
  0
CLASS
  1
TABLESTYLE
  2
AcDbTableStyle
  3
ObjectDBX Classes
 90
     4095
280
     0
281
     0
  0
CLASS
  1
MLEADERSTYLE
  2
AcDbMLeaderStyle
  3
ACDB_MLEADERSTYLE_CLASS
 90
     4095
280
     0
281
     0
  0
CLASS
  1
SUN
  2
AcDbSun
  3
SCENEOE
 90
     1153
280
     0
281
     0
  0
CLASS
  1
ACDBPLACEHOLDER
  2
AcDbPlaceHolder
  3
ObjectDBX Classes
 90
        0
280
     0
281
     0
  0
CLASS
  1
LAYOUT
  2
AcDbLayout
  3
ObjectDBX Classes
 90
        0
280
     0
281
     0
  0
ENDSEC
  0
SECTION
  2
TABLES
  0
TABLE
  2
VPORT
  5
8
330
0
100
AcDbSymbolTable
 70
     1
  0
VPORT
  5
29
330
8
100
AcDbSymbolTableRecord
100
AcDbViewportTableRecord
  2
*Active
 70
     0
 10
0.0
 20
0.0
 11
1.0
 21
1.0
 12
7425.0
 22
5250.0
 13
0.0
 23
0.0
 14
10.0
 24
10.0
 15
10.0
 25
10.0
 16
0.0
 26
0.0
 36
1.0
 17
0.0
 27
0.0
 37
0.0
 40
10500.0
 41
1.4142857143
 42
50.0
 43
0.0
 44
0.0
 50
0.0
 51
0.0
 71
     0
 72
  2000
 73
     1
 74
     3
 75
     0
 76
     0
 77
     0
 78
     0
281
     0
 65
     1
110
0.0
120
0.0
130
0.0
111
1.0
121
0.0
131
0.0
112
0.0
122
1.0
132
0.0
 79
     0
146
0.0
  0
ENDTAB
  0
TABLE
  2
LTYPE
  5
5
330
0
100
AcDbSymbolTable
 70
     6
  0
LTYPE
  5
14
330
5
100
AcDbSymbolTableRecord
100
AcDbLinetypeTableRecord
  2
ByBlock
 70
     0
  3

 72
    65
 73
     0
 40
0.0
  0
LTYPE
  5
15
330
5
100
AcDbSymbolTableRecord
100
AcDbLinetypeTableRecord
  2
ByLayer
 70
     0
  3

 72
    65
 73
     0
 40
0.0
  0
LTYPE
  5
16
330
5
100
AcDbSymbolTableRecord
100
AcDbLinetypeTableRecord
  2
Continuous
 70
     0
  3
Solid line
 72
    65
 73
     0
 40
0.0
  0
LTYPE
  5
6E
330
5
100
AcDbSymbolTableRecord
100
AcDbLinetypeTableRecord
  2
HIDDEN
 70
     0
  3
Hidden __ __ __ __ __ __ __ __ __ __ __ __ __ __
 72
    65
 73
     2
 40
1.905
 49
1.27
 74
     0
 49
-0.635
 74
     0
  0
LTYPE
  5
6F
330
5
100
AcDbSymbolTableRecord
100
AcDbLinetypeTableRecord
  2
PHANTOM
 70
     0
  3
Phantom ______  __  __  ______  __  __  ______
 72
    65
 73
     6
 40
12.7
 49
6.35
 74
     0
 49
-1.27
 74
     0
 49
1.27
 74
     0
 49
-1.27
 74
     0
 49
1.27
 74
     0
 49
-1.27
 74
     0
  0
LTYPE
  5
70
330
5
100
AcDbSymbolTableRecord
100
AcDbLinetypeTableRecord
  2
CENTER
 70
     0
  3
Center ____ _ ____ _ ____ _ ____ _ ____ _ ____
 72
    65
 73
     4
 40
10.16
 49
6.35
 74
     0
 49
-1.27
 74
     0
 49
1.27
 74
     0
 49
-1.27
 74
     0
  0
LTYPE
  5
71
330
5
100
AcDbSymbolTableRecord
100
AcDbLinetypeTableRecord
  2
CENTERX2
 70
     0
  3
Center (2x) ________  __  ________  __  _____
 72
    65
 73
     4
 40
20.32
 49
12.7
 74
     0
 49
-2.54
 74
     0
 49
2.54
 74
     0
 49
-2.54
 74
     0
  0
LTYPE
  5
72
330
5
100
AcDbSymbolTableRecord
100
AcDbLinetypeTableRecord
  2
DOT2
 70
     0
  3
Dot (.5x) ........................................
 72
    65
 73
     2
 40
0.635
 49
0.0
 74
     0
 49
-0.635
 74
     0
  0
ENDTAB
  0
TABLE
  2
LAYER
  5
2
330
0
100
AcDbSymbolTable
 70
     2
  0
LAYER
  5
10
330
2
100
AcDbSymbolTableRecord
100
AcDbLayerTableRecord
  2
0
 70
     0
 62
     7
  6
Continuous
370
    -3
390
F
  0
LAYER
  5
73
330
2
100
AcDbSymbolTableRecord
100
AcDbLayerTableRecord
  2
FORMAT
 70
     0
 62
     7
  6
Continuous
370
    -3
390
F
  0
ENDTAB
  0
TABLE
  2
STYLE
  5
3
330
0
100
AcDbSymbolTable
 70
     2
  0
STYLE
  5
11
330
3
100
AcDbSymbolTableRecord
100
AcDbTextStyleTableRecord
  2
Standard
 70
     0
 40
0.0
 41
1.0
 50
0.0
 71
     0
 42
112.5
  3
txt
  4

  0
STYLE
  5
147
330
3
100
AcDbSymbolTableRecord
100
AcDbTextStyleTableRecord
  2
SLDTEXTSTYLE0
 70
     0
 40
0.0
 41
0.75
 50
0.0
 71
     0
 42
112.5
  3
TXT
  4

  0
ENDTAB
  0
TABLE
  2
VIEW
  5
6
330
0
100
AcDbSymbolTable
 70
     0
  0
ENDTAB
  0
TABLE
  2
UCS
  5
7
330
0
100
AcDbSymbolTable
 70
     0
  0
ENDTAB
  0
TABLE
  2
APPID
  5
9
330
0
100
AcDbSymbolTable
 70
     1
  0
APPID
  5
12
330
9
100
AcDbSymbolTableRecord
100
AcDbRegAppTableRecord
  2
ACAD
 70
     0
  0
ENDTAB
  0
TABLE
  2
DIMSTYLE
  5
A
330
0
100
AcDbSymbolTable
 70
     3
100
AcDbDimStyleTable
  0
DIMSTYLE
105
27
330
A
100
AcDbSymbolTableRecord
100
AcDbDimStyleTableRecord
  2
ISO-25
 70
     0
 41
2.5
 42
0.625
 43
3.75
 44
1.25
 73
     0
 74
     0
 77
     1
 78
     8
140
2.5
141
2.5
143
0.0393700787
147
0.625
171
     3
172
     1
178
     0
271
     2
272
     2
274
     3
278
    44
283
     0
284
     8
340
11
  0
DIMSTYLE
105
148
102
{ACAD_REACTORS
330
146
330
152
330
15C
330
165
330
177
330
181
330
18B
330
2F7
330
301
330
3C5
102
}
330
A
100
AcDbSymbolTableRecord
100
AcDbDimStyleTableRecord
  2
SLDDIMSTYLE0
 70
     0
 41
82.55
 44
0.0
 45
0.000000001
 73
     0
 74
     0
 77
     1
 78
    12
 79
     3
140
112.5
147
28.125
173
     1
178
     0
271
     0
272
     0
276
     2
284
    12
340
147
  0
DIMSTYLE
105
16F
102
{ACAD_REACTORS
330
16E
102
}
330
A
100
AcDbSymbolTableRecord
100
AcDbDimStyleTableRecord
  2
SLDDIMSTYLE1
 70
     0
 41
82.55
 44
0.0
 73
     0
 74
     0
 77
     1
 78
    12
 79
     3
140
112.5
144
25.0
147
28.125
173
     1
178
     0
179
     2
272
     2
276
     2
284
    12
340
147
  0
ENDTAB
  0
TABLE
  2
BLOCK_RECORD
  5
1
330
0
100
AcDbSymbolTable
 70
    12
  0
BLOCK_RECORD
  5
1F
330
1
100
AcDbSymbolTableRecord
100
AcDbBlockTableRecord
  2
*Model_Space
340
22
  0
BLOCK_RECORD
  5
1B
330
1
100
AcDbSymbolTableRecord
100
AcDbBlockTableRecord
  2
*Paper_Space
340
1E
  0
BLOCK_RECORD
  5
23
330
1
100
AcDbSymbolTableRecord
100
AcDbBlockTableRecord
  2
*Paper_Space0
340
26
  0
BLOCK_RECORD
  5
149
330
1
100
AcDbSymbolTableRecord
100
AcDbBlockTableRecord
  2
_D
340
0
  0
BLOCK_RECORD
  5
153
330
1
100
AcDbSymbolTableRecord
100
AcDbBlockTableRecord
  2
_D_1
340
0
  0
BLOCK_RECORD
  5
15D
330
1
100
AcDbSymbolTableRecord
100
AcDbBlockTableRecord
  2
_D_2
340
0
  0
BLOCK_RECORD
  5
166
330
1
100
AcDbSymbolTableRecord
100
AcDbBlockTableRecord
  2
_D_3
340
0
  0
BLOCK_RECORD
  5
170
330
1
100
AcDbSymbolTableRecord
100
AcDbBlockTableRecord
  2
_D_4
340
0
  0
BLOCK_RECORD
  5
178
330
1
100
AcDbSymbolTableRecord
100
AcDbBlockTableRecord
  2
_D_5
340
0
  0
BLOCK_RECORD
  5
182
330
1
100
AcDbSymbolTableRecord
100
AcDbBlockTableRecord
  2
_D_6
340
0
  0
BLOCK_RECORD
  5
18C
330
1
100
AcDbSymbolTableRecord
100
AcDbBlockTableRecord
  2
_D_7
340
0
  0
BLOCK_RECORD
  5
2F8
330
1
100
AcDbSymbolTableRecord
100
AcDbBlockTableRecord
  2
_D_8
340
0
  0
BLOCK_RECORD
  5
302
330
1
100
AcDbSymbolTableRecord
100
AcDbBlockTableRecord
  2
_D_9
340
0
  0
BLOCK_RECORD
  5
3C6
330
1
100
AcDbSymbolTableRecord
100
AcDbBlockTableRecord
  2
_D_10
340
0
  0
ENDTAB
  0
ENDSEC
  0
SECTION
  2
BLOCKS
  0
BLOCK
  5
20
330
1F
100
AcDbEntity
  8
0
100
AcDbBlockBegin
  2
*Model_Space
 70
     0
 10
0.0
 20
0.0
 30
0.0
  3
*Model_Space
  1

  0
ENDBLK
  5
21
330
1F
100
AcDbEntity
  8
0
100
AcDbBlockEnd
  0
BLOCK
  5
1C
330
1B
100
AcDbEntity
 67
     1
  8
0
100
AcDbBlockBegin
  2
*Paper_Space
 70
     0
 10
0.0
 20
0.0
 30
0.0
  3
*Paper_Space
  1

  0
ENDBLK
  5
1D
330
1B
100
AcDbEntity
 67
     1
  8
0
100
AcDbBlockEnd
  0
BLOCK
  5
24
330
23
100
AcDbEntity
  8
0
100
AcDbBlockBegin
  2
*Paper_Space0
 70
     0
 10
0.0
 20
0.0
 30
0.0
  3
*Paper_Space0
  1

  0
ENDBLK
  5
25
330
23
100
AcDbEntity
  8
0
100
AcDbBlockEnd
  0
BLOCK
  5
14A
330
149
100
AcDbEntity
  8
0
100
AcDbBlockBegin
  2
_D
 70
     0
 10
0.0
 20
0.0
 30
0.0
  3
_D
  1

  0
SOLID
  5
14C
330
149
100
AcDbEntity
  8
0
  6
Continuous
 62
     7
370
    18
100
AcDbTrace
 10
8106.8623719405
 20
8195.210395557
 30
0.0
 11
8094.1623719405
 21
8112.660395557
 31
0.0
 12
8119.5623719405
 22
8112.660395557
 32
0.0
 13
8119.5623719405
 23
8112.660395557
 33
0.0
  0
SOLID
  5
14D
330
149
100
AcDbEntity
  8
0
  6
Continuous
 62
     7
370
    18
100
AcDbTrace
 10
8106.8623719405
 20
7554.8268407469
 30
0.0
 11
8119.5623719405
 21
7637.3768407469
 31
0.0
 12
8094.1623719405
 22
7637.3768407469
 32
0.0
 13
8094.1623719405
 23
7637.3768407469
 33
0.0
  0
LINE
  5
14E
330
149
100
AcDbEntity
  8
0
  6
Continuous
 62
     7
370
     0
100
AcDbLine
 10
7955.3580963661
 20
8195.210395557
 30
0.0
 11
8131.8623719405
 21
8195.210395557
 31
0.0
  0
LINE
  5
14F
330
149
100
AcDbEntity
  8
0
  6
Continuous
 62
     7
370
     0
100
AcDbLine
 10
7992.2093292573
 20
7554.8268407469
 30
0.0
 11
8131.8623719405
 21
7554.8268407469
 31
0.0
  0
LINE
  5
150
330
149
100
AcDbEntity
  8
0
  6
Continuous
 62
     7
370
     0
100
AcDbLine
 10
8106.8623719405
 20
8195.210395557
 30
0.0
 11
8106.8623719405
 21
7554.8268407469
 31
0.0
  0
MTEXT
  5
151
330
149
100
AcDbEntity
  8
0
  6
Continuous
 62
     7
370
    18
100
AcDbMText
 10
7961.8422570369
 20
7703.2098890519
 30
0.0
 40
112.5
 41
0.0
 71
     1
 72
     1
  1
640
  7
SLDTEXTSTYLE0
 11
-3.491481338843133E-15
 21
1.0
 31
0.0
 73
     1
 44
1.0
  0
ENDBLK
  5
14B
330
149
100
AcDbEntity
  8
0
100
AcDbBlockEnd
  0
BLOCK
  5
154
330
153
100
AcDbEntity
  8
0
100
AcDbBlockBegin
  2
_D_1
 70
     0
 10
0.0
 20
0.0
 30
0.0
  3
_D_1
  1

  0
SOLID
  5
156
330
153
100
AcDbEntity
  8
0
  6
Continuous
 62
     7
370
    18
100
AcDbTrace
 10
8330.3580963662
 20
8302.0143656748
 30
0.0
 11
8317.6580963662
 21
8219.4643656748
 31
0.0
 12
8343.0580963662
 22
8219.4643656748
 32
0.0
 13
8343.0580963662
 23
8219.4643656748
 33
0.0
  0
SOLID
  5
157
330
153
100
AcDbEntity
  8
0
  6
Continuous
 62
     7
370
    18
100
AcDbTrace
 10
8330.3580963662
 20
7554.8268407469
 30
0.0
 11
8343.0580963662
 21
7637.3768407469
 31
0.0
 12
8317.6580963662
 22
7637.3768407469
 32
0.0
 13
8317.6580963662
 23
7637.3768407469
 33
0.0
  0
LINE
  5
158
330
153
100
AcDbEntity
  8
0
  6
Continuous
 62
     7
370
     0
100
AcDbLine
 10
7631.6681799846
 20
8302.0143656748
 30
0.0
 11
8355.3580963662
 21
8302.0143656748
 31
0.0
  0
LINE
  5
159
330
153
100
AcDbEntity
  8
0
  6
Continuous
 62
     7
370
     0
100
AcDbLine
 10
7992.2093292573
 20
7554.8268407469
 30
0.0
 11
8355.3580963662
 21
7554.8268407469
 31
0.0
  0
LINE
  5
15A
330
153
100
AcDbEntity
  8
0
  6
Continuous
 62
     7
370
     0
100
AcDbLine
 10
8330.3580963662
 20
8302.0143656748
 30
0.0
 11
8330.3580963662
 21
7554.8268407469
 31
0.0
  0
MTEXT
  5
15B
330
153
100
AcDbEntity
  8
0
  6
Continuous
 62
     7
370
    18
100
AcDbMText
 10
8185.3379814626
 20
7780.25998446
 30
0.0
 40
112.5
 41
0.0
 71
     1
 72
     1
  1
747
  7
SLDTEXTSTYLE0
 11
-3.491481338843133E-15
 21
1.0
 31
0.0
 73
     1
 44
1.0
  0
ENDBLK
  5
155
330
153
100
AcDbEntity
  8
0
100
AcDbBlockEnd
  0
BLOCK
  5
15E
330
15D
100
AcDbEntity
  8
0
100
AcDbBlockBegin
  2
_D_2
 70
     0
 10
0.0
 20
0.0
 30
0.0
  3
_D_2
  1

  0
SOLID
  5
160
330
15D
100
AcDbEntity
  8
0
  6
Continuous
 62
     7
370
    18
100
AcDbTrace
 10
5660.2144555067
 20
8943.1262687355
 30
0.0
 11
5647.5144555067
 21
8860.5762687355
 31
0.0
 12
5672.9144555067
 22
8860.5762687355
 32
0.0
 13
5672.9144555067
 23
8860.5762687355
 33
0.0
  0
SOLID
  5
161
330
15D
100
AcDbEntity
  8
0
  6
Continuous
 62
     7
370
    18
100
AcDbTrace
 10
5660.2144555067
 20
7554.8268407469
 30
0.0
 11
5672.9144555067
 21
7637.3768407469
 31
0.0
 12
5647.5144555067
 22
7637.3768407469
 32
0.0
 13
5647.5144555067
 23
7637.3768407469
 33
0.0
  0
LINE
  5
162
330
15D
100
AcDbEntity
  8
0
  6
Continuous
 62
     7
370
     0
100
AcDbLine
 10
6206.79926705
 20
8943.1262687355
 30
0.0
 11
5635.2144555067
 21
8943.1262687355
 31
0.0
  0
LINE
  5
163
330
15D
100
AcDbEntity
  8
0
  6
Continuous
 62
     7
370
     0
100
AcDbLine
 10
5660.2144555067
 20
8943.1262687355
 30
0.0
 11
5660.2144555067
 21
7554.8268407469
 31
0.0
  0
MTEXT
  5
164
330
15D
100
AcDbEntity
  8
0
  6
Continuous
 62
     7
370
    18
100
AcDbMText
 10
5515.1943406031
 20
8058.9293275608
 30
0.0
 40
112.5
 41
0.0
 71
     1
 72
     1
  1
1388
  7
SLDTEXTSTYLE0
 11
-3.491481338843133E-15
 21
1.0
 31
0.0
 73
     1
 44
1.0
  0
ENDBLK
  5
15F
330
15D
100
AcDbEntity
  8
0
100
AcDbBlockEnd
  0
BLOCK
  5
167
330
166
100
AcDbEntity
  8
0
100
AcDbBlockBegin
  2
_D_3
 70
     0
 10
0.0
 20
0.0
 30
0.0
  3
_D_3
  1

  0
SOLID
  5
169
330
166
100
AcDbEntity
  8
0
  6
Continuous
 62
     7
370
    18
100
AcDbTrace
 10
5382.7828066514
 20
9158.7800323259
 30
0.0
 11
5370.0828066514
 21
9076.2300323259
 31
0.0
 12
5395.4828066514
 22
9076.2300323259
 32
0.0
 13
5395.4828066514
 23
9076.2300323259
 33
0.0
  0
SOLID
  5
16A
330
166
100
AcDbEntity
  8
0
  6
Continuous
 62
     7
370
    18
100
AcDbTrace
 10
5382.7828066514
 20
7554.8268407469
 30
0.0
 11
5395.4828066514
 21
7637.3768407469
 31
0.0
 12
5370.0828066514
 22
7637.3768407469
 32
0.0
 13
5370.0828066514
 23
7637.3768407469
 33
0.0
  0
LINE
  5
16B
330
166
100
AcDbEntity
  8
0
  6
Continuous
 62
     7
370
     0
100
AcDbLine
 10
5838.9763419225
 20
9158.7800323259
 30
0.0
 11
5357.7828066514
 21
9158.7800323259
 31
0.0
  0
LINE
  5
16C
330
166
100
AcDbEntity
  8
0
  6
Continuous
 62
     7
370
     0
100
AcDbLine
 10
5382.7828066514
 20
9158.7800323259
 30
0.0
 11
5382.7828066514
 21
7554.8268407469
 31
0.0
  0
MTEXT
  5
16D
330
166
100
AcDbEntity
  8
0
  6
Continuous
 62
     7
370
    18
100
AcDbMText
 10
5237.7626917478
 20
8219.3191661518
 30
0.0
 40
112.5
 41
0.0
 71
     1
 72
     1
  1
1604
  7
SLDTEXTSTYLE0
 11
-3.491481338843133E-15
 21
1.0
 31
0.0
 73
     1
 44
1.0
  0
ENDBLK
  5
168
330
166
100
AcDbEntity
  8
0
100
AcDbBlockEnd
  0
BLOCK
  5
171
330
170
100
AcDbEntity
  8
0
100
AcDbBlockBegin
  2
_D_4
 70
     0
 10
0.0
 20
0.0
 30
0.0
  3
_D_4
  1

  0
ARC
  5
173
330
170
100
AcDbEntity
  8
0
  6
Continuous
 62
     7
370
    18
100
AcDbCircle
 10
8706.199161691
 20
7554.8268407469
 30
0.0
 40
2545.69860771896
100
AcDbArc
 50
155.0
 51
180.0
  0
SOLID
  5
174
330
170
100
AcDbEntity
  8
0
  6
Continuous
 62
     7
370
    18
100
AcDbTrace
 10
6399.012690067
 20
8630.6855612568
 30
0.0
 11
6353.747105191
 21
8560.4942560556
 31
0.0
 12
6376.9382759972
 22
8550.1342562178
 32
0.0
 13
6376.9382759972
 23
8550.1342562178
 33
0.0
  0
SOLID
  5
175
330
170
100
AcDbEntity
  8
0
  6
Continuous
 62
     7
370
    18
100
AcDbTrace
 10
6160.5005539721
 20
7554.8268407469
 30
0.0
 11
6174.5367931229
 21
7637.1601662627
 31
0.0
 12
6149.1401293076
 22
7637.5718300299
 32
0.0
 13
6149.1401293076
 23
7637.5718300299
 33
0.0
  0
MTEXT
  5
176
330
170
100
AcDbEntity
  8
0
  6
Continuous
 62
     7
370
    18
100
AcDbMText
 10
6043.7205158608
 20
7959.7613684081
 30
0.0
 40
112.5
 41
0.0
 71
     1
 72
     1
  1
25°
  7
SLDTEXTSTYLE0
 11
0.1917555471367861
 21
0.9814427187270135
 31
0.0
 73
     1
 44
1.0
  0
ENDBLK
  5
172
330
170
100
AcDbEntity
  8
0
100
AcDbBlockEnd
  0
BLOCK
  5
179
330
178
100
AcDbEntity
  8
0
100
AcDbBlockBegin
  2
_D_5
 70
     0
 10
0.0
 20
0.0
 30
0.0
  3
_D_5
  1

  0
SOLID
  5
17B
330
178
100
AcDbEntity
  8
0
  6
Continuous
 62
     7
370
    18
100
AcDbTrace
 10
5941.1528441949
 20
9324.2855755494
 30
0.0
 11
6010.6013000907
 21
9277.8883291473
 31
0.0
 12
6021.3358039389
 22
9300.9085469381
 32
0.0
 13
6021.3358039389
 23
9300.9085469381
 33
0.0
  0
SOLID
  5
17C
330
178
100
AcDbEntity
  8
0
  6
Continuous
 62
     7
370
    18
100
AcDbTrace
 10
8007.5345986384
 20
8360.7159387804
 30
0.0
 11
7938.0861427426
 21
8407.1131851825
 31
0.0
 12
7927.3516388944
 22
8384.0929673917
 32
0.0
 13
7927.3516388944
 23
8384.0929673917
 33
0.0
  0
LINE
  5
17D
330
178
100
AcDbEntity
  8
0
  6
Continuous
 62
     7
370
     0
100
AcDbLine
 10
5874.5417984661
 20
9181.4377270017
 30
0.0
 11
5951.7183007384
 21
9346.9432702253
 31
0.0
  0
LINE
  5
17E
330
178
100
AcDbEntity
  8
0
  6
Continuous
 62
     7
370
     0
100
AcDbLine
 10
7940.9235529097
 20
8217.8680902329
 30
0.0
 11
8018.1000551819
 21
8383.3736334563
 31
0.0
  0
LINE
  5
17F
330
178
100
AcDbEntity
  8
0
  6
Continuous
 62
     7
370
     0
100
AcDbLine
 10
5941.1528441949
 20
9324.2855755494
 30
0.0
 11
8007.5345986384
 21
8360.7159387804
 31
0.0
  0
MTEXT
  5
180
330
178
100
AcDbEntity
  8
0
  6
Continuous
 62
     7
370
    18
100
AcDbMText
 10
6903.1189778635
 20
9035.7253931239
 30
0.0
 40
112.5
 41
0.0
 71
     1
 72
     1
  1
2280
  7
SLDTEXTSTYLE0
 11
0.9063077870366163
 21
-0.4226182617407717
 31
0.0
 73
     1
 44
1.0
  0
ENDBLK
  5
17A
330
178
100
AcDbEntity
  8
0
100
AcDbBlockEnd
  0
BLOCK
  5
183
330
182
100
AcDbEntity
  8
0
100
AcDbBlockBegin
  2
_D_6
 70
     0
 10
0.0
 20
0.0
 30
0.0
  3
_D_6
  1

  0
SOLID
  5
185
330
182
100
AcDbEntity
  8
0
  6
Continuous
 62
     7
370
    18
100
AcDbTrace
 10
7683.5858278059
 20
9380.8704145936
 30
0.0
 11
7601.0358278059
 21
9393.5704145936
 31
0.0
 12
7601.0358278059
 22
9368.1704145936
 32
0.0
 13
7601.0358278059
 23
9368.1704145936
 33
0.0
  0
SOLID
  5
186
330
182
100
AcDbEntity
  8
0
  6
Continuous
 62
     7
370
    18
100
AcDbTrace
 10
6070.3579668806
 20
9380.8704145936
 30
0.0
 11
6152.9079668806
 21
9368.1704145936
 31
0.0
 12
6152.9079668806
 22
9393.5704145936
 32
0.0
 13
6152.9079668806
 23
9393.5704145936
 33
0.0
  0
LINE
  5
187
330
182
100
AcDbEntity
  8
0
  6
Continuous
 62
     7
370
     0
100
AcDbLine
 10
7683.5858278059
 20
8180.8092855521
 30
0.0
 11
7683.5858278059
 21
9405.8704145936
 31
0.0
  0
LINE
  5
188
330
182
100
AcDbEntity
  8
0
  6
Continuous
 62
     7
370
     0
100
AcDbLine
 10
6070.3579668806
 20
8933.0697914506
 30
0.0
 11
6070.3579668806
 21
9405.8704145936
 31
0.0
  0
LINE
  5
189
330
182
100
AcDbEntity
  8
0
  6
Continuous
 62
     7
370
     0
100
AcDbLine
 10
7683.5858278059
 20
9380.8704145936
 30
0.0
 11
6070.3579668806
 21
9380.8704145936
 31
0.0
  0
MTEXT
  5
18A
330
182
100
AcDbEntity
  8
0
  6
Continuous
 62
     7
370
    18
100
AcDbMText
 10
6632.0283199935
 20
9525.8905294972
 30
0.0
 40
112.5
 41
0.0
 71
     1
 72
     1
  1
1613
  7
SLDTEXTSTYLE0
 73
     1
 44
1.0
  0
ENDBLK
  5
184
330
182
100
AcDbEntity
  8
0
100
AcDbBlockEnd
  0
BLOCK
  5
18D
330
18C
100
AcDbEntity
  8
0
100
AcDbBlockBegin
  2
_D_7
 70
     0
 10
0.0
 20
0.0
 30
0.0
  3
_D_7
  1

  0
SOLID
  5
18F
330
18C
100
AcDbEntity
  8
0
  6
Continuous
 62
     7
370
    18
100
AcDbTrace
 10
5863.9763419226
 20
9654.9104582084
 30
0.0
 11
5946.5263419226
 21
9642.2104582084
 31
0.0
 12
5946.5263419226
 22
9667.6104582084
 32
0.0
 13
5946.5263419226
 23
9667.6104582084
 33
0.0
  0
SOLID
  5
190
330
18C
100
AcDbEntity
  8
0
  6
Continuous
 62
     7
370
    18
100
AcDbTrace
 10
7930.3580963662
 20
9654.9104582084
 30
0.0
 11
7847.8080963662
 21
9667.6104582084
 31
0.0
 12
7847.8080963662
 22
9642.2104582084
 32
0.0
 13
7847.8080963662
 23
9642.2104582084
 33
0.0
  0
LINE
  5
191
330
18C
100
AcDbEntity
  8
0
  6
Continuous
 62
     7
370
     0
100
AcDbLine
 10
5863.9763419226
 20
9183.7800323258
 30
0.0
 11
5863.9763419226
 21
9679.9104582084
 31
0.0
  0
LINE
  5
192
330
18C
100
AcDbEntity
  8
0
  6
Continuous
 62
     7
370
     0
100
AcDbLine
 10
7930.3580963662
 20
8220.2103955569
 30
0.0
 11
7930.3580963662
 21
9679.9104582084
 31
0.0
  0
LINE
  5
193
330
18C
100
AcDbEntity
  8
0
  6
Continuous
 62
     7
370
     0
100
AcDbLine
 10
5863.9763419226
 20
9654.9104582084
 30
0.0
 11
7930.3580963662
 21
9654.9104582084
 31
0.0
  0
MTEXT
  5
194
330
18C
100
AcDbEntity
  8
0
  6
Continuous
 62
     7
370
    18
100
AcDbMText
 10
6581.1755283949
 20
9799.930573112
 30
0.0
 40
112.5
 41
0.0
 71
     1
 72
     1
  1
2066
  7
SLDTEXTSTYLE0
 73
     1
 44
1.0
  0
ENDBLK
  5
18E
330
18C
100
AcDbEntity
  8
0
100
AcDbBlockEnd
  0
BLOCK
  5
2F9
330
2F8
100
AcDbEntity
  8
0
100
AcDbBlockBegin
  2
_D_8
 70
     0
 10
0.0
 20
0.0
 30
0.0
  3
_D_8
  1

  0
SOLID
  5
2FB
330
2F8
100
AcDbEntity
  8
0
  6
Continuous
 62
     7
370
    18
100
AcDbTrace
 10
2087.8016882331
 20
5904.8268405798
 30
0.0
 11
2170.3516882331
 21
5892.1268405798
 31
0.0
 12
2170.3516882331
 22
5917.5268405798
 32
0.0
 13
2170.3516882331
 23
5917.5268405798
 33
0.0
  0
SOLID
  5
2FC
330
2F8
100
AcDbEntity
  8
0
  6
Continuous
 62
     7
370
    18
100
AcDbTrace
 10
3957.8016882331
 20
5904.8268405798
 30
0.0
 11
3875.2516882331
 21
5917.5268405798
 31
0.0
 12
3875.2516882331
 22
5892.1268405798
 32
0.0
 13
3875.2516882331
 23
5892.1268405798
 33
0.0
  0
LINE
  5
2FD
330
2F8
100
AcDbEntity
  8
0
  6
Continuous
 62
     7
370
     0
100
AcDbLine
 10
2087.8016882331
 20
6129.8268405799
 30
0.0
 11
2087.8016882331
 21
5879.8268405798
 31
0.0
  0
LINE
  5
2FE
330
2F8
100
AcDbEntity
  8
0
  6
Continuous
 62
     7
370
     0
100
AcDbLine
 10
3957.8016882331
 20
6129.8268405799
 30
0.0
 11
3957.8016882331
 21
5879.8268405798
 31
0.0
  0
LINE
  5
2FF
330
2F8
100
AcDbEntity
  8
0
  6
Continuous
 62
     7
370
     0
100
AcDbLine
 10
2087.8016882331
 20
5904.8268405798
 30
0.0
 11
3957.8016882331
 21
5904.8268405798
 31
0.0
  0
MTEXT
  5
300
330
2F8
100
AcDbEntity
  8
0
  6
Continuous
 62
     7
370
    18
100
AcDbMText
 10
2820.6040641364
 20
6049.8469554833
 30
0.0
 40
112.5
 41
0.0
 71
     1
 72
     1
  1
1870
  7
SLDTEXTSTYLE0
 73
     1
 44
1.0
  0
ENDBLK
  5
2FA
330
2F8
100
AcDbEntity
  8
0
100
AcDbBlockEnd
  0
BLOCK
  5
303
330
302
100
AcDbEntity
  8
0
100
AcDbBlockBegin
  2
_D_9
 70
     0
 10
0.0
 20
0.0
 30
0.0
  3
_D_9
  1

  0
SOLID
  5
305
330
302
100
AcDbEntity
  8
0
  6
Continuous
 62
     7
370
    18
100
AcDbTrace
 10
1932.8016882331
 20
9408.7800321589
 30
0.0
 11
2015.3516882331
 21
9396.0800321589
 31
0.0
 12
2015.3516882331
 22
9421.4800321589
 32
0.0
 13
2015.3516882331
 23
9421.4800321589
 33
0.0
  0
SOLID
  5
306
330
302
100
AcDbEntity
  8
0
  6
Continuous
 62
     7
370
    18
100
AcDbTrace
 10
3072.8016882331
 20
9408.7800321589
 30
0.0
 11
2990.2516882331
 21
9421.4800321589
 31
0.0
 12
2990.2516882331
 22
9396.0800321589
 32
0.0
 13
2990.2516882331
 23
9396.0800321589
 33
0.0
  0
LINE
  5
307
330
302
100
AcDbEntity
  8
0
  6
Continuous
 62
     7
370
     0
100
AcDbLine
 10
1932.8016882331
 20
9183.7800321589
 30
0.0
 11
1932.8016882331
 21
9433.7800321589
 31
0.0
  0
LINE
  5
308
330
302
100
AcDbEntity
  8
0
  6
Continuous
 62
     7
370
     0
100
AcDbLine
 10
3072.8016882331
 20
9183.7800321589
 30
0.0
 11
3072.8016882331
 21
9433.7800321589
 31
0.0
  0
LINE
  5
309
330
302
100
AcDbEntity
  8
0
  6
Continuous
 62
     7
370
     0
100
AcDbLine
 10
1932.8016882331
 20
9408.7800321589
 30
0.0
 11
3072.8016882331
 21
9408.7800321589
 31
0.0
  0
MTEXT
  5
30A
330
302
100
AcDbEntity
  8
0
  6
Continuous
 62
     7
370
    18
100
AcDbMText
 10
2354.0649323493
 20
9553.8001470625
 30
0.0
 40
112.5
 41
0.0
 71
     1
 72
     1
  1
1140
  7
SLDTEXTSTYLE0
 73
     1
 44
1.0
  0
ENDBLK
  5
304
330
302
100
AcDbEntity
  8
0
100
AcDbBlockEnd
  0
BLOCK
  5
3C7
330
3C6
100
AcDbEntity
  8
0
100
AcDbBlockBegin
  2
_D_10
 70
     0
 10
0.0
 20
0.0
 30
0.0
  3
_D_10
  1

  0
SOLID
  5
3C9
330
3C6
100
AcDbEntity
  8
0
  6
Continuous
 62
     7
370
    18
100
AcDbTrace
 10
1897.801688233
 20
4986.1550840918
 30
0.0
 11
1980.351688233
 21
4973.4550840919
 31
0.0
 12
1980.351688233
 22
4998.8550840919
 32
0.0
 13
1980.351688233
 23
4998.8550840919
 33
0.0
  0
SOLID
  5
3CA
330
3C6
100
AcDbEntity
  8
0
  6
Continuous
 62
     7
370
    18
100
AcDbTrace
 10
4267.801688233
 20
4986.1550840921
 30
0.0
 11
4185.251688233
 21
4998.8550840921
 31
0.0
 12
4185.251688233
 22
4973.4550840921
 32
0.0
 13
4185.251688233
 23
4973.4550840921
 33
0.0
  0
LINE
  5
3CB
330
3C6
100
AcDbEntity
  8
0
  6
Continuous
 62
     7
370
     0
100
AcDbLine
 10
1897.8016882331
 20
4226.427428495
 30
0.0
 11
1897.801688233
 21
5011.1550840918
 31
0.0
  0
LINE
  5
3CC
330
3C6
100
AcDbEntity
  8
0
  6
Continuous
 62
     7
370
     0
100
AcDbLine
 10
4267.8016882331
 20
4226.427428495
 30
0.0
 11
4267.801688233
 21
5011.1550840921
 31
0.0
  0
LINE
  5
3CD
330
3C6
100
AcDbEntity
  8
0
  6
Continuous
 62
     7
370
     0
100
AcDbLine
 10
1897.801688233
 20
4986.1550840918
 30
0.0
 11
4267.801688233
 21
4986.1550840921
 31
0.0
  0
MTEXT
  5
3CE
330
3C6
100
AcDbEntity
  8
0
  6
Continuous
 62
     7
370
    18
100
AcDbMText
 10
2890.4228684447
 20
5131.1751989956
 30
0.0
 40
112.5
 41
0.0
 71
     1
 72
     1
  1
2370
  7
SLDTEXTSTYLE0
 73
     1
 44
1.0
  0
ENDBLK
  5
3C8
330
3C6
100
AcDbEntity
  8
0
100
AcDbBlockEnd
  0
ENDSEC
  0
SECTION
  2
ENTITIES
  0
LINE
  5
74
330
1F
100
AcDbEntity
  8
0
  6
Continuous
 62
     7
370
    25
100
AcDbLine
 10
6102.164469394
 20
8813.5402053479
 30
0.0
 11
6511.458597812
 21
8230.9403866414
 31
0.0
  0
LINE
  5
75
330
1F
100
AcDbEntity
  8
0
  6
Continuous
 62
     7
370
    25
100
AcDbLine
 10
6510.2312189667
 20
8230.0780862454
 30
0.0
 11
6511.458597812
 21
8230.9403866414
 31
0.0
  0
LINE
  5
76
330
1F
100
AcDbEntity
  8
0
  6
Continuous
 62
     7
370
    25
100
AcDbLine
 10
6100.9370905488
 20
8812.6779645566
 30
0.0
 11
6102.164469394
 21
8813.5402053479
 31
0.0
  0
LINE
  5
77
330
1F
100
AcDbEntity
  8
0
  6
Continuous
 62
     7
370
    25
100
AcDbLine
 10
6100.9370905488
 20
8812.6779645566
 30
0.0
 11
6510.2312189667
 21
8230.0780862454
 31
0.0
  0
LINE
  5
78
330
1F
100
AcDbEntity
  8
0
  6
Continuous
 62
     7
370
    25
100
AcDbLine
 10
6148.8053423493
 20
8846.3066667203
 30
0.0
 11
6558.0989939301
 21
8263.7068480138
 31
0.0
  0
LINE
  5
79
330
1F
100
AcDbEntity
  8
0
  6
Continuous
 62
     7
370
    25
100
AcDbLine
 10
6148.8053423493
 20
8846.3066667203
 30
0.0
 11
6150.0327211945
 21
8847.1689075116
 31
0.0
  0
LINE
  5
7A
330
1F
100
AcDbEntity
  8
0
  6
Continuous
 62
     7
370
    25
100
AcDbLine
 10
6150.0327211945
 20
8847.1689075116
 30
0.0
 11
6559.3263727753
 21
8264.5691484097
 31
0.0
  0
LINE
  5
7B
330
1F
100
AcDbEntity
  8
0
  6
Continuous
 62
     7
370
    25
100
AcDbLine
 10
6558.0989939301
 20
8263.7068480138
 30
0.0
 11
6559.3263727753
 21
8264.5691484097
 31
0.0
  0
LINE
  5
7C
330
1F
100
AcDbEntity
  8
0
  6
Continuous
 62
     7
370
    25
100
AcDbLine
 10
6103.8009745209
 20
8814.6898597363
 30
0.0
 11
6513.0951029389
 21
8232.0900410298
 31
0.0
  0
LWPOLYLINE
  5
7D
330
1F
100
AcDbEntity
  8
0
  6
Continuous
 62
     7
370
    25
100
AcDbPolyline
 90
        9
 70
   128
 43
0.0
 10
6511.458597812
 20
8230.9403866414
 10
6511.4900690644
 20
8230.96244036
 10
6511.5830523103
 20
8231.0278862599
 10
6511.7342096894
 20
8231.1341017369
 10
6511.937819156
 20
8231.2770932797
 10
6512.1857744782
 20
8231.4513176564
 10
6512.468538913
 20
8231.6500991467
 10
6512.7756220429
 20
8231.8657487515
 10
6513.0951029389
 20
8232.0900410298
  0
LWPOLYLINE
  5
7E
330
1F
100
AcDbEntity
  8
0
  6
Continuous
 62
     7
370
    25
100
AcDbPolyline
 90
        9
 70
   128
 43
0.0
 10
6102.164469394
 20
8813.5402053479
 10
6102.1959406464
 20
8813.5622590665
 10
6102.2894007294
 20
8813.6277049664
 10
6102.4405581086
 20
8813.7339204434
 10
6102.6441675751
 20
8813.8769715909
 10
6102.8921228974
 20
8814.0511363629
 10
6103.1748873322
 20
8814.2498582486
 10
6103.4819704621
 20
8814.4656270627
 10
6103.8009745209
 20
8814.6898597363
  0
LINE
  5
7F
330
1F
100
AcDbEntity
  8
0
  6
Continuous
 62
     7
370
    25
100
AcDbLine
 10
6147.1688372224
 20
8845.1570123319
 30
0.0
 11
6556.4624888032
 21
8262.5571340207
 31
0.0
  0
LWPOLYLINE
  5
80
330
1F
100
AcDbEntity
  8
0
  6
Continuous
 62
     7
370
    25
100
AcDbPolyline
 90
        9
 70
   128
 43
0.0
 10
6556.4624888032
 20
8262.5571340207
 10
6556.7819696992
 20
8262.7814859036
 10
6557.0890528291
 20
8262.9971355084
 10
6557.3718172639
 20
8263.1959169988
 10
6557.6197725861
 20
8263.3701413754
 10
6557.8233820527
 20
8263.5131329183
 10
6557.9745394318
 20
8263.6193483952
 10
6558.0675226777
 20
8263.6847942952
 10
6558.0989939301
 20
8263.7068480138
  0
LWPOLYLINE
  5
81
330
1F
100
AcDbEntity
  8
0
  6
Continuous
 62
     7
370
    25
100
AcDbPolyline
 90
        9
 70
   128
 43
0.0
 10
6147.1688372224
 20
8845.1570123319
 10
6147.4878412812
 20
8845.3812450055
 10
6147.7949244111
 20
8845.5970138196
 10
6148.0781656831
 20
8845.7957357053
 10
6148.3261210053
 20
8845.9699004773
 10
6148.5297304719
 20
8846.1129516248
 10
6148.680887851
 20
8846.2191671018
 10
6148.7738710969
 20
8846.2846130017
 10
6148.8053423493
 20
8846.3066667203
  0
LINE
  5
82
330
1F
100
AcDbEntity
  8
0
  6
Continuous
 62
     7
370
    25
100
AcDbLine
 10
6103.8009745209
 20
8814.6898597363
 30
0.0
 11
6147.1688372224
 21
8845.1570123319
 31
0.0
  0
LINE
  5
83
330
1F
100
AcDbEntity
  8
0
  6
Continuous
 62
     7
370
    25
100
AcDbLine
 10
6513.0951029389
 20
8232.0900410298
 30
0.0
 11
6556.4624888032
 21
8262.5571340207
 31
0.0
  0
CIRCLE
  5
84
330
1F
100
AcDbEntity
  8
0
  6
Continuous
 62
     7
370
    25
100
AcDbCircle
 10
6174.9221402997
 20
8759.5532332642
 30
0.0
 40
6.500000000001327
  0
CIRCLE
  5
85
330
1F
100
AcDbEntity
  8
0
  6
Continuous
 62
     7
370
    25
100
AcDbCircle
 10
6155.9520607147
 20
8786.5557531566
 30
0.0
 40
6.499999999998872
  0
CIRCLE
  5
86
330
1F
100
AcDbEntity
  8
0
  6
Continuous
 62
     7
370
    25
100
AcDbCircle
 10
6136.9819811296
 20
8813.5582730489
 30
0.0
 40
6.500000000000361
  0
CIRCLE
  5
87
330
1F
100
AcDbEntity
  8
0
  6
Continuous
 62
     7
370
    25
100
AcDbCircle
 10
6504.3117040039
 20
8290.6912969516
 30
0.0
 40
6.500000000000884
  0
CIRCLE
  5
88
330
1F
100
AcDbEntity
  8
0
  6
Continuous
 62
     7
370
    25
100
AcDbCircle
 10
6485.3416244188
 20
8317.693816844
 30
0.0
 40
6.49999999999835
  0
CIRCLE
  5
89
330
1F
100
AcDbEntity
  8
0
  6
Continuous
 62
     7
370
    25
100
AcDbCircle
 10
6523.2817835889
 20
8263.6887770593
 30
0.0
 40
6.499999999999838
  0
LINE
  5
8A
330
1F
100
AcDbEntity
  8
0
  6
Continuous
 62
     7
370
    25
100
AcDbLine
 10
6559.3263727753
 20
8264.5691484097
 30
0.0
 11
6795.1714617341
 21
7928.8613349084
 31
0.0
  0
CIRCLE
  5
8B
330
1F
100
AcDbEntity
  8
0
  6
Continuous
 62
     7
370
    25
100
AcDbCircle
 10
6852.6713472932
 20
7794.8268407468
 30
0.0
 40
6.500000000001185
  0
LINE
  5
8C
330
1F
100
AcDbEntity
  8
0
  6
Continuous
 62
     7
370
    25
100
AcDbLine
 10
6510.2312189667
 20
8230.0780862454
 30
0.0
 11
6795.1714617341
 21
7824.4864493493
 31
0.0
  0
LINE
  5
8D
330
1F
100
AcDbEntity
  8
0
  6
Continuous
 62
     7
370
    25
100
AcDbLine
 10
7602.4591547578
 20
8130.4554194096
 30
0.0
 11
7183.8357073395
 21
7885.5485767011
 31
0.0
  0
LINE
  5
8E
330
1F
100
AcDbEntity
  8
0
  6
Continuous
 62
     7
370
    25
100
AcDbLine
 10
7602.4591547578
 20
8130.4554194096
 30
0.0
 11
7603.216372165
 21
8129.1606873158
 31
0.0
  0
LINE
  5
8F
330
1F
100
AcDbEntity
  8
0
  6
Continuous
 62
     7
370
    25
100
AcDbLine
 10
7603.216372165
 20
8129.1606873158
 30
0.0
 11
7184.5929247468
 21
7884.2538446073
 31
0.0
  0
LINE
  5
90
330
1F
100
AcDbEntity
  8
0
  6
Continuous
 62
     7
370
    25
100
AcDbLine
 10
7183.8357073395
 20
7885.5485767011
 30
0.0
 11
7184.5929247468
 21
7884.2538446073
 31
0.0
  0
LINE
  5
91
330
1F
100
AcDbEntity
  8
0
  6
Continuous
 62
     7
370
    25
100
AcDbLine
 10
7572.9186159699
 20
8180.9491962079
 30
0.0
 11
7573.6763102143
 21
8179.6544641141
 31
0.0
  0
LINE
  5
92
330
1F
100
AcDbEntity
  8
0
  6
Continuous
 62
     7
370
    25
100
AcDbLine
 10
7573.6763102143
 20
8179.6544641141
 30
0.0
 11
7155.0528627961
 21
7934.7476214055
 31
0.0
  0
LINE
  5
93
330
1F
100
AcDbEntity
  8
0
  6
Continuous
 62
     7
370
    25
100
AcDbLine
 10
7154.2951685517
 20
7936.042323697
 30
0.0
 11
7155.0528627961
 21
7934.7476214055
 31
0.0
  0
LINE
  5
94
330
1F
100
AcDbEntity
  8
0
  6
Continuous
 62
     7
370
    25
100
AcDbLine
 10
7572.9186159699
 20
8180.9491962079
 30
0.0
 11
7154.2951685517
 21
7936.042323697
 31
0.0
  0
LWPOLYLINE
  5
95
330
1F
100
AcDbEntity
  8
0
  6
Continuous
 62
     7
370
    25
100
AcDbPolyline
 90
        9
 70
   128
 43
0.0
 10
7573.6763102143
 20
8179.6544641141
 10
7573.6958605378
 20
8179.6212643269
 10
7573.7530809968
 20
8179.5230358724
 10
7573.8465410798
 20
8179.3635338429
 10
7573.9719492524
 20
8179.1488379125
 10
7574.1250139802
 20
8178.8872331265
 10
7574.2995363801
 20
8178.5887926701
 10
7574.489317569
 20
8178.2649606351
 10
7574.6862513154
 20
8177.9281943921
  0
LINE
  5
96
330
1F
100
AcDbEntity
  8
0
  6
Continuous
 62
     7
370
    25
100
AcDbLine
 10
7574.6862513154
 20
8177.9281943921
 30
0.0
 11
7156.0628038972
 21
7933.0213516835
 31
0.0
  0
LWPOLYLINE
  5
97
330
1F
100
AcDbEntity
  8
0
  6
Continuous
 62
     7
370
    25
100
AcDbPolyline
 90
        9
 70
   128
 43
0.0
 10
7155.0528627961
 20
7934.7476214055
 10
7155.0719362824
 20
7934.7144514207
 10
7155.1296335786
 20
7934.6162229661
 10
7155.2230936616
 20
7934.4566911344
 10
7155.3485018342
 20
7934.2419952039
 10
7155.501566562
 20
7933.9804202203
 10
7155.6760889619
 20
7933.6819499616
 10
7155.8658701508
 20
7933.3581179265
 10
7156.0628038972
 20
7933.0213516835
  0
LINE
  5
98
330
1F
100
AcDbEntity
  8
0
  6
Continuous
 62
     7
370
    25
100
AcDbLine
 10
7601.4492136567
 20
8132.1816891316
 30
0.0
 11
7182.8257662385
 21
7887.274846423
 31
0.0
  0
LWPOLYLINE
  5
99
330
1F
100
AcDbEntity
  8
0
  6
Continuous
 62
     7
370
    25
100
AcDbPolyline
 90
        9
 70
   128
 43
0.0
 10
7601.4492136567
 20
8132.1816891316
 10
7601.646147403
 20
8131.8449228887
 10
7601.8354517548
 20
8131.5210908536
 10
7602.0104509919
 20
8131.2225907926
 10
7602.1635157197
 20
8130.9610456113
 10
7602.2889238923
 20
8130.7463496808
 10
7602.3823839753
 20
8130.5867880467
 10
7602.4396044343
 20
8130.4885595921
 10
7602.4591547578
 20
8130.4554194096
  0
LWPOLYLINE
  5
9A
330
1F
100
AcDbEntity
  8
0
  6
Continuous
 62
     7
370
    25
100
AcDbPolyline
 90
        9
 70
   128
 43
0.0
 10
7182.8257662385
 20
7887.274846423
 10
7183.0226999848
 20
7886.9380801801
 10
7183.2120043366
 20
7886.6142183427
 10
7183.3870035737
 20
7886.3157778863
 10
7183.5395914643
 20
7886.0541731004
 10
7183.6654764741
 20
7885.8395069722
 10
7183.7589365571
 20
7885.6799751405
 10
7183.8161570161
 20
7885.5817466859
 10
7183.8357073395
 20
7885.5485767011
  0
LINE
  5
9B
330
1F
100
AcDbEntity
  8
0
  6
Continuous
 62
     7
370
    25
100
AcDbLine
 10
7574.6862513154
 20
8177.9281943921
 30
0.0
 11
7601.4492136567
 21
8132.1816891316
 31
0.0
  0
LINE
  5
9C
330
1F
100
AcDbEntity
  8
0
  6
Continuous
 62
     7
370
    25
100
AcDbLine
 10
7156.0628038972
 20
7933.0213516835
 30
0.0
 11
7182.8257662385
 21
7887.274846423
 31
0.0
  0
CIRCLE
  5
9D
330
1F
100
AcDbEntity
  8
0
  6
Continuous
 62
     7
370
    25
100
AcDbCircle
 10
7470.6804865891
 20
8086.3800232064
 30
0.0
 40
6.500000000000925
  0
CIRCLE
  5
9E
330
1F
100
AcDbEntity
  8
0
  6
Continuous
 62
     7
370
    25
100
AcDbCircle
 10
7520.7426794371
 20
8115.6678508358
 30
0.0
 40
6.500000000001711
  0
CIRCLE
  5
9F
330
1F
100
AcDbEntity
  8
0
  6
Continuous
 62
     7
370
    25
100
AcDbCircle
 10
7570.8048722851
 20
8144.9556784652
 30
0.0
 40
6.500000000001711
  0
CIRCLE
  5
A0
330
1F
100
AcDbEntity
  8
0
  6
Continuous
 62
     7
370
    25
100
AcDbCircle
 10
7236.7692062131
 20
7949.5351734207
 30
0.0
 40
6.499999999998571
  0
CIRCLE
  5
A1
330
1F
100
AcDbEntity
  8
0
  6
Continuous
 62
     7
370
    25
100
AcDbCircle
 10
7286.8313990611
 20
7978.8230010501
 30
0.0
 40
6.500000000000141
  0
CIRCLE
  5
A2
330
1F
100
AcDbEntity
  8
0
  6
Continuous
 62
     7
370
    25
100
AcDbCircle
 10
7186.7070133651
 20
7920.2473457913
 30
0.0
 40
6.500000000001251
  0
LINE
  5
A3
330
1F
100
AcDbEntity
  8
0
  6
Continuous
 62
     7
370
    25
100
AcDbLine
 10
7154.2951685517
 20
7936.042323697
 30
0.0
 11
6910.1712328522
 21
7793.2227700833
 31
0.0
  0
LINE
  5
A4
330
1F
100
AcDbEntity
  8
0
  6
Continuous
 62
     7
370
    25
100
AcDbLine
 10
7184.5929247468
 20
7884.2538446073
 30
0.0
 11
6910.1712328522
 21
7723.7092256431
 31
0.0
  0
CIRCLE
  5
A5
330
1F
100
AcDbEntity
  8
0
  6
Continuous
 62
     7
370
    25
100
AcDbCircle
 10
7136.6448205172
 20
7890.9595181618
 30
0.0
 40
6.499999999999681
  0
CIRCLE
  5
A6
330
1F
100
AcDbEntity
  8
0
  6
Continuous
 62
     7
370
    25
100
AcDbCircle
 10
6952.7957329892
 20
7783.4024960056
 30
0.0
 40
6.500000000000141
  0
CIRCLE
  5
A7
330
1F
100
AcDbEntity
  8
0
  6
Continuous
 62
     7
370
    25
100
AcDbCircle
 10
6852.6713472932
 20
7724.8268407468
 30
0.0
 40
6.499999999999681
  0
LINE
  5
A8
330
1F
100
AcDbEntity
  8
0
  6
Continuous
 62
     7
370
    25
100
AcDbLine
 10
6363.6672121613
 20
8881.635293353
 30
0.0
 11
7396.8579393952
 21
8399.8504727963
 31
0.0
  0
LINE
  5
A9
330
1F
100
AcDbEntity
  8
0
  6
Continuous
 62
     7
370
    25
100
AcDbLine
 10
6363.6672121613
 20
8881.635293353
 30
0.0
 11
6380.5715662568
 21
8917.8876727704
 31
0.0
  0
LINE
  5
AA
330
1F
100
AcDbEntity
  8
0
  6
Continuous
 62
     7
370
    25
100
AcDbLine
 10
7413.7627703278
 20
8436.1027926091
 30
0.0
 11
7396.8579393952
 21
8399.8504727963
 31
0.0
  0
LINE
  5
AB
330
1F
100
AcDbEntity
  8
0
  6
Continuous
 62
     7
370
    25
100
AcDbLine
 10
6380.5715662568
 20
8917.8876727704
 30
0.0
 11
7413.7627703278
 21
8436.1027926091
 31
0.0
  0
LINE
  5
AC
330
1F
100
AcDbEntity
  8
0
  6
Continuous
 62
     7
370
    25
100
AcDbLine
 10
7655.1558596223
 20
8279.4042676572
 30
0.0
 11
7672.0602137177
 21
8315.65658747
 31
0.0
  0
LINE
  5
AD
330
1F
100
AcDbEntity
  8
0
  6
Continuous
 62
     7
370
    25
100
AcDbLine
 10
7913.4533030122
 20
8158.958062518
 30
0.0
 11
7930.3581339448
 21
8195.2103823308
 31
0.0
  0
LINE
  5
AE
330
1F
100
AcDbEntity
  8
0
  6
Continuous
 62
     7
370
    25
100
AcDbLine
 10
7655.1558596223
 20
8279.4042676572
 30
0.0
 11
7913.4533030122
 21
8158.958062518
 31
0.0
  0
LINE
  5
AF
330
1F
100
AcDbEntity
  8
0
  6
Continuous
 62
     7
370
    25
100
AcDbLine
 10
7672.0602137177
 20
8315.65658747
 30
0.0
 11
7930.3581339448
 21
8195.2103823308
 31
0.0
  0
LINE
  5
B0
330
1F
100
AcDbEntity
  8
0
  6
Continuous
 62
     7
370
    25
100
AcDbLine
 10
5847.0718485444
 20
9122.5277036313
 30
0.0
 11
5863.9762026398
 21
9158.7800830487
 31
0.0
  0
LINE
  5
B1
330
1F
100
AcDbEntity
  8
0
  6
Continuous
 62
     7
370
    25
100
AcDbLine
 10
6122.2741228669
 20
9038.3338779096
 30
0.0
 11
6105.3692919343
 21
9002.0814984921
 31
0.0
  0
LINE
  5
B2
330
1F
100
AcDbEntity
  8
0
  6
Continuous
 62
     7
370
    25
100
AcDbLine
 10
5847.0718485444
 20
9122.5277036313
 30
0.0
 11
6105.3692919343
 21
9002.0814984921
 31
0.0
  0
LINE
  5
B3
330
1F
100
AcDbEntity
  8
0
  6
Continuous
 62
     7
370
    25
100
AcDbLine
 10
5863.9762026398
 20
9158.7800830487
 30
0.0
 11
6122.2741228669
 21
9038.3338779096
 31
0.0
  0
LINE
  5
B4
330
1F
100
AcDbEntity
  8
0
  6
Continuous
 62
     7
370
    25
100
AcDbLine
 10
7396.8579393952
 20
8399.8504727963
 30
0.0
 11
7567.6967722504
 21
8320.1869577054
 31
0.0
  0
LINE
  5
B5
330
1F
100
AcDbEntity
  8
0
  6
Continuous
 62
     7
370
    25
100
AcDbLine
 10
7606.6681963532
 20
8302.0143359784
 30
0.0
 11
7655.1558596223
 21
8279.4042676572
 31
0.0
  0
LINE
  5
B6
330
1F
100
AcDbEntity
  8
0
  6
Continuous
 62
     7
370
    25
100
AcDbLine
 10
7672.0602137177
 20
8315.65658747
 30
0.0
 11
7413.7627703278
 21
8436.1027926091
 31
0.0
  0
LINE
  5
B7
330
1F
100
AcDbEntity
  8
0
  6
Continuous
 62
     7
370
    25
100
AcDbLine
 10
6105.3692919343
 20
9002.0814984921
 30
0.0
 11
6231.7993265717
 21
8943.1263059262
 31
0.0
  0
LINE
  5
B8
330
1F
100
AcDbEntity
  8
0
  6
Continuous
 62
     7
370
    25
100
AcDbLine
 10
6270.7702738374
 20
8924.9536841992
 30
0.0
 11
6363.6672121613
 21
8881.635293353
 31
0.0
  0
LINE
  5
B9
330
1F
100
AcDbEntity
  8
0
  6
Continuous
 62
     7
370
    25
100
AcDbLine
 10
6380.5715662568
 20
8917.8876727704
 30
0.0
 11
6122.2741228669
 21
9038.3338779096
 31
0.0
  0
LINE
  5
BA
330
1F
100
AcDbEntity
  8
0
  6
Continuous
 62
     7
370
    25
100
AcDbLine
 10
6194.8177439301
 20
8872.1008151654
 30
0.0
 11
6196.1772066682
 21
8871.4668601636
 31
0.0
  0
LINE
  5
BB
330
1F
100
AcDbEntity
  8
0
  6
Continuous
 62
     7
370
    25
100
AcDbLine
 10
6187.8444773286
 20
8857.146725047
 30
0.0
 11
6189.2039400666
 21
8856.5127700452
 31
0.0
  0
LINE
  5
BC
330
1F
100
AcDbEntity
  8
0
  6
Continuous
 62
     7
370
    25
100
AcDbLine
 10
6194.8177439301
 20
8872.1008151654
 30
0.0
 11
6187.8444773286
 21
8857.146725047
 31
0.0
  0
LINE
  5
BD
330
1F
100
AcDbEntity
  8
0
  6
Continuous
 62
     7
370
    25
100
AcDbLine
 10
6196.1772066682
 20
8871.4668601636
 30
0.0
 11
6189.2039400666
 21
8856.5127700452
 31
0.0
  0
LINE
  5
BE
330
1F
100
AcDbEntity
  8
0
  6
Continuous
 62
     7
370
    25
100
AcDbLine
 10
6190.1714426606
 20
8853.8549989346
 30
0.0
 11
6189.5372492402
 21
8852.4955361966
 31
0.0
  0
LINE
  5
BF
330
1F
100
AcDbEntity
  8
0
  6
Continuous
 62
     7
370
    25
100
AcDbLine
 10
6228.508673343
 20
8834.3229144696
 30
0.0
 11
6229.1423899262
 21
8835.6823772077
 31
0.0
  0
LINE
  5
C0
330
1F
100
AcDbEntity
  8
0
  6
Continuous
 62
     7
370
    25
100
AcDbLine
 10
6190.1714426606
 20
8853.8549989346
 30
0.0
 11
6229.1423899262
 21
8835.6823772077
 31
0.0
  0
LINE
  5
C1
330
1F
100
AcDbEntity
  8
0
  6
Continuous
 62
     7
370
    25
100
AcDbLine
 10
6189.5372492402
 20
8852.4955361966
 30
0.0
 11
6228.508673343
 21
8834.3229144696
 31
0.0
  0
ARC
  5
C2
330
1F
100
AcDbEntity
  8
0
  6
Continuous
 62
     7
370
    25
100
AcDbCircle
 10
6191.016604792
 20
8855.6675672863
 30
0.0
 40
3.500000000001389
100
AcDbArc
 50
155.0
 51
245.0
  0
ARC
  5
C3
330
1F
100
AcDbEntity
  8
0
  6
Continuous
 62
     7
370
    25
100
AcDbCircle
 10
6191.016604792
 20
8855.6675672863
 30
0.0
 40
2.000000000001855
100
AcDbArc
 50
155.0000000001
 51
244.9999999999
  0
LINE
  5
C4
330
1F
100
AcDbEntity
  8
0
  6
Continuous
 62
     7
370
    25
100
AcDbLine
 10
6231.800280246
 20
8836.6497605924
 30
0.0
 11
6233.1597429841
 21
8836.0158055905
 31
0.0
  0
ARC
  5
C5
330
1F
100
AcDbEntity
  8
0
  6
Continuous
 62
     7
370
    25
100
AcDbCircle
 10
6229.9878396346
 20
8837.4949820315
 30
0.0
 40
1.999999999999655
100
AcDbArc
 50
244.9999999999
 51
335.0
  0
ARC
  5
C6
330
1F
100
AcDbEntity
  8
0
  6
Continuous
 62
     7
370
    25
100
AcDbCircle
 10
6229.9878396346
 20
8837.4949820315
 30
0.0
 40
3.500000000001005
100
AcDbArc
 50
245.0
 51
335.0
  0
ARC
  5
C7
330
1F
100
AcDbEntity
  8
0
  6
Continuous
 62
     7
370
    25
100
AcDbCircle
 10
6230.3201031339
 20
8939.9541914807
 30
0.0
 40
2.000000000004217
100
AcDbArc
 50
65.0000000001
 51
155.0
  0
LINE
  5
C8
330
1F
100
AcDbEntity
  8
0
  6
Continuous
 62
     7
370
    25
100
AcDbLine
 10
6228.5077196687
 20
8940.7994598035
 30
0.0
 11
6227.1482569306
 21
8941.4334148053
 31
0.0
  0
ARC
  5
C9
330
1F
100
AcDbEntity
  8
0
  6
Continuous
 62
     7
370
    25
100
AcDbCircle
 10
6230.3201031339
 20
8939.9541914807
 30
0.0
 40
3.499999999999194
100
AcDbArc
 50
65.0000000001
 51
155.0
  0
LINE
  5
CA
330
1F
100
AcDbEntity
  8
0
  6
Continuous
 62
     7
370
    25
100
AcDbLine
 10
6231.7993265717
 20
8943.1263059262
 30
0.0
 11
6231.1651331513
 21
8941.7668431882
 31
0.0
  0
LINE
  5
CB
330
1F
100
AcDbEntity
  8
0
  6
Continuous
 62
     7
370
    25
100
AcDbLine
 10
6270.1365572541
 20
8923.5942214612
 30
0.0
 11
6270.7702738374
 21
8924.9536841992
 31
0.0
  0
LINE
  5
CC
330
1F
100
AcDbEntity
  8
0
  6
Continuous
 62
     7
370
    25
100
AcDbLine
 10
6270.1365572541
 20
8923.5942214612
 30
0.0
 11
6231.1651331513
 21
8941.7668431882
 31
0.0
  0
LINE
  5
CD
330
1F
100
AcDbEntity
  8
0
  6
Continuous
 62
     7
370
    25
100
AcDbLine
 10
6270.7702738374
 20
8924.9536841992
 30
0.0
 11
6231.7993265717
 21
8943.1263059262
 31
0.0
  0
LINE
  5
CE
330
1F
100
AcDbEntity
  8
0
  6
Continuous
 62
     7
370
    25
100
AcDbLine
 10
6228.5077196687
 20
8940.7994598035
 30
0.0
 11
6221.5344530671
 21
8925.8453696851
 31
0.0
  0
LINE
  5
CF
330
1F
100
AcDbEntity
  8
0
  6
Continuous
 62
     7
370
    25
100
AcDbLine
 10
6221.5344530671
 20
8925.8453696851
 30
0.0
 11
6220.1749903291
 21
8926.4793246869
 31
0.0
  0
LINE
  5
D0
330
1F
100
AcDbEntity
  8
0
  6
Continuous
 62
     7
370
    25
100
AcDbLine
 10
6227.1482569306
 20
8941.4334148053
 30
0.0
 11
6220.1749903291
 21
8926.4793246869
 31
0.0
  0
LINE
  5
D1
330
1F
100
AcDbEntity
  8
0
  6
Continuous
 62
     7
370
    25
100
AcDbLine
 10
6272.4635225861
 20
8920.3024953488
 30
0.0
 11
6271.1040598481
 21
8920.9363311414
 31
0.0
  0
LINE
  5
D2
330
1F
100
AcDbEntity
  8
0
  6
Continuous
 62
     7
370
    25
100
AcDbLine
 10
6231.800280246
 20
8836.6497605924
 30
0.0
 11
6271.1040598481
 21
8920.9363311414
 31
0.0
  0
LINE
  5
D3
330
1F
100
AcDbEntity
  8
0
  6
Continuous
 62
     7
370
    25
100
AcDbLine
 10
6233.1597429841
 20
8836.0158055905
 30
0.0
 11
6272.4635225861
 21
8920.3024953488
 31
0.0
  0
ARC
  5
D4
330
1F
100
AcDbEntity
  8
0
  6
Continuous
 62
     7
370
    25
100
AcDbCircle
 10
6269.2913379765
 20
8921.7816062259
 30
0.0
 40
3.499999999999578
100
AcDbArc
 50
335.0
 51
65.0000000001
  0
ARC
  5
D5
330
1F
100
AcDbEntity
  8
0
  6
Continuous
 62
     7
370
    25
100
AcDbCircle
 10
6269.2913379765
 20
8921.7816062259
 30
0.0
 40
2.000000000001141
100
AcDbArc
 50
335.0
 51
65.0000000002
  0
LINE
  5
D6
330
1F
100
AcDbEntity
  8
0
  6
Continuous
 62
     7
370
    25
100
AcDbLine
 10
7530.7151896088
 20
8249.1614669446
 30
0.0
 11
7532.0746523469
 21
8248.5275715474
 31
0.0
  0
LINE
  5
D7
330
1F
100
AcDbEntity
  8
0
  6
Continuous
 62
     7
370
    25
100
AcDbLine
 10
7532.0746523469
 20
8248.5275715474
 30
0.0
 11
7525.1018625825
 21
8233.573481429
 31
0.0
  0
LINE
  5
D8
330
1F
100
AcDbEntity
  8
0
  6
Continuous
 62
     7
370
    25
100
AcDbLine
 10
7523.7423998444
 20
8234.2074364308
 30
0.0
 11
7525.1018625825
 21
8233.573481429
 31
0.0
  0
LINE
  5
D9
330
1F
100
AcDbEntity
  8
0
  6
Continuous
 62
     7
370
    25
100
AcDbLine
 10
7530.7151896088
 20
8249.1614669446
 30
0.0
 11
7523.7423998444
 21
8234.2074364308
 31
0.0
  0
LINE
  5
DA
330
1F
100
AcDbEntity
  8
0
  6
Continuous
 62
     7
370
    25
100
AcDbLine
 10
7526.0688883393
 20
8230.9156507138
 30
0.0
 11
7525.4351717561
 21
8229.5561879758
 31
0.0
  0
LINE
  5
DB
330
1F
100
AcDbEntity
  8
0
  6
Continuous
 62
     7
370
    25
100
AcDbLine
 10
7564.4061190217
 20
8211.3835662488
 30
0.0
 11
7565.0403124421
 21
8212.7430289868
 31
0.0
  0
LINE
  5
DC
330
1F
100
AcDbEntity
  8
0
  6
Continuous
 62
     7
370
    25
100
AcDbLine
 10
7526.0688883393
 20
8230.9156507138
 30
0.0
 11
7565.0403124421
 21
8212.7430289868
 31
0.0
  0
LINE
  5
DD
330
1F
100
AcDbEntity
  8
0
  6
Continuous
 62
     7
370
    25
100
AcDbLine
 10
7525.4351717561
 20
8229.5561879758
 30
0.0
 11
7564.4061190217
 21
8211.3835662488
 31
0.0
  0
ARC
  5
DE
330
1F
100
AcDbEntity
  8
0
  6
Continuous
 62
     7
370
    25
100
AcDbCircle
 10
7526.9142828841
 20
8232.7282494805
 30
0.0
 40
3.500000000002653
100
AcDbArc
 50
155.0
 51
245.0
  0
ARC
  5
DF
330
1F
100
AcDbEntity
  8
0
  6
Continuous
 62
     7
370
    25
100
AcDbCircle
 10
7526.9142828841
 20
8232.7282494805
 30
0.0
 40
2.000000000000206
100
AcDbArc
 50
155.0000000001
 51
244.9999999999
  0
LINE
  5
E0
330
1F
100
AcDbEntity
  8
0
  6
Continuous
 62
     7
370
    25
100
AcDbLine
 10
7567.6982027619
 20
8213.7104123715
 30
0.0
 11
7569.0576654999
 21
8213.0765169743
 31
0.0
  0
ARC
  5
E1
330
1F
100
AcDbEntity
  8
0
  6
Continuous
 62
     7
370
    25
100
AcDbCircle
 10
7565.8855177266
 20
8214.5556642257
 30
0.0
 40
1.999999999998391
100
AcDbArc
 50
244.9999999999
 51
335.0
  0
ARC
  5
E2
330
1F
100
AcDbEntity
  8
0
  6
Continuous
 62
     7
370
    25
100
AcDbCircle
 10
7565.8855177266
 20
8214.5556642257
 30
0.0
 40
3.50000000000106
100
AcDbArc
 50
245.0
 51
335.0
  0
LINE
  5
E3
330
1F
100
AcDbEntity
  8
0
  6
Continuous
 62
     7
370
    25
100
AcDbLine
 10
7606.03447977
 20
8300.654932845
 30
0.0
 11
7606.6681963532
 21
8302.0143359784
 31
0.0
  0
LINE
  5
E4
330
1F
100
AcDbEntity
  8
0
  6
Continuous
 62
     7
370
    25
100
AcDbLine
 10
7567.6967722504
 20
8320.1869577054
 30
0.0
 11
7567.0630556672
 21
8318.8274949674
 31
0.0
  0
LINE
  5
E5
330
1F
100
AcDbEntity
  8
0
  6
Continuous
 62
     7
370
    25
100
AcDbLine
 10
7606.03447977
 20
8300.654932845
 30
0.0
 11
7567.0630556672
 21
8318.8274949674
 31
0.0
  0
LINE
  5
E6
330
1F
100
AcDbEntity
  8
0
  6
Continuous
 62
     7
370
    25
100
AcDbLine
 10
7606.6681963532
 20
8302.0143359784
 30
0.0
 11
7567.6967722504
 21
8320.1869577054
 31
0.0
  0
LINE
  5
E7
330
1F
100
AcDbEntity
  8
0
  6
Continuous
 62
     7
370
    25
100
AcDbLine
 10
7564.4051653474
 20
8317.8601115827
 30
0.0
 11
7563.0457026093
 21
8318.4940665845
 31
0.0
  0
ARC
  5
E8
330
1F
100
AcDbEntity
  8
0
  6
Continuous
 62
     7
370
    25
100
AcDbCircle
 10
7566.217781226
 20
8317.0148736749
 30
0.0
 40
2.000000000003448
100
AcDbArc
 50
65.0000000001
 51
155.0000000001
  0
ARC
  5
E9
330
1F
100
AcDbEntity
  8
0
  6
Continuous
 62
     7
370
    25
100
AcDbCircle
 10
7566.217781226
 20
8317.0148736749
 30
0.0
 40
3.499999999997161
100
AcDbArc
 50
65.0000000001
 51
155.0
  0
LINE
  5
EA
330
1F
100
AcDbEntity
  8
0
  6
Continuous
 62
     7
370
    25
100
AcDbLine
 10
7557.4318987458
 20
8302.9060214642
 30
0.0
 11
7556.0724360078
 21
8303.5399764661
 31
0.0
  0
LINE
  5
EB
330
1F
100
AcDbEntity
  8
0
  6
Continuous
 62
     7
370
    25
100
AcDbLine
 10
7563.0457026093
 20
8318.4940665845
 30
0.0
 11
7556.0724360078
 21
8303.5399764661
 31
0.0
  0
LINE
  5
EC
330
1F
100
AcDbEntity
  8
0
  6
Continuous
 62
     7
370
    25
100
AcDbLine
 10
7564.4051653474
 20
8317.8601115827
 30
0.0
 11
7557.4318987458
 21
8302.9060214642
 31
0.0
  0
LINE
  5
ED
330
1F
100
AcDbEntity
  8
0
  6
Continuous
 62
     7
370
    25
100
AcDbLine
 10
7608.3609682648
 20
8297.363147128
 30
0.0
 11
7607.0015055268
 21
8297.9970425252
 31
0.0
  0
LINE
  5
EE
330
1F
100
AcDbEntity
  8
0
  6
Continuous
 62
     7
370
    25
100
AcDbLine
 10
7567.6982027619
 20
8213.7104123715
 30
0.0
 11
7607.0015055268
 21
8297.9970425252
 31
0.0
  0
LINE
  5
EF
330
1F
100
AcDbEntity
  8
0
  6
Continuous
 62
     7
370
    25
100
AcDbLine
 10
7569.0576654999
 20
8213.0765169743
 30
0.0
 11
7608.3609682648
 21
8297.363147128
 31
0.0
  0
ARC
  5
F0
330
1F
100
AcDbEntity
  8
0
  6
Continuous
 62
     7
370
    25
100
AcDbCircle
 10
7605.1890160685
 20
8298.8422884201
 30
0.0
 40
3.499999999998314
100
AcDbArc
 50
335.0
 51
65.0000000001
  0
ARC
  5
F1
330
1F
100
AcDbEntity
  8
0
  6
Continuous
 62
     7
370
    25
100
AcDbCircle
 10
7605.1890160685
 20
8298.8422884201
 30
0.0
 40
1.999999999999493
100
AcDbArc
 50
335.0
 51
65.0000000002
  0
LINE
  5
F2
330
1F
100
AcDbEntity
  8
0
  6
Continuous
 62
     7
370
    25
100
AcDbLine
 10
7683.5858446686
 20
8155.8092683438
 30
0.0
 11
7564.4061190217
 21
8211.3835662488
 31
0.0
  0
LINE
  5
F3
330
1F
100
AcDbEntity
  8
0
  6
Continuous
 62
     7
370
    25
100
AcDbLine
 10
7525.4351717561
 20
8229.5561879758
 30
0.0
 11
6910.1712328522
 21
8516.4583772305
 31
0.0
  0
LINE
  5
F4
330
1F
100
AcDbEntity
  8
0
  6
Continuous
 62
     7
370
    25
100
AcDbLine
 10
6892.2249895661
 20
8524.826869357
 30
0.0
 11
6228.508673343
 21
8834.3229144696
 31
0.0
  0
LINE
  5
F5
330
1F
100
AcDbEntity
  8
0
  6
Continuous
 62
     7
370
    25
100
AcDbLine
 10
6189.5372492402
 20
8852.4955361966
 30
0.0
 11
6070.3580004304
 21
8908.0698341016
 31
0.0
  0
LWPOLYLINE
  5
F6
330
1F
100
AcDbEntity
  8
0
  6
Continuous
 62
     7
370
    25
100
AcDbPolyline
 90
        9
 70
   128
 43
0.0
 10
7681.6842180817
 20
8151.7308801297
 10
7682.0551973908
 20
8152.5265425328
 10
7682.4118715852
 20
8153.2916277532
 10
7682.7404123872
 20
8153.9967507008
 10
7683.0288988679
 20
8154.6147316579
 10
7683.2654100983
 20
8155.1219671849
 10
7683.4408861726
 20
8155.4988473538
 10
7683.5491282075
 20
8155.7309478406
 10
7683.5858446686
 20
8155.8092683438
  0
LWPOLYLINE
  5
F7
330
1F
100
AcDbEntity
  8
0
  6
Continuous
 62
     7
370
    25
100
AcDbPolyline
 90
        9
 70
   128
 43
0.0
 10
6068.4563738435
 20
8903.9914458875
 10
6068.8273531525
 20
8904.7870486859
 10
6069.1840273469
 20
8905.5521339063
 10
6069.5125681489
 20
8906.257256854
 10
6069.8010546296
 20
8906.875237811
 10
6070.0375658601
 20
8907.382473338
 10
6070.2130419343
 20
8907.7592939023
 10
6070.3212839692
 20
8907.991394389
 10
6070.3580004304
 20
8908.0698341016
  0
LINE
  5
F8
330
1F
100
AcDbEntity
  8
0
  6
Continuous
 62
     7
370
    25
100
AcDbLine
 10
7636.8863207429
 20
8055.6622594479
 30
0.0
 11
7681.6842180817
 21
8151.7308801297
 31
0.0
  0
LINE
  5
F9
330
1F
100
AcDbEntity
  8
0
  6
Continuous
 62
     7
370
    25
100
AcDbLine
 10
6023.6584765046
 20
8807.9228252057
 30
0.0
 11
6068.4563738435
 21
8903.9914458875
 31
0.0
  0
LINE
  5
FA
330
1F
100
AcDbEntity
  8
0
  6
Continuous
 62
     7
370
    25
100
AcDbLine
 10
7293.6184031098
 20
8281.3818901662
 30
0.0
 11
7214.7695643037
 21
8318.149670947
 31
0.0
  0
ARC
  5
FB
330
1F
100
AcDbEntity
  8
0
  6
Continuous
 62
     7
370
    25
100
AcDbCircle
 10
7212.0223848532
 20
8312.2586999666
 30
0.0
 40
6.500000000001944
100
AcDbArc
 50
65.0
 51
245.0
  0
LINE
  5
FC
330
1F
100
AcDbEntity
  8
0
  6
Continuous
 62
     7
370
    25
100
AcDbLine
 10
7209.2754465668
 20
8306.3676804189
 30
0.0
 11
7288.124285373
 21
8269.5998996381
 31
0.0
  0
ARC
  5
FD
330
1F
100
AcDbEntity
  8
0
  6
Continuous
 62
     7
370
    25
100
AcDbCircle
 10
7290.8711623254
 20
8275.4909111951
 30
0.0
 40
6.50000000000156
100
AcDbArc
 50
245.0
 51
65.0
  0
CIRCLE
  5
FE
330
1F
100
AcDbEntity
  8
0
  6
Continuous
 62
     7
370
    25
100
AcDbCircle
 10
6079.28056805
 20
8868.0493318284
 30
0.0
 40
6.500000000000463
  0
CIRCLE
  5
FF
330
1F
100
AcDbEntity
  8
0
  6
Continuous
 62
     7
370
    25
100
AcDbCircle
 10
6058.1496549629
 20
8822.7339424766
 30
0.0
 40
6.500000000000407
  0
CIRCLE
  5
100
330
1F
100
AcDbEntity
  8
0
  6
Continuous
 62
     7
370
    25
100
AcDbCircle
 10
6215.2267361055
 20
8804.6565925673
 30
0.0
 40
6.499999999999583
  0
LINE
  5
101
330
1F
100
AcDbEntity
  8
0
  6
Continuous
 62
     7
370
    25
100
AcDbLine
 10
6859.1711145966
 20
8483.9678257588
 30
0.0
 11
6846.1715799897
 21
8490.0297969464
 31
0.0
  0
LINE
  5
102
330
1F
100
AcDbEntity
  8
0
  6
Continuous
 62
     7
370
    25
100
AcDbLine
 10
6846.1715799897
 20
8475.6858795766
 30
0.0
 11
6859.1711145966
 21
8469.623908389
 31
0.0
  0
LINE
  5
103
330
1F
100
AcDbEntity
  8
0
  6
Continuous
 62
     7
370
    25
100
AcDbLine
 10
6411.7242914765
 20
8678.2717555646
 30
0.0
 11
6490.5731302827
 21
8641.5040343884
 31
0.0
  0
ARC
  5
104
330
1F
100
AcDbEntity
  8
0
  6
Continuous
 62
     7
370
    25
100
AcDbCircle
 10
6493.3203097331
 20
8647.394981527
 30
0.0
 40
6.500000000000407
100
AcDbArc
 50
245.0
 51
65.0
  0
LINE
  5
105
330
1F
100
AcDbEntity
  8
0
  6
Continuous
 62
     7
370
    25
100
AcDbLine
 10
6496.0672480195
 20
8653.2859653119
 30
0.0
 11
6417.2184092133
 21
8690.0538056973
 31
0.0
  0
ARC
  5
106
330
1F
100
AcDbEntity
  8
0
  6
Continuous
 62
     7
370
    25
100
AcDbCircle
 10
6414.4715322609
 20
8684.1627702984
 30
0.0
 40
6.500000000001175
100
AcDbArc
 50
65.0
 51
245.0
  0
ARC
  5
107
330
1F
100
AcDbEntity
  8
0
  6
Continuous
 62
     7
370
    25
100
AcDbCircle
 10
6119.921501474
 20
8821.5137053641
 30
0.0
 40
6.499999999999966
100
AcDbArc
 50
69.6055560301
 51
180.5728260831
  0
CIRCLE
  5
108
330
1F
100
AcDbEntity
  8
0
  6
Continuous
 62
     7
370
    25
100
AcDbCircle
 10
7626.0621265364
 20
8091.6043496652
 30
0.0
 40
6.499999999999198
  0
CIRCLE
  5
109
330
1F
100
AcDbEntity
  8
0
  6
Continuous
 62
     7
370
    25
100
AcDbCircle
 10
7647.1930396234
 20
8136.919739017
 30
0.0
 40
6.499999999999198
  0
CIRCLE
  5
10A
330
1F
100
AcDbEntity
  8
0
  6
Continuous
 62
     7
370
    25
100
AcDbCircle
 10
7511.2468715679
 20
8200.3124782781
 30
0.0
 40
6.500000000001231
  0
CIRCLE
  5
10B
330
1F
100
AcDbEntity
  8
0
  6
Continuous
 62
     7
370
    25
100
AcDbCircle
 10
7490.1159584809
 20
8154.9970889263
 30
0.0
 40
6.499999999999583
  0
LWPOLYLINE
  5
10C
330
1F
100
AcDbEntity
  8
0
  6
Continuous
 62
     7
370
    25
100
AcDbPolyline
 90
        9
 70
   128
 43
0.0
 10
7634.984694156
 20
8051.5839010362
 10
7635.0214106171
 20
8051.6622513417
 10
7635.129652652
 20
8051.8943518285
 10
7635.3051287263
 20
8052.2712319974
 10
7635.5416399567
 20
8052.7784079198
 10
7635.8301264374
 20
8053.3964484815
 10
7636.1586672395
 20
8054.1015416268
 10
7636.5153414338
 20
8054.8665970448
 10
7636.8863207429
 20
8055.6622594479
  0
LINE
  5
10D
330
1F
100
AcDbEntity
  8
0
  6
Continuous
 62
     7
370
    25
100
AcDbLine
 10
7634.984694156
 20
8051.5839010362
 30
0.0
 11
7543.5182673066
 21
8094.2354053143
 31
0.0
  0
LINE
  5
10E
330
1F
100
AcDbEntity
  8
0
  6
Continuous
 62
     7
370
    25
100
AcDbLine
 10
7477.3990732758
 20
8125.0673383359
 30
0.0
 11
6910.1712328522
 21
8389.5699232701
 31
0.0
  0
LINE
  5
10F
330
1F
100
AcDbEntity
  8
0
  6
Continuous
 62
     7
370
    25
100
AcDbLine
 10
6795.1714617341
 20
8443.1953281049
 30
0.0
 11
6257.7941042512
 21
8693.7783807401
 31
0.0
  0
LINE
  5
110
330
1F
100
AcDbEntity
  8
0
  6
Continuous
 62
     7
370
    25
100
AcDbLine
 10
6148.7428766816
 20
8744.6297258023
 30
0.0
 11
6021.7568499177
 21
8803.8444369916
 31
0.0
  0
LWPOLYLINE
  5
111
330
1F
100
AcDbEntity
  8
0
  6
Continuous
 62
     7
370
    25
100
AcDbPolyline
 90
        9
 70
   128
 43
0.0
 10
6021.7568499177
 20
8803.8444369916
 10
6021.7935663789
 20
8803.9227574948
 10
6021.9018084138
 20
8804.1548579816
 10
6022.077284488
 20
8804.5316785458
 10
6022.3137957185
 20
8805.0389140729
 10
6022.6022821992
 20
8805.6568950299
 10
6022.9308230012
 20
8806.3620179776
 10
6023.2874971955
 20
8807.1271031979
 10
6023.6584765046
 20
8807.9228252057
  0
LINE
  5
112
330
1F
100
AcDbEntity
  8
0
  6
Continuous
 62
     7
370
    25
100
AcDbLine
 10
6799.671373996
 20
8524.826869357
 30
0.0
 11
6799.671373996
 21
6154.8268645886
 31
0.0
  0
LINE
  5
113
330
1F
100
AcDbEntity
  8
0
  6
Continuous
 62
     7
370
    25
100
AcDbLine
 10
6815.1714426606
 20
8524.826869357
 30
0.0
 11
6799.671373996
 21
8524.826869357
 31
0.0
  0
LINE
  5
114
330
1F
100
AcDbEntity
  8
0
  6
Continuous
 62
     7
370
    25
100
AcDbLine
 10
6815.1714426606
 20
8524.826869357
 30
0.0
 11
6815.1714426606
 21
6154.8268645886
 31
0.0
  0
LINE
  5
115
330
1F
100
AcDbEntity
  8
0
  6
Continuous
 62
     7
370
    25
100
AcDbLine
 10
6815.1714426606
 20
6154.8268645886
 30
0.0
 11
6799.671373996
 21
6154.8268645886
 31
0.0
  0
LINE
  5
116
330
1F
100
AcDbEntity
  8
0
  6
Continuous
 62
     7
370
    25
100
AcDbLine
 10
6795.1714617341
 20
8524.826869357
 30
0.0
 11
6795.1714617341
 21
6154.8268645886
 31
0.0
  0
LINE
  5
117
330
1F
100
AcDbEntity
  8
0
  6
Continuous
 62
     7
370
    25
100
AcDbLine
 10
6799.671373996
 20
6154.8268645886
 30
0.0
 11
6795.1714617341
 21
6154.8268645886
 31
0.0
  0
LINE
  5
118
330
1F
100
AcDbEntity
  8
0
  6
Continuous
 62
     7
370
    25
100
AcDbLine
 10
6799.671373996
 20
8524.826869357
 30
0.0
 11
6795.1714617341
 21
8524.826869357
 31
0.0
  0
LINE
  5
119
330
1F
100
AcDbEntity
  8
0
  6
Continuous
 62
     7
370
    25
100
AcDbLine
 10
6905.6713205903
 20
8524.826869357
 30
0.0
 11
6905.6713205903
 21
6154.8268645886
 31
0.0
  0
LINE
  5
11A
330
1F
100
AcDbEntity
  8
0
  6
Continuous
 62
     7
370
    25
100
AcDbLine
 10
6910.1712328522
 20
8524.826869357
 30
0.0
 11
6905.6713205903
 21
8524.826869357
 31
0.0
  0
LINE
  5
11B
330
1F
100
AcDbEntity
  8
0
  6
Continuous
 62
     7
370
    25
100
AcDbLine
 10
6910.1712328522
 20
8524.826869357
 30
0.0
 11
6910.1712328522
 21
6154.8268645886
 31
0.0
  0
LINE
  5
11C
330
1F
100
AcDbEntity
  8
0
  6
Continuous
 62
     7
370
    25
100
AcDbLine
 10
6910.1712328522
 20
6154.8268645886
 30
0.0
 11
6905.6713205903
 21
6154.8268645886
 31
0.0
  0
LINE
  5
11D
330
1F
100
AcDbEntity
  8
0
  6
Continuous
 62
     7
370
    25
100
AcDbLine
 10
6905.6713205903
 20
8524.826869357
 30
0.0
 11
6890.1712519257
 21
8524.826869357
 31
0.0
  0
LINE
  5
11E
330
1F
100
AcDbEntity
  8
0
  6
Continuous
 62
     7
370
    25
100
AcDbLine
 10
6890.1712519257
 20
8524.826869357
 30
0.0
 11
6890.1712519257
 21
6154.8268645886
 31
0.0
  0
LINE
  5
11F
330
1F
100
AcDbEntity
  8
0
  6
Continuous
 62
     7
370
    25
100
AcDbLine
 10
6905.6713205903
 20
6154.8268645886
 30
0.0
 11
6890.1712519257
 21
6154.8268645886
 31
0.0
  0
ARC
  5
120
330
1F
100
AcDbEntity
  8
0
  6
Continuous
 62
     7
370
    25
100
AcDbCircle
 10
6850.1713472932
 20
8394.8268407468
 30
0.0
 40
6.5
100
AcDbArc
 50
90.0
 51
270.0
  0
LINE
  5
121
330
1F
100
AcDbEntity
  8
0
  6
Continuous
 62
     7
370
    25
100
AcDbLine
 10
6855.1714045136
 20
8388.3268684033
 30
0.0
 11
6850.1712900727
 21
8388.3268684033
 31
0.0
  0
ARC
  5
122
330
1F
100
AcDbEntity
  8
0
  6
Continuous
 62
     7
370
    25
100
AcDbCircle
 10
6855.1713472932
 20
8394.8268407468
 30
0.0
 40
6.5
100
AcDbArc
 50
270.0
 51
90.0
  0
LINE
  5
123
330
1F
100
AcDbEntity
  8
0
  6
Continuous
 62
     7
370
    25
100
AcDbLine
 10
6850.1712900727
 20
8401.3268202428
 30
0.0
 11
6855.1714045136
 21
8401.3268202428
 31
0.0
  0
ARC
  5
124
330
1F
100
AcDbEntity
  8
0
  6
Continuous
 62
     7
370
    25
100
AcDbCircle
 10
6855.1713472932
 20
7654.8268407468
 30
0.0
 40
6.5
100
AcDbArc
 50
270.0
 51
90.0
  0
LINE
  5
125
330
1F
100
AcDbEntity
  8
0
  6
Continuous
 62
     7
370
    25
100
AcDbLine
 10
6850.1712900727
 20
7661.3268405084
 30
0.0
 11
6855.1714045136
 21
7661.3268405084
 31
0.0
  0
ARC
  5
126
330
1F
100
AcDbEntity
  8
0
  6
Continuous
 62
     7
370
    25
100
AcDbCircle
 10
6850.1713472932
 20
7654.8268407468
 30
0.0
 40
6.5
100
AcDbArc
 50
90.0
 51
270.0
  0
LINE
  5
127
330
1F
100
AcDbEntity
  8
0
  6
Continuous
 62
     7
370
    25
100
AcDbLine
 10
6855.1714045136
 20
7648.3268439654
 30
0.0
 11
6850.1712900727
 21
7648.3268439654
 31
0.0
  0
ARC
  5
128
330
1F
100
AcDbEntity
  8
0
  6
Continuous
 62
     7
370
    25
100
AcDbCircle
 10
6855.1713472932
 20
7794.8268407468
 30
0.0
 40
6.500000000000909
100
AcDbArc
 50
270.0
 51
90.0
  0
LINE
  5
129
330
1F
100
AcDbEntity
  8
0
  6
Continuous
 62
     7
370
    25
100
AcDbLine
 10
6850.1712900727
 20
7801.3268411044
 30
0.0
 11
6855.1714045136
 21
7801.3268411044
 31
0.0
  0
ARC
  5
12A
330
1F
100
AcDbEntity
  8
0
  6
Continuous
 62
     7
370
    25
100
AcDbCircle
 10
6850.1713472932
 20
7794.8268407468
 30
0.0
 40
6.500000000000909
100
AcDbArc
 50
90.0
 51
270.0
  0
LINE
  5
12B
330
1F
100
AcDbEntity
  8
0
  6
Continuous
 62
     7
370
    25
100
AcDbLine
 10
6855.1714045136
 20
7788.3268445615
 30
0.0
 11
6850.1712900727
 21
7788.3268445615
 31
0.0
  0
ARC
  5
12C
330
1F
100
AcDbEntity
  8
0
  6
Continuous
 62
     7
370
    25
100
AcDbCircle
 10
6850.1713472932
 20
7724.8268407468
 30
0.0
 40
6.500000000000909
100
AcDbArc
 50
90.0
 51
270.0
  0
LINE
  5
12D
330
1F
100
AcDbEntity
  8
0
  6
Continuous
 62
     7
370
    25
100
AcDbLine
 10
6855.1714045136
 20
7718.3268368129
 30
0.0
 11
6850.1712900727
 21
7718.3268368129
 31
0.0
  0
ARC
  5
12E
330
1F
100
AcDbEntity
  8
0
  6
Continuous
 62
     7
370
    25
100
AcDbCircle
 10
6855.1713472932
 20
7724.8268407468
 30
0.0
 40
6.500000000000909
100
AcDbArc
 50
270.0
 51
90.0
  0
LINE
  5
12F
330
1F
100
AcDbEntity
  8
0
  6
Continuous
 62
     7
370
    25
100
AcDbLine
 10
6850.1712900727
 20
7731.3268333558
 30
0.0
 11
6855.1714045136
 21
7731.3268333558
 31
0.0
  0
ARC
  5
130
330
1F
100
AcDbEntity
  8
0
  6
Continuous
 62
     7
370
    25
100
AcDbCircle
 10
6850.1713472932
 20
8344.8268407468
 30
0.0
 40
6.5
100
AcDbArc
 50
90.0
 51
270.0
  0
LINE
  5
131
330
1F
100
AcDbEntity
  8
0
  6
Continuous
 62
     7
370
    25
100
AcDbLine
 10
6855.1714045136
 20
8338.3268564824
 30
0.0
 11
6850.1712900727
 21
8338.3268564824
 31
0.0
  0
ARC
  5
132
330
1F
100
AcDbEntity
  8
0
  6
Continuous
 62
     7
370
    25
100
AcDbCircle
 10
6855.1713472932
 20
8344.8268407468
 30
0.0
 40
6.5
100
AcDbArc
 50
270.0
 51
90.0
  0
LINE
  5
133
330
1F
100
AcDbEntity
  8
0
  6
Continuous
 62
     7
370
    25
100
AcDbLine
 10
6850.1712900727
 20
8351.3268679265
 30
0.0
 11
6855.1714045136
 21
8351.3268679265
 31
0.0
  0
ARC
  5
134
330
1F
100
AcDbEntity
  8
0
  6
Continuous
 62
     7
370
    25
100
AcDbCircle
 10
6852.6713472932
 20
8456.3268407468
 30
0.0
 40
6.500000000000909
100
AcDbArc
 50
180.0
 51
0.0
  0
LINE
  5
135
330
1F
100
AcDbEntity
  8
0
  6
Continuous
 62
     7
370
    25
100
AcDbLine
 10
6859.1711145966
 20
8503.3268183354
 30
0.0
 11
6859.1711145966
 21
8456.3268273953
 31
0.0
  0
ARC
  5
136
330
1F
100
AcDbEntity
  8
0
  6
Continuous
 62
     7
370
    25
100
AcDbCircle
 10
6852.6713472932
 20
8503.3268407468
 30
0.0
 40
6.500000000000909
100
AcDbArc
 50
0.0
 51
180.0
  0
LINE
  5
137
330
1F
100
AcDbEntity
  8
0
  6
Continuous
 62
     7
370
    25
100
AcDbLine
 10
6846.1715799897
 20
8456.3268273953
 30
0.0
 11
6846.1715799897
 21
8503.3268183354
 31
0.0
  0
LINE
  5
138
330
1F
100
AcDbEntity
  8
0
  6
Continuous
 62
     7
370
    25
100
AcDbLine
 10
6815.1714426606
 20
8524.826869357
 30
0.0
 11
6890.1712519257
 21
8524.826869357
 31
0.0
  0
LINE
  5
139
330
1F
100
AcDbEntity
  8
0
  6
Continuous
 62
     7
370
    25
100
AcDbLine
 10
6815.1714426606
 20
6154.8268645886
 30
0.0
 11
6890.1712519257
 21
6154.8268645886
 31
0.0
  0
LINE
  5
13A
330
1F
100
AcDbEntity
  8
0
  6
Continuous
 62
     8
370
    25
100
AcDbLine
 10
6556.4624888032
 20
8262.5571340207
 30
0.0
 11
6795.1714617341
 21
7922.7727800492
 31
0.0
  0
LINE
  5
13B
330
1F
100
AcDbEntity
  8
0
  6
Continuous
 62
     8
370
    25
100
AcDbLine
 10
6513.0951029389
 20
8232.0900410298
 30
0.0
 11
6795.1714617341
 21
7830.5749744061
 31
0.0
  0
LINE
  5
13C
330
1F
100
AcDbEntity
  8
0
  6
Continuous
 62
     8
370
    25
100
AcDbLine
 10
7156.0628038972
 20
7933.0213516835
 30
0.0
 11
6910.1712328522
 21
7789.1678064946
 31
0.0
  0
LINE
  5
13D
330
1F
100
AcDbEntity
  8
0
  6
Continuous
 62
     8
370
    25
100
AcDbLine
 10
7182.8257662385
 20
7887.274846423
 30
0.0
 11
6910.1712328522
 21
7727.7641892318
 31
0.0
  0
LINE
  5
13E
330
1F
100
AcDbEntity
  8
0
  6
Continuous
 62
     8
370
    25
100
AcDbLine
 10
7681.6842180817
 20
8151.7308801297
 30
0.0
 11
6910.1712328522
 21
8511.4931911115
 31
0.0
  0
LINE
  5
13F
330
1F
100
AcDbEntity
  8
0
  6
Continuous
 62
     8
370
    25
100
AcDbLine
 10
6881.5772158234
 20
8524.826869357
 30
0.0
 11
6068.4563738435
 21
8903.9914458875
 31
0.0
  0
LINE
  5
140
330
1F
100
AcDbEntity
  8
0
  6
Continuous
 62
     8
370
    25
100
AcDbLine
 10
7636.8863207429
 20
8055.6622594479
 30
0.0
 11
7548.2408625214
 21
8096.9983786229
 31
0.0
  0
LINE
  5
141
330
1F
100
AcDbEntity
  8
0
  6
Continuous
 62
     8
370
    25
100
AcDbLine
 10
7521.914683017
 20
8109.2744320516
 30
0.0
 11
7515.0916201203
 21
8112.4561875943
 31
0.0
  0
LINE
  5
142
330
1F
100
AcDbEntity
  8
0
  6
Continuous
 62
     8
370
    25
100
AcDbLine
 10
7482.1216684907
 20
8127.8302520398
 30
0.0
 11
6910.1712328522
 21
8394.5351093892
 31
0.0
  0
LINE
  5
143
330
1F
100
AcDbEntity
  8
0
  6
Continuous
 62
     8
370
    25
100
AcDbLine
 10
6795.1714617341
 20
8448.1605142239
 30
0.0
 11
6252.6065928071
 21
8701.162680972
 31
0.0
  0
LINE
  5
144
330
1F
100
AcDbEntity
  8
0
  6
Continuous
 62
     8
370
    25
100
AcDbLine
 10
6143.5553652375
 20
8752.0140260343
 30
0.0
 11
6023.6584765046
 21
8807.9228252057
 31
0.0
  0
LINE
  5
145
330
1F
100
AcDbEntity
  8
0
  6
Continuous
 62
     7
370
    18
100
AcDbLine
 10
-1621.1405396809
 20
7554.8268407468
 30
0.0
 11
7967.2093292573
 21
7554.8268407468
 31
0.0
  0
DIMENSION
  5
146
330
1F
100
AcDbEntity
  8
0
  6
Continuous
 62
     7
370
    18
100
AcDbDimension
  2
_D
 10
8106.8623719405
 20
7554.8268407469
 30
0.0
 11
8106.8623719405
 21
7827.897380968
 31
0.0
 70
   160
  1
<>
 71
     2
 42
-1.0
  3
SLDDIMSTYLE0
100
AcDbAlignedDimension
 13
7930.3580963661
 23
8195.210395557
 33
0.0
 14
7967.2093292573
 24
7554.8268407469
 34
0.0
 50
90.0
100
AcDbRotatedDimension
  0
DIMENSION
  5
152
330
1F
100
AcDbEntity
  8
0
  6
Continuous
 62
     7
370
    18
100
AcDbDimension
  2
_D_1
 10
8330.3580963662
 20
7554.8268407469
 30
0.0
 11
8330.3580963662
 21
7904.9474763761
 31
0.0
 70
   160
  1
<>
 71
     2
 42
-1.0
  3
SLDDIMSTYLE0
100
AcDbAlignedDimension
 13
7606.6681799846
 23
8302.0143656748
 33
0.0
 14
7967.2093292573
 24
7554.8268407469
 34
0.0
 50
90.0
100
AcDbRotatedDimension
  0
DIMENSION
  5
15C
330
1F
100
AcDbEntity
  8
0
  6
Continuous
 62
     7
370
    18
100
AcDbDimension
  2
_D_2
 10
5660.2144555067
 20
7554.8268407469
 30
0.0
 11
5660.2144555067
 21
8225.1793245434
 31
0.0
 70
   160
  1
<>
 71
     2
 42
-1.0
  3
SLDDIMSTYLE0
100
AcDbAlignedDimension
 13
6231.79926705
 23
8943.1262687355
 33
0.0
 14
7967.2093292573
 24
7554.8268407469
 34
0.0
 50
90.0
100
AcDbRotatedDimension
  0
DIMENSION
  5
165
330
1F
100
AcDbEntity
  8
0
  6
Continuous
 62
     7
370
    18
100
AcDbDimension
  2
_D_3
 10
5382.7828066514
 20
7554.8268407469
 30
0.0
 11
5382.7828066514
 21
8385.5691631343
 31
0.0
 70
   160
  1
<>
 71
     2
 42
-1.0
  3
SLDDIMSTYLE0
100
AcDbAlignedDimension
 13
5863.9763419225
 23
9158.7800323259
 33
0.0
 14
7967.2093292573
 24
7554.8268407469
 34
0.0
 50
90.0
100
AcDbRotatedDimension
  0
DIMENSION
  5
16E
330
1F
100
AcDbEntity
  8
0
  6
Continuous
 62
     7
370
    18
100
AcDbDimension
  2
_D_4
 10
-1621.140539681
 20
7554.8268407469
 30
0.0
 11
6207.7417990718
 21
8042.9786701154
 31
0.0
 70
   162
  1
<>
 71
     1
 42
-1.0
  3
SLDDIMSTYLE1
100
AcDb2LineAngularDimension
 13
7636.04127336
 23
8053.8496595106
 33
0.0
 14
6022.8134124347
 24
8806.1101654091
 34
0.0
 15
7967.2093292573
 25
7554.8268407469
 35
0.0
 16
6220.8437756442
 26
8105.8168646043
 36
0.0
  0
DIMENSION
  5
177
330
1F
100
AcDbEntity
  8
0
  6
Continuous
 62
     7
370
    18
100
AcDbDimension
  2
_D_5
 10
8007.5345986384
 20
8360.7159387804
 30
0.0
 11
6992.5044958456
 21
8834.0322489707
 31
0.0
 70
   160
  1
<>
 71
     2
 42
-1.0
  3
SLDDIMSTYLE0
100
AcDbAlignedDimension
 13
5863.9763419226
 23
9158.7800323258
 33
0.0
 14
7930.3580963662
 24
8195.2103955569
 34
0.0
 50
-25.0
100
AcDbRotatedDimension
  0
DIMENSION
  5
181
330
1F
100
AcDbEntity
  8
0
  6
Continuous
 62
     7
370
    18
100
AcDbDimension
  2
_D_6
 10
6070.3579668806
 20
9380.8704145936
 30
0.0
 11
6798.2783169761
 21
9380.8704145936
 31
0.0
 70
   160
  1
<>
 71
     2
 42
-1.0
  3
SLDDIMSTYLE0
100
AcDbAlignedDimension
 13
7683.5858278059
 23
8155.8092855521
 33
0.0
 14
6070.3579668806
 24
8908.0697914506
 34
0.0
100
AcDbRotatedDimension
  0
DIMENSION
  5
18B
330
1F
100
AcDbEntity
  8
0
  6
Continuous
 62
     7
370
    18
100
AcDbDimension
  2
_D_7
 10
7930.3580963662
 20
9654.9104582084
 30
0.0
 11
6747.4255253774
 21
9654.9104582084
 31
0.0
 70
   160
  1
<>
 71
     2
 42
-1.0
  3
SLDDIMSTYLE0
100
AcDbAlignedDimension
 13
5863.9763419226
 23
9158.7800323258
 33
0.0
 14
7930.3580963662
 24
8195.2103955569
 34
0.0
100
AcDbRotatedDimension
  0
LINE
  5
195
330
1F
100
AcDbEntity
  8
0
  6
Continuous
 62
     7
370
    25
100
AcDbLine
 10
4232.8016977698
 20
8833.9949695472
 30
0.0
 11
4267.8017836005
 21
8833.9949695472
 31
0.0
  0
LINE
  5
196
330
1F
100
AcDbEntity
  8
0
  6
Continuous
 62
     7
370
    25
100
AcDbLine
 10
3072.8016715438
 20
8833.9949695472
 30
0.0
 11
3092.801712075
 21
8833.9949695472
 31
0.0
  0
LINE
  5
197
330
1F
100
AcDbEntity
  8
0
  6
Continuous
 62
     7
370
    25
100
AcDbLine
 10
1897.8016894252
 20
8833.9949695472
 30
0.0
 11
1932.8016858489
 21
8833.9949695472
 31
0.0
  0
LINE
  5
198
330
1F
100
AcDbEntity
  8
0
  6
Continuous
 62
     7
370
    25
100
AcDbLine
 10
4267.8017836005
 20
8943.4542505149
 30
0.0
 11
4232.7018003852
 21
8943.4542505149
 31
0.0
  0
LINE
  5
199
330
1F
100
AcDbEntity
  8
0
  6
Continuous
 62
     7
370
    25
100
AcDbLine
 10
3092.9016690642
 20
8943.4542505149
 30
0.0
 11
3072.7017145545
 21
8943.4542505149
 31
0.0
  0
LINE
  5
19A
330
1F
100
AcDbEntity
  8
0
  6
Continuous
 62
     7
370
    25
100
AcDbLine
 10
1932.9016875417
 20
8943.4542505149
 30
0.0
 11
1897.8016894252
 21
8943.4542505149
 31
0.0
  0
LINE
  5
19B
330
1F
100
AcDbEntity
  8
0
  6
Continuous
 62
     7
370
    25
100
AcDbLine
 10
4232.8016977698
 20
8211.055680931
 30
0.0
 11
4267.8017836005
 21
8211.055680931
 31
0.0
  0
LINE
  5
19C
330
1F
100
AcDbEntity
  8
0
  6
Continuous
 62
     7
370
    25
100
AcDbLine
 10
3072.8016715438
 20
8211.055680931
 30
0.0
 11
3092.801712075
 21
8211.055680931
 31
0.0
  0
LINE
  5
19D
330
1F
100
AcDbEntity
  8
0
  6
Continuous
 62
     7
370
    25
100
AcDbLine
 10
1897.8016894252
 20
8211.055680931
 30
0.0
 11
1932.8016858489
 21
8211.055680931
 31
0.0
  0
LINE
  5
19E
330
1F
100
AcDbEntity
  8
0
  6
Continuous
 62
     7
370
    25
100
AcDbLine
 10
4267.8017836005
 20
8320.5149022941
 30
0.0
 11
4232.7018003852
 21
8320.5149022941
 31
0.0
  0
LINE
  5
19F
330
1F
100
AcDbEntity
  8
0
  6
Continuous
 62
     7
370
    25
100
AcDbLine
 10
3092.9016690642
 20
8320.5149022941
 30
0.0
 11
3072.7017145545
 21
8320.5149022941
 31
0.0
  0
LINE
  5
1A0
330
1F
100
AcDbEntity
  8
0
  6
Continuous
 62
     7
370
    25
100
AcDbLine
 10
1932.9016875417
 20
8320.5149022941
 30
0.0
 11
1897.8016894252
 21
8320.5149022941
 31
0.0
  0
LINE
  5
1A1
330
1F
100
AcDbEntity
  8
0
  6
Continuous
 62
     7
370
    25
100
AcDbLine
 10
2157.801687339
 20
8051.5839008693
 30
0.0
 11
2157.801687339
 21
7985.5286626224
 31
0.0
  0
LINE
  5
1A2
330
1F
100
AcDbEntity
  8
0
  6
Continuous
 62
     7
370
    25
100
AcDbLine
 10
4027.8016548545
 20
8051.5839008693
 30
0.0
 11
4027.8016548545
 21
7985.5286626224
 31
0.0
  0
LINE
  5
1A3
330
1F
100
AcDbEntity
  8
0
  6
Continuous
 62
     7
370
    25
100
AcDbLine
 10
4027.8016548545
 20
7933.7401835327
 30
0.0
 11
4027.8016548545
 21
7935.0348858241
 31
0.0
  0
LINE
  5
1A4
330
1F
100
AcDbEntity
  8
0
  6
Continuous
 62
     7
370
    25
100
AcDbLine
 10
4027.8016548545
 20
7933.7401835327
 30
0.0
 11
3991.3016777427
 21
7933.7401835327
 31
0.0
  0
LINE
  5
1A5
330
1F
100
AcDbEntity
  8
0
  6
Continuous
 62
     7
370
    25
100
AcDbLine
 10
3991.3016777427
 20
7935.0348858241
 30
0.0
 11
3991.3016777427
 21
7933.7401835327
 31
0.0
  0
LINE
  5
1A6
330
1F
100
AcDbEntity
  8
0
  6
Continuous
 62
     7
370
    25
100
AcDbLine
 10
4027.8016548545
 20
7935.0348858241
 30
0.0
 11
3991.3016777427
 21
7935.0348858241
 31
0.0
  0
LINE
  5
1A7
330
1F
100
AcDbEntity
  8
0
  6
Continuous
 62
     7
370
    25
100
AcDbLine
 10
3991.3016777427
 20
7933.7401835327
 30
0.0
 11
3991.3016777427
 21
7688.8333557252
 31
0.0
  0
LINE
  5
1A8
330
1F
100
AcDbEntity
  8
0
  6
Continuous
 62
     7
370
    25
100
AcDbLine
 10
4027.8016548545
 20
7933.7401835327
 30
0.0
 11
4027.8016548545
 21
7688.8333557252
 31
0.0
  0
LINE
  5
1A9
330
1F
100
AcDbEntity
  8
0
  6
Continuous
 62
     7
370
    25
100
AcDbLine
 10
4027.8016548545
 20
7688.8333557252
 30
0.0
 11
3991.3016777427
 21
7688.8333557252
 31
0.0
  0
ARC
  5
1AA
330
1F
100
AcDbEntity
  8
0
  6
Continuous
 62
     7
370
    25
100
AcDbCircle
 10
3991.1742390056
 20
7936.9089113264
 30
0.0
 40
1.87835359148508
100
AcDbArc
 50
184.5107720463
 51
273.890276658
  0
ARC
  5
1AB
330
1F
100
AcDbEntity
  8
0
  6
Continuous
 62
     7
370
    25
100
AcDbCircle
 10
3991.0785375654
 20
7937.0196206096
 30
0.0
 40
3.287019786991588
100
AcDbArc
 50
184.5094184512
 51
273.8925322606
  0
LINE
  5
1AC
330
1F
100
AcDbEntity
  8
0
  6
Continuous
 62
     7
370
    25
100
AcDbLine
 10
3987.8016930015
 20
7936.7611853485
 30
0.0
 11
3989.3017034919
 21
7936.7611853485
 31
0.0
  0
LINE
  5
1AD
330
1F
100
AcDbEntity
  8
0
  6
Continuous
 62
     7
370
    25
100
AcDbLine
 10
3987.8016930015
 20
7936.7611853485
 30
0.0
 11
3987.8016930015
 21
7725.1315562133
 31
0.0
  0
ARC
  5
1AE
330
1F
100
AcDbEntity
  8
0
  6
Continuous
 62
     7
370
    25
100
AcDbCircle
 10
3991.078538304
 20
7692.1127949327
 30
0.0
 40
3.287021862501694
100
AcDbArc
 50
184.5097133984
 51
273.8925168936
  0
LINE
  5
1AF
330
1F
100
AcDbEntity
  8
0
  6
Continuous
 62
     7
370
    25
100
AcDbLine
 10
3989.3017034919
 20
7982.5076608066
 30
0.0
 11
3987.8016930015
 21
7982.5076608066
 31
0.0
  0
LINE
  5
1B0
330
1F
100
AcDbEntity
  8
0
  6
Continuous
 62
     7
370
    25
100
AcDbLine
 10
3989.3017034919
 20
7936.7611853485
 30
0.0
 11
3989.3017034919
 21
7982.5076608066
 31
0.0
  0
ARC
  5
1B1
330
1F
100
AcDbEntity
  8
0
  6
Continuous
 62
     7
370
    25
100
AcDbCircle
 10
3991.1742390056
 20
7982.3599348287
 30
0.0
 40
1.878353591485631
100
AcDbArc
 50
86.109723342
 51
175.4892279537
  0
ARC
  5
1B2
330
1F
100
AcDbEntity
  8
0
  6
Continuous
 62
     7
370
    25
100
AcDbCircle
 10
3991.0785375654
 20
7982.2492255455
 30
0.0
 40
3.287019786987946
100
AcDbArc
 50
86.1074677393
 51
175.4905815489
  0
LINE
  5
1B3
330
1F
100
AcDbEntity
  8
0
  6
Continuous
 62
     7
370
    25
100
AcDbLine
 10
3991.3016777427
 20
7985.5286626224
 30
0.0
 11
3991.3016777427
 21
7984.2339603309
 31
0.0
  0
LINE
  5
1B4
330
1F
100
AcDbEntity
  8
0
  6
Continuous
 62
     7
370
    25
100
AcDbLine
 10
3991.3016777427
 20
7984.2339603309
 30
0.0
 11
4027.8016548545
 21
7984.2339603309
 31
0.0
  0
LINE
  5
1B5
330
1F
100
AcDbEntity
  8
0
  6
Continuous
 62
     7
370
    25
100
AcDbLine
 10
4027.8016548545
 20
7984.2339603309
 30
0.0
 11
4027.8016548545
 21
7935.0348858241
 31
0.0
  0
LINE
  5
1B6
330
1F
100
AcDbEntity
  8
0
  6
Continuous
 62
     7
370
    25
100
AcDbLine
 10
4027.8016548545
 20
7984.2339603309
 30
0.0
 11
4027.8016548545
 21
7985.5286626224
 31
0.0
  0
LINE
  5
1B7
330
1F
100
AcDbEntity
  8
0
  6
Continuous
 62
     7
370
    25
100
AcDbLine
 10
3991.3016777427
 20
7985.5286626224
 30
0.0
 11
4027.8016548545
 21
7985.5286626224
 31
0.0
  0
LINE
  5
1B8
330
1F
100
AcDbEntity
  8
0
  6
Continuous
 62
     7
370
    25
100
AcDbLine
 10
2114.3016881251
 20
8129.160687149
 30
0.0
 11
2114.3016881251
 21
7884.2538444404
 31
0.0
  0
ARC
  5
1B9
330
1F
100
AcDbEntity
  8
0
  6
Continuous
 62
     7
370
    25
100
AcDbCircle
 10
2114.5248057496
 20
8132.4401670228
 30
0.0
 40
3.28706095428891
100
AcDbArc
 50
266.1079105847
 51
355.4898898446
  0
LINE
  5
1BA
330
1F
100
AcDbEntity
  8
0
  6
Continuous
 62
     7
370
    25
100
AcDbLine
 10
2117.8016882331
 20
8055.6622592811
 30
0.0
 11
2117.8016882331
 21
7887.2748462562
 31
0.0
  0
ARC
  5
1BB
330
1F
100
AcDbEntity
  8
0
  6
Continuous
 62
     7
370
    25
100
AcDbCircle
 10
2114.5247762198
 20
7887.5333585262
 30
0.0
 40
3.287093083054534
100
AcDbArc
 50
266.1084645951
 51
355.4893358341
  0
ARC
  5
1BC
330
1F
100
AcDbEntity
  8
0
  6
Continuous
 62
     7
370
    25
100
AcDbCircle
 10
2114.4292087298
 20
8132.3293804806
 30
0.0
 40
1.878295031489795
100
AcDbArc
 50
266.1070987935
 51
355.4901415319
  0
LINE
  5
1BD
330
1F
100
AcDbEntity
  8
0
  6
Continuous
 62
     7
370
    25
100
AcDbLine
 10
2116.3016882201
 20
8132.1816889648
 30
0.0
 11
2117.8016882331
 21
8132.1816889648
 31
0.0
  0
LINE
  5
1BE
330
1F
100
AcDbEntity
  8
0
  6
Continuous
 62
     7
370
    25
100
AcDbLine
 10
2114.3016881251
 20
8129.160687149
 30
0.0
 11
2114.3016881251
 21
8130.4554192428
 31
0.0
  0
LINE
  5
1BF
330
1F
100
AcDbEntity
  8
0
  6
Continuous
 62
     7
370
    25
100
AcDbLine
 10
2114.3016881251
 20
8130.4554192428
 30
0.0
 11
2077.8016891272
 21
8130.4554192428
 31
0.0
  0
LINE
  5
1C0
330
1F
100
AcDbEntity
  8
0
  6
Continuous
 62
     7
370
    25
100
AcDbLine
 10
2114.3016881251
 20
8129.160687149
 30
0.0
 11
2077.8016891272
 21
8129.160687149
 31
0.0
  0
LINE
  5
1C1
330
1F
100
AcDbEntity
  8
0
  6
Continuous
 62
     7
370
    25
100
AcDbLine
 10
2077.8016891272
 20
8130.4554192428
 30
0.0
 11
2077.8016891272
 21
8129.160687149
 31
0.0
  0
LINE
  5
1C2
330
1F
100
AcDbEntity
  8
0
  6
Continuous
 62
     7
370
    25
100
AcDbLine
 10
2114.3016881251
 20
7884.2538444404
 30
0.0
 11
2077.8016891272
 21
7884.2538444404
 31
0.0
  0
LINE
  5
1C3
330
1F
100
AcDbEntity
  8
0
  6
Continuous
 62
     7
370
    25
100
AcDbLine
 10
2077.8016891272
 20
8129.160687149
 30
0.0
 11
2077.8016891272
 21
7884.2538444404
 31
0.0
  0
LINE
  5
1C4
330
1F
100
AcDbEntity
  8
0
  6
Continuous
 62
     7
370
    25
100
AcDbLine
 10
2116.3016882201
 20
8158.9580623512
 30
0.0
 11
2116.3016882201
 21
8132.1816889648
 31
0.0
  0
LINE
  5
1C5
330
1F
100
AcDbEntity
  8
0
  6
Continuous
 62
     7
370
    25
100
AcDbLine
 10
2077.8016891272
 20
8158.9580623512
 30
0.0
 11
2077.8016891272
 21
8130.4554192428
 31
0.0
  0
ARC
  5
1C6
330
1F
100
AcDbEntity
  8
0
  6
Continuous
 62
     7
370
    25
100
AcDbCircle
 10
3984.4292045819
 20
8132.3293805809
 30
0.0
 40
1.878293483070386
100
AcDbArc
 50
266.1078380268
 51
355.4901347382
  0
LINE
  5
1C7
330
1F
100
AcDbEntity
  8
0
  6
Continuous
 62
     7
370
    25
100
AcDbLine
 10
3986.3016825111
 20
8132.1816889648
 30
0.0
 11
3987.8016930015
 21
8132.1816889648
 31
0.0
  0
ARC
  5
1C8
330
1F
100
AcDbEntity
  8
0
  6
Continuous
 62
     7
370
    25
100
AcDbCircle
 10
3984.5248026257
 20
8132.4401773013
 30
0.0
 40
3.287069630374443
100
AcDbArc
 50
266.1083272317
 51
355.4897220565
  0
LINE
  5
1C9
330
1F
100
AcDbEntity
  8
0
  6
Continuous
 62
     7
370
    25
100
AcDbLine
 10
3984.3017082603
 20
8129.160687149
 30
0.0
 11
3984.3017082603
 21
8130.4554192428
 31
0.0
  0
LINE
  5
1CA
330
1F
100
AcDbEntity
  8
0
  6
Continuous
 62
     7
370
    25
100
AcDbLine
 10
3984.3017082603
 20
8129.160687149
 30
0.0
 11
3984.3017082603
 21
7884.2538444404
 31
0.0
  0
LINE
  5
1CB
330
1F
100
AcDbEntity
  8
0
  6
Continuous
 62
     7
370
    25
100
AcDbLine
 10
3987.8016930015
 20
8055.6622592811
 30
0.0
 11
3987.8016930015
 21
7887.2748462562
 31
0.0
  0
ARC
  5
1CC
330
1F
100
AcDbEntity
  8
0
  6
Continuous
 62
     7
370
    25
100
AcDbCircle
 10
3984.5247730931
 20
7887.5333688077
 30
0.0
 40
3.287101762250991
100
AcDbArc
 50
266.1088812887
 51
355.4891679994
  0
LINE
  5
1CD
330
1F
100
AcDbEntity
  8
0
  6
Continuous
 62
     7
370
    25
100
AcDbLine
 10
3947.8017311484
 20
8130.4554192428
 30
0.0
 11
3947.8017311484
 21
8129.160687149
 31
0.0
  0
LINE
  5
1CE
330
1F
100
AcDbEntity
  8
0
  6
Continuous
 62
     7
370
    25
100
AcDbLine
 10
3984.3017082603
 20
8130.4554192428
 30
0.0
 11
3947.8017311484
 21
8130.4554192428
 31
0.0
  0
LINE
  5
1CF
330
1F
100
AcDbEntity
  8
0
  6
Continuous
 62
     7
370
    25
100
AcDbLine
 10
3984.3017082603
 20
8129.160687149
 30
0.0
 11
3947.8017311484
 21
8129.160687149
 31
0.0
  0
LINE
  5
1D0
330
1F
100
AcDbEntity
  8
0
  6
Continuous
 62
     7
370
    25
100
AcDbLine
 10
3984.3017082603
 20
7884.2538444404
 30
0.0
 11
3947.8017311484
 21
7884.2538444404
 31
0.0
  0
LINE
  5
1D1
330
1F
100
AcDbEntity
  8
0
  6
Continuous
 62
     7
370
    25
100
AcDbLine
 10
3947.8017311484
 20
8129.160687149
 30
0.0
 11
3947.8017311484
 21
7884.2538444404
 31
0.0
  0
LINE
  5
1D2
330
1F
100
AcDbEntity
  8
0
  6
Continuous
 62
     7
370
    25
100
AcDbLine
 10
3986.3016825111
 20
8158.9580623512
 30
0.0
 11
3986.3016825111
 21
8132.1816889648
 31
0.0
  0
LINE
  5
1D3
330
1F
100
AcDbEntity
  8
0
  6
Continuous
 62
     7
370
    25
100
AcDbLine
 10
3947.8017311484
 20
8158.9580623512
 30
0.0
 11
3947.8017311484
 21
8130.4554192428
 31
0.0
  0
LINE
  5
1D4
330
1F
100
AcDbEntity
  8
0
  6
Continuous
 62
     7
370
    25
100
AcDbLine
 10
2157.801687339
 20
7933.7401835327
 30
0.0
 11
2157.801687339
 21
7935.0348858241
 31
0.0
  0
LINE
  5
1D5
330
1F
100
AcDbEntity
  8
0
  6
Continuous
 62
     7
370
    25
100
AcDbLine
 10
2157.801687339
 20
7933.7401835327
 30
0.0
 11
2121.3016883411
 21
7933.7401835327
 31
0.0
  0
LINE
  5
1D6
330
1F
100
AcDbEntity
  8
0
  6
Continuous
 62
     7
370
    25
100
AcDbLine
 10
2121.3016883411
 20
7935.0348858241
 30
0.0
 11
2121.3016883411
 21
7933.7401835327
 31
0.0
  0
LINE
  5
1D7
330
1F
100
AcDbEntity
  8
0
  6
Continuous
 62
     7
370
    25
100
AcDbLine
 10
2157.801687339
 20
7935.0348858241
 30
0.0
 11
2121.3016883411
 21
7935.0348858241
 31
0.0
  0
LINE
  5
1D8
330
1F
100
AcDbEntity
  8
0
  6
Continuous
 62
     7
370
    25
100
AcDbLine
 10
2121.3016883411
 20
7933.7401835327
 30
0.0
 11
2121.3016883411
 21
7688.8333557252
 31
0.0
  0
LINE
  5
1D9
330
1F
100
AcDbEntity
  8
0
  6
Continuous
 62
     7
370
    25
100
AcDbLine
 10
2157.801687339
 20
7933.7401835327
 30
0.0
 11
2157.801687339
 21
7688.8333557252
 31
0.0
  0
LINE
  5
1DA
330
1F
100
AcDbEntity
  8
0
  6
Continuous
 62
     7
370
    25
100
AcDbLine
 10
2157.801687339
 20
7688.8333557252
 30
0.0
 11
2121.3016883411
 21
7688.8333557252
 31
0.0
  0
ARC
  5
1DB
330
1F
100
AcDbEntity
  8
0
  6
Continuous
 62
     7
370
    25
100
AcDbCircle
 10
2121.1742253161
 20
7936.9089112213
 30
0.0
 40
1.878355134618569
100
AcDbArc
 50
184.5107651168
 51
273.8910160287
  0
ARC
  5
1DC
330
1F
100
AcDbEntity
  8
0
  6
Continuous
 62
     7
370
    25
100
AcDbCircle
 10
2121.0785707166
 20
7937.0196634065
 30
0.0
 40
3.287060954293047
100
AcDbArc
 50
184.5101101554
 51
273.8920894153
  0
LINE
  5
1DD
330
1F
100
AcDbEntity
  8
0
  6
Continuous
 62
     7
370
    25
100
AcDbLine
 10
2117.8016882331
 20
7936.7611853485
 30
0.0
 11
2119.3016882461
 21
7936.7611853485
 31
0.0
  0
LINE
  5
1DE
330
1F
100
AcDbEntity
  8
0
  6
Continuous
 62
     7
370
    25
100
AcDbLine
 10
2117.8016882331
 20
7936.7611853485
 30
0.0
 11
2117.8016882331
 21
7725.1315562133
 31
0.0
  0
ARC
  5
1DF
330
1F
100
AcDbEntity
  8
0
  6
Continuous
 62
     7
370
    25
100
AcDbCircle
 10
2121.0785714553
 20
7692.1128377299
 30
0.0
 40
3.287063030046553
100
AcDbArc
 50
184.5104051027
 51
273.892074048
  0
LINE
  5
1E0
330
1F
100
AcDbEntity
  8
0
  6
Continuous
 62
     7
370
    25
100
AcDbLine
 10
2119.3016882461
 20
7982.5076608066
 30
0.0
 11
2117.8016882331
 21
7982.5076608066
 31
0.0
  0
LINE
  5
1E1
330
1F
100
AcDbEntity
  8
0
  6
Continuous
 62
     7
370
    25
100
AcDbLine
 10
2119.3016882461
 20
7936.7611853485
 30
0.0
 11
2119.3016882461
 21
7982.5076608066
 31
0.0
  0
ARC
  5
1E2
330
1F
100
AcDbEntity
  8
0
  6
Continuous
 62
     7
370
    25
100
AcDbCircle
 10
2121.1742253161
 20
7982.3599349338
 30
0.0
 40
1.878355134618569
100
AcDbArc
 50
86.1089839713
 51
175.4892348832
  0
ARC
  5
1E3
330
1F
100
AcDbEntity
  8
0
  6
Continuous
 62
     7
370
    25
100
AcDbCircle
 10
2121.0785707166
 20
7982.2491827486
 30
0.0
 40
3.287060954286066
100
AcDbArc
 50
86.1079105846
 51
175.4898898447
  0
LINE
  5
1E4
330
1F
100
AcDbEntity
  8
0
  6
Continuous
 62
     7
370
    25
100
AcDbLine
 10
2121.3016883411
 20
7985.5286626224
 30
0.0
 11
2121.3016883411
 21
7984.2339603309
 31
0.0
  0
LINE
  5
1E5
330
1F
100
AcDbEntity
  8
0
  6
Continuous
 62
     7
370
    25
100
AcDbLine
 10
2121.3016883411
 20
7984.2339603309
 30
0.0
 11
2157.801687339
 21
7984.2339603309
 31
0.0
  0
LINE
  5
1E6
330
1F
100
AcDbEntity
  8
0
  6
Continuous
 62
     7
370
    25
100
AcDbLine
 10
2157.801687339
 20
7984.2339603309
 30
0.0
 11
2157.801687339
 21
7935.0348858241
 31
0.0
  0
LINE
  5
1E7
330
1F
100
AcDbEntity
  8
0
  6
Continuous
 62
     7
370
    25
100
AcDbLine
 10
2157.801687339
 20
7984.2339603309
 30
0.0
 11
2157.801687339
 21
7985.5286626224
 31
0.0
  0
LINE
  5
1E8
330
1F
100
AcDbEntity
  8
0
  6
Continuous
 62
     7
370
    25
100
AcDbLine
 10
2121.3016883411
 20
7985.5286626224
 30
0.0
 11
2157.801687339
 21
7985.5286626224
 31
0.0
  0
LINE
  5
1E9
330
1F
100
AcDbEntity
  8
0
  6
Continuous
 62
     7
370
    25
100
AcDbLine
 10
3092.801712075
 20
8195.2103821639
 30
0.0
 11
4232.8016977698
 21
8195.2103821639
 31
0.0
  0
LINE
  5
1EA
330
1F
100
AcDbEntity
  8
0
  6
Continuous
 62
     7
370
    25
100
AcDbLine
 10
3092.801712075
 20
8315.6565873031
 30
0.0
 11
3092.801712075
 21
8195.2103821639
 31
0.0
  0
LINE
  5
1EB
330
1F
100
AcDbEntity
  8
0
  6
Continuous
 62
     7
370
    25
100
AcDbLine
 10
3092.9016690642
 20
8315.6565873031
 30
0.0
 11
3092.801712075
 21
8315.6565873031
 31
0.0
  0
LINE
  5
1EC
330
1F
100
AcDbEntity
  8
0
  6
Continuous
 62
     7
370
    25
100
AcDbLine
 10
3092.9016690642
 20
8315.6565873031
 30
0.0
 11
3092.9016690642
 21
8436.1027924423
 31
0.0
  0
LINE
  5
1ED
330
1F
100
AcDbEntity
  8
0
  6
Continuous
 62
     7
370
    25
100
AcDbLine
 10
3092.9016690642
 20
8436.1027924423
 30
0.0
 11
3092.801712075
 21
8436.1027924423
 31
0.0
  0
LINE
  5
1EE
330
1F
100
AcDbEntity
  8
0
  6
Continuous
 62
     7
370
    25
100
AcDbLine
 10
3092.801712075
 20
8917.8876726036
 30
0.0
 11
3092.801712075
 21
8436.1027924423
 31
0.0
  0
LINE
  5
1EF
330
1F
100
AcDbEntity
  8
0
  6
Continuous
 62
     7
370
    25
100
AcDbLine
 10
3092.9016690642
 20
8917.8876726036
 30
0.0
 11
3092.801712075
 21
8917.8876726036
 31
0.0
  0
LINE
  5
1F0
330
1F
100
AcDbEntity
  8
0
  6
Continuous
 62
     7
370
    25
100
AcDbLine
 10
3092.9016690642
 20
8917.8876726036
 30
0.0
 11
3092.9016690642
 21
9038.3338777427
 31
0.0
  0
LINE
  5
1F1
330
1F
100
AcDbEntity
  8
0
  6
Continuous
 62
     7
370
    25
100
AcDbLine
 10
3092.9016690642
 20
9038.3338777427
 30
0.0
 11
3092.801712075
 21
9038.3338777427
 31
0.0
  0
LINE
  5
1F2
330
1F
100
AcDbEntity
  8
0
  6
Continuous
 62
     7
370
    25
100
AcDbLine
 10
3092.801712075
 20
9158.7800828819
 30
0.0
 11
3092.801712075
 21
9038.3338777427
 31
0.0
  0
LINE
  5
1F3
330
1F
100
AcDbEntity
  8
0
  6
Continuous
 62
     7
370
    25
100
AcDbLine
 10
4232.8016977698
 20
9158.7800828819
 30
0.0
 11
3092.801712075
 21
9158.7800828819
 31
0.0
  0
LINE
  5
1F4
330
1F
100
AcDbEntity
  8
0
  6
Continuous
 62
     7
370
    25
100
AcDbLine
 10
4232.8016977698
 20
9038.3338777427
 30
0.0
 11
4232.8016977698
 21
9158.7800828819
 31
0.0
  0
LINE
  5
1F5
330
1F
100
AcDbEntity
  8
0
  6
Continuous
 62
     7
370
    25
100
AcDbLine
 10
4232.7018003852
 20
9038.3338777427
 30
0.0
 11
4232.8016977698
 21
9038.3338777427
 31
0.0
  0
LINE
  5
1F6
330
1F
100
AcDbEntity
  8
0
  6
Continuous
 62
     7
370
    25
100
AcDbLine
 10
4232.7018003852
 20
8917.8876726036
 30
0.0
 11
4232.7018003852
 21
9038.3338777427
 31
0.0
  0
LINE
  5
1F7
330
1F
100
AcDbEntity
  8
0
  6
Continuous
 62
     7
370
    25
100
AcDbLine
 10
4232.7018003852
 20
8917.8876726036
 30
0.0
 11
4232.8016977698
 21
8917.8876726036
 31
0.0
  0
LINE
  5
1F8
330
1F
100
AcDbEntity
  8
0
  6
Continuous
 62
     7
370
    25
100
AcDbLine
 10
4232.8016977698
 20
8436.1027924423
 30
0.0
 11
4232.8016977698
 21
8917.8876726036
 31
0.0
  0
LINE
  5
1F9
330
1F
100
AcDbEntity
  8
0
  6
Continuous
 62
     7
370
    25
100
AcDbLine
 10
4232.7018003852
 20
8436.1027924423
 30
0.0
 11
4232.8016977698
 21
8436.1027924423
 31
0.0
  0
LINE
  5
1FA
330
1F
100
AcDbEntity
  8
0
  6
Continuous
 62
     7
370
    25
100
AcDbLine
 10
4232.7018003852
 20
8315.6565873031
 30
0.0
 11
4232.7018003852
 21
8436.1027924423
 31
0.0
  0
LINE
  5
1FB
330
1F
100
AcDbEntity
  8
0
  6
Continuous
 62
     7
370
    25
100
AcDbLine
 10
4232.7018003852
 20
8315.6565873031
 30
0.0
 11
4232.8016977698
 21
8315.6565873031
 31
0.0
  0
LINE
  5
1FC
330
1F
100
AcDbEntity
  8
0
  6
Continuous
 62
     7
370
    25
100
AcDbLine
 10
4232.8016977698
 20
8195.2103821639
 30
0.0
 11
4232.8016977698
 21
8315.6565873031
 31
0.0
  0
LINE
  5
1FD
330
1F
100
AcDbEntity
  8
0
  6
Continuous
 62
     7
370
    25
100
AcDbLine
 10
3101.8017154128
 20
9154.9764720802
 30
0.0
 11
4223.8016348273
 21
9154.9764720802
 31
0.0
  0
LINE
  5
1FE
330
1F
100
AcDbEntity
  8
0
  6
Continuous
 62
     7
370
    25
100
AcDbLine
 10
3101.8017154128
 20
8199.013933361
 30
0.0
 11
3101.8017154128
 21
9154.9764720802
 31
0.0
  0
LINE
  5
1FF
330
1F
100
AcDbEntity
  8
0
  6
Continuous
 62
     7
370
    25
100
AcDbLine
 10
4223.8016348273
 20
8199.013933361
 30
0.0
 11
3101.8017154128
 21
8199.013933361
 31
0.0
  0
LINE
  5
200
330
1F
100
AcDbEntity
  8
0
  6
Continuous
 62
     7
370
    25
100
AcDbLine
 10
4223.8016348273
 20
9154.9764720802
 30
0.0
 11
4223.8016348273
 21
8199.013933361
 31
0.0
  0
LINE
  5
201
330
1F
100
AcDbEntity
  8
0
  6
Continuous
 62
     7
370
    25
100
AcDbLine
 10
4232.8016977698
 20
8158.9580623512
 30
0.0
 11
4232.8016977698
 21
8195.2103821639
 31
0.0
  0
LINE
  5
202
330
1F
100
AcDbEntity
  8
0
  6
Continuous
 62
     7
370
    25
100
AcDbLine
 10
3092.801712075
 20
8158.9580623512
 30
0.0
 11
4232.8016977698
 21
8158.9580623512
 31
0.0
  0
LINE
  5
203
330
1F
100
AcDbEntity
  8
0
  6
Continuous
 62
     7
370
    25
100
AcDbLine
 10
3092.801712075
 20
8158.9580623512
 30
0.0
 11
3092.801712075
 21
8195.2103821639
 31
0.0
  0
LINE
  5
204
330
1F
100
AcDbEntity
  8
0
  6
Continuous
 62
     7
370
    25
100
AcDbLine
 10
3102.8017025382
 20
9154.0305463676
 30
0.0
 11
3102.8017025382
 21
8199.013933361
 31
0.0
  0
LINE
  5
205
330
1F
100
AcDbEntity
  8
0
  6
Continuous
 62
     7
370
    25
100
AcDbLine
 10
3102.8017025382
 20
9154.0305463676
 30
0.0
 11
3101.8017154128
 21
9154.9764720802
 31
0.0
  0
LINE
  5
206
330
1F
100
AcDbEntity
  8
0
  6
Continuous
 62
     7
370
    25
100
AcDbLine
 10
4222.8017073066
 20
8199.013933361
 30
0.0
 11
4222.8017073066
 21
9154.0305463676
 31
0.0
  0
LINE
  5
207
330
1F
100
AcDbEntity
  8
0
  6
Continuous
 62
     7
370
    25
100
AcDbLine
 10
4223.8016348273
 20
9154.9764720802
 30
0.0
 11
4222.8017073066
 21
9154.0305463676
 31
0.0
  0
LINE
  5
208
330
1F
100
AcDbEntity
  8
0
  6
Continuous
 62
     7
370
    25
100
AcDbLine
 10
4222.8017073066
 20
9153.1944124107
 30
0.0
 11
3102.8017025382
 21
9153.1944124107
 31
0.0
  0
LINE
  5
209
330
1F
100
AcDbEntity
  8
0
  6
Continuous
 62
     7
370
    25
100
AcDbLine
 10
4232.8016977698
 20
8436.1027924423
 30
0.0
 11
4232.8016977698
 21
8399.8504726295
 31
0.0
  0
LINE
  5
20A
330
1F
100
AcDbEntity
  8
0
  6
Continuous
 62
     7
370
    25
100
AcDbLine
 10
4232.7018003852
 20
8399.8504726295
 30
0.0
 11
4232.8016977698
 21
8399.8504726295
 31
0.0
  0
LINE
  5
20B
330
1F
100
AcDbEntity
  8
0
  6
Continuous
 62
     7
370
    25
100
AcDbLine
 10
3092.801712075
 20
8436.1027924423
 30
0.0
 11
3092.801712075
 21
8399.8504726295
 31
0.0
  0
LINE
  5
20C
330
1F
100
AcDbEntity
  8
0
  6
Continuous
 62
     7
370
    25
100
AcDbLine
 10
3092.9016690642
 20
8399.8504726295
 30
0.0
 11
3092.801712075
 21
8399.8504726295
 31
0.0
  0
LINE
  5
20D
330
1F
100
AcDbEntity
  8
0
  6
Continuous
 62
     7
370
    25
100
AcDbLine
 10
3092.801712075
 20
9038.3338777427
 30
0.0
 11
3092.801712075
 21
9002.0814983253
 31
0.0
  0
LINE
  5
20E
330
1F
100
AcDbEntity
  8
0
  6
Continuous
 62
     7
370
    25
100
AcDbLine
 10
3092.9016690642
 20
9002.0814983253
 30
0.0
 11
3092.801712075
 21
9002.0814983253
 31
0.0
  0
LINE
  5
20F
330
1F
100
AcDbEntity
  8
0
  6
Continuous
 62
     7
370
    25
100
AcDbLine
 10
4232.8016977698
 20
9038.3338777427
 30
0.0
 11
4232.8016977698
 21
9002.0814983253
 31
0.0
  0
LINE
  5
210
330
1F
100
AcDbEntity
  8
0
  6
Continuous
 62
     7
370
    25
100
AcDbLine
 10
4232.7018003852
 20
9002.0814983253
 30
0.0
 11
4232.8016977698
 21
9002.0814983253
 31
0.0
  0
LINE
  5
211
330
1F
100
AcDbEntity
  8
0
  6
Continuous
 62
     7
370
    25
100
AcDbLine
 10
4222.8017073066
 20
9154.0305463676
 30
0.0
 11
3102.8017025382
 21
9154.0305463676
 31
0.0
  0
LINE
  5
212
330
1F
100
AcDbEntity
  8
0
  6
Continuous
 62
     7
370
    25
100
AcDbLine
 10
1932.8016858489
 20
8195.2103821639
 30
0.0
 11
3072.8016715438
 21
8195.2103821639
 31
0.0
  0
LINE
  5
213
330
1F
100
AcDbEntity
  8
0
  6
Continuous
 62
     7
370
    25
100
AcDbLine
 10
1932.8016858489
 20
8315.6565873031
 30
0.0
 11
1932.8016858489
 21
8195.2103821639
 31
0.0
  0
LINE
  5
214
330
1F
100
AcDbEntity
  8
0
  6
Continuous
 62
     7
370
    25
100
AcDbLine
 10
1932.9016875417
 20
8315.6565873031
 30
0.0
 11
1932.8016858489
 21
8315.6565873031
 31
0.0
  0
LINE
  5
215
330
1F
100
AcDbEntity
  8
0
  6
Continuous
 62
     7
370
    25
100
AcDbLine
 10
1932.9016875417
 20
8315.6565873031
 30
0.0
 11
1932.9016875417
 21
8436.1027924423
 31
0.0
  0
LINE
  5
216
330
1F
100
AcDbEntity
  8
0
  6
Continuous
 62
     7
370
    25
100
AcDbLine
 10
1932.9016875417
 20
8436.1027924423
 30
0.0
 11
1932.8016858489
 21
8436.1027924423
 31
0.0
  0
LINE
  5
217
330
1F
100
AcDbEntity
  8
0
  6
Continuous
 62
     7
370
    25
100
AcDbLine
 10
1932.8016858489
 20
8917.8876726036
 30
0.0
 11
1932.8016858489
 21
8436.1027924423
 31
0.0
  0
LINE
  5
218
330
1F
100
AcDbEntity
  8
0
  6
Continuous
 62
     7
370
    25
100
AcDbLine
 10
1932.9016875417
 20
8917.8876726036
 30
0.0
 11
1932.8016858489
 21
8917.8876726036
 31
0.0
  0
LINE
  5
219
330
1F
100
AcDbEntity
  8
0
  6
Continuous
 62
     7
370
    25
100
AcDbLine
 10
1932.9016875417
 20
8917.8876726036
 30
0.0
 11
1932.9016875417
 21
9038.3338777427
 31
0.0
  0
LINE
  5
21A
330
1F
100
AcDbEntity
  8
0
  6
Continuous
 62
     7
370
    25
100
AcDbLine
 10
1932.9016875417
 20
9038.3338777427
 30
0.0
 11
1932.8016858489
 21
9038.3338777427
 31
0.0
  0
LINE
  5
21B
330
1F
100
AcDbEntity
  8
0
  6
Continuous
 62
     7
370
    25
100
AcDbLine
 10
1932.8016858489
 20
9158.7800828819
 30
0.0
 11
1932.8016858489
 21
9038.3338777427
 31
0.0
  0
LINE
  5
21C
330
1F
100
AcDbEntity
  8
0
  6
Continuous
 62
     7
370
    25
100
AcDbLine
 10
3072.8016715438
 20
9158.7800828819
 30
0.0
 11
1932.8016858489
 21
9158.7800828819
 31
0.0
  0
LINE
  5
21D
330
1F
100
AcDbEntity
  8
0
  6
Continuous
 62
     7
370
    25
100
AcDbLine
 10
3072.8016715438
 20
9038.3338777427
 30
0.0
 11
3072.8016715438
 21
9158.7800828819
 31
0.0
  0
LINE
  5
21E
330
1F
100
AcDbEntity
  8
0
  6
Continuous
 62
     7
370
    25
100
AcDbLine
 10
3072.7017145545
 20
9038.3338777427
 30
0.0
 11
3072.8016715438
 21
9038.3338777427
 31
0.0
  0
LINE
  5
21F
330
1F
100
AcDbEntity
  8
0
  6
Continuous
 62
     7
370
    25
100
AcDbLine
 10
3072.7017145545
 20
8917.8876726036
 30
0.0
 11
3072.7017145545
 21
9038.3338777427
 31
0.0
  0
LINE
  5
220
330
1F
100
AcDbEntity
  8
0
  6
Continuous
 62
     7
370
    25
100
AcDbLine
 10
3072.7017145545
 20
8917.8876726036
 30
0.0
 11
3072.8016715438
 21
8917.8876726036
 31
0.0
  0
LINE
  5
221
330
1F
100
AcDbEntity
  8
0
  6
Continuous
 62
     7
370
    25
100
AcDbLine
 10
3072.8016715438
 20
8436.1027924423
 30
0.0
 11
3072.8016715438
 21
8917.8876726036
 31
0.0
  0
LINE
  5
222
330
1F
100
AcDbEntity
  8
0
  6
Continuous
 62
     7
370
    25
100
AcDbLine
 10
3072.7017145545
 20
8436.1027924423
 30
0.0
 11
3072.8016715438
 21
8436.1027924423
 31
0.0
  0
LINE
  5
223
330
1F
100
AcDbEntity
  8
0
  6
Continuous
 62
     7
370
    25
100
AcDbLine
 10
3072.7017145545
 20
8315.6565873031
 30
0.0
 11
3072.7017145545
 21
8436.1027924423
 31
0.0
  0
LINE
  5
224
330
1F
100
AcDbEntity
  8
0
  6
Continuous
 62
     7
370
    25
100
AcDbLine
 10
3072.7017145545
 20
8315.6565873031
 30
0.0
 11
3072.8016715438
 21
8315.6565873031
 31
0.0
  0
LINE
  5
225
330
1F
100
AcDbEntity
  8
0
  6
Continuous
 62
     7
370
    25
100
AcDbLine
 10
3072.8016715438
 20
8195.2103821639
 30
0.0
 11
3072.8016715438
 21
8315.6565873031
 31
0.0
  0
LINE
  5
226
330
1F
100
AcDbEntity
  8
0
  6
Continuous
 62
     7
370
    25
100
AcDbLine
 10
1941.8016891868
 20
9154.9764720802
 30
0.0
 11
3063.8016682059
 21
9154.9764720802
 31
0.0
  0
LINE
  5
227
330
1F
100
AcDbEntity
  8
0
  6
Continuous
 62
     7
370
    25
100
AcDbLine
 10
1941.8016891868
 20
8199.013933361
 30
0.0
 11
1941.8016891868
 21
9154.9764720802
 31
0.0
  0
LINE
  5
228
330
1F
100
AcDbEntity
  8
0
  6
Continuous
 62
     7
370
    25
100
AcDbLine
 10
3063.8016682059
 20
8199.013933361
 30
0.0
 11
1941.8016891868
 21
8199.013933361
 31
0.0
  0
LINE
  5
229
330
1F
100
AcDbEntity
  8
0
  6
Continuous
 62
     7
370
    25
100
AcDbLine
 10
3063.8016682059
 20
9154.9764720802
 30
0.0
 11
3063.8016682059
 21
8199.013933361
 31
0.0
  0
LINE
  5
22A
330
1F
100
AcDbEntity
  8
0
  6
Continuous
 62
     7
370
    25
100
AcDbLine
 10
3072.8016715438
 20
8158.9580623512
 30
0.0
 11
3072.8016715438
 21
8195.2103821639
 31
0.0
  0
LINE
  5
22B
330
1F
100
AcDbEntity
  8
0
  6
Continuous
 62
     7
370
    25
100
AcDbLine
 10
1932.8016858489
 20
8158.9580623512
 30
0.0
 11
3072.8016715438
 21
8158.9580623512
 31
0.0
  0
LINE
  5
22C
330
1F
100
AcDbEntity
  8
0
  6
Continuous
 62
     7
370
    25
100
AcDbLine
 10
1932.8016858489
 20
8158.9580623512
 30
0.0
 11
1932.8016858489
 21
8195.2103821639
 31
0.0
  0
LINE
  5
22D
330
1F
100
AcDbEntity
  8
0
  6
Continuous
 62
     7
370
    25
100
AcDbLine
 10
3062.8016810805
 20
8199.013933361
 30
0.0
 11
3062.8016810805
 21
9154.0305463676
 31
0.0
  0
LINE
  5
22E
330
1F
100
AcDbEntity
  8
0
  6
Continuous
 62
     7
370
    25
100
AcDbLine
 10
3063.8016682059
 20
9154.9764720802
 30
0.0
 11
3062.8016810805
 21
9154.0305463676
 31
0.0
  0
LINE
  5
22F
330
1F
100
AcDbEntity
  8
0
  6
Continuous
 62
     7
370
    25
100
AcDbLine
 10
1942.8016912133
 20
9154.0305463676
 30
0.0
 11
1942.8016912133
 21
8199.013933361
 31
0.0
  0
LINE
  5
230
330
1F
100
AcDbEntity
  8
0
  6
Continuous
 62
     7
370
    25
100
AcDbLine
 10
1942.8016912133
 20
9154.0305463676
 30
0.0
 11
1941.8016891868
 21
9154.9764720802
 31
0.0
  0
LINE
  5
231
330
1F
100
AcDbEntity
  8
0
  6
Continuous
 62
     7
370
    25
100
AcDbLine
 10
3062.8016810805
 20
9153.1944124107
 30
0.0
 11
1942.8016912133
 21
9153.1944124107
 31
0.0
  0
LINE
  5
232
330
1F
100
AcDbEntity
  8
0
  6
Continuous
 62
     7
370
    25
100
AcDbLine
 10
3072.8016715438
 20
8436.1027924423
 30
0.0
 11
3072.8016715438
 21
8399.8504726295
 31
0.0
  0
LINE
  5
233
330
1F
100
AcDbEntity
  8
0
  6
Continuous
 62
     7
370
    25
100
AcDbLine
 10
3072.7017145545
 20
8399.8504726295
 30
0.0
 11
3072.8016715438
 21
8399.8504726295
 31
0.0
  0
LINE
  5
234
330
1F
100
AcDbEntity
  8
0
  6
Continuous
 62
     7
370
    25
100
AcDbLine
 10
1932.8016858489
 20
8436.1027924423
 30
0.0
 11
1932.8016858489
 21
8399.8504726295
 31
0.0
  0
LINE
  5
235
330
1F
100
AcDbEntity
  8
0
  6
Continuous
 62
     7
370
    25
100
AcDbLine
 10
1932.9016875417
 20
8399.8504726295
 30
0.0
 11
1932.8016858489
 21
8399.8504726295
 31
0.0
  0
LINE
  5
236
330
1F
100
AcDbEntity
  8
0
  6
Continuous
 62
     7
370
    25
100
AcDbLine
 10
1932.8016858489
 20
9038.3338777427
 30
0.0
 11
1932.8016858489
 21
9002.0814983253
 31
0.0
  0
LINE
  5
237
330
1F
100
AcDbEntity
  8
0
  6
Continuous
 62
     7
370
    25
100
AcDbLine
 10
1932.9016875417
 20
9002.0814983253
 30
0.0
 11
1932.8016858489
 21
9002.0814983253
 31
0.0
  0
LINE
  5
238
330
1F
100
AcDbEntity
  8
0
  6
Continuous
 62
     7
370
    25
100
AcDbLine
 10
3072.8016715438
 20
9038.3338777427
 30
0.0
 11
3072.8016715438
 21
9002.0814983253
 31
0.0
  0
LINE
  5
239
330
1F
100
AcDbEntity
  8
0
  6
Continuous
 62
     7
370
    25
100
AcDbLine
 10
3072.7017145545
 20
9002.0814983253
 30
0.0
 11
3072.8016715438
 21
9002.0814983253
 31
0.0
  0
LINE
  5
23A
330
1F
100
AcDbEntity
  8
0
  6
Continuous
 62
     7
370
    25
100
AcDbLine
 10
3062.8016810805
 20
9154.0305463676
 30
0.0
 11
1942.8016912133
 21
9154.0305463676
 31
0.0
  0
LINE
  5
23B
330
1F
100
AcDbEntity
  8
0
  6
Continuous
 62
     7
370
    25
100
AcDbLine
 10
4267.8017836005
 20
8924.9536840324
 30
0.0
 11
4267.8017836005
 21
8920.302495182
 31
0.0
  0
LINE
  5
23C
330
1F
100
AcDbEntity
  8
0
  6
Continuous
 62
     7
370
    25
100
AcDbLine
 10
1897.8016894252
 20
8920.302495182
 30
0.0
 11
1897.8016894252
 21
8924.9536840324
 31
0.0
  0
LWPOLYLINE
  5
23D
330
1F
100
AcDbEntity
  8
0
  6
Continuous
 62
     7
370
    25
100
AcDbPolyline
 90
       28
 70
   128
 43
0.0
 10
4236.3016825111
 20
8900.8167831306
 10
4236.4769201667
 20
8899.4582740669
 10
4236.9930963904
 20
8898.1729595069
 10
4237.8223162086
 20
8897.0302192573
 10
4238.9202337653
 20
8896.0915653114
 10
4240.227244416
 20
8895.4076616172
 10
4241.6730146796
 20
8895.0153438453
 10
4243.179581681
 20
8894.9358312492
 10
4244.6658831031
 20
8895.173296154
 10
4246.0515718848
 20
8895.715102375
 10
4247.2622614295
 20
8896.531924427
 10
4248.2323866279
 20
8897.5796548728
 10
4248.9097338111
 20
8898.8020269279
 10
4249.2578249366
 20
8900.1328794364
 10
4249.2578249366
 20
8901.5006868247
 10
4248.9097338111
 20
8902.8316585426
 10
4248.2323866279
 20
8904.0540305976
 10
4247.2622614295
 20
8905.1017610435
 10
4246.0515718848
 20
8905.9185830955
 10
4244.6658831031
 20
8906.4603893165
 10
4243.179581681
 20
8906.6978542213
 10
4241.6730146796
 20
8906.6183416252
 10
4240.227244416
 20
8906.2260238532
 10
4238.9202337653
 20
8905.5421201591
 10
4237.8223162086
 20
8904.6034662132
 10
4236.9930963904
 20
8903.4607259635
 10
4236.4769201667
 20
8902.1754114036
 10
4236.3016825111
 20
8900.8167831306
  0
LWPOLYLINE
  5
23E
330
1F
100
AcDbEntity
  8
0
  6
Continuous
 62
     7
370
    25
100
AcDbPolyline
 90
       28
 70
   128
 43
0.0
 10
1929.3016862065
 20
8855.5013982658
 10
1929.1264783532
 20
8856.8600265388
 10
1928.6103021295
 20
8858.1453410987
 10
1927.7809780032
 20
8859.2880813484
 10
1926.6832243592
 20
8860.2267352943
 10
1925.3762137086
 20
8860.9106389884
 10
1923.9303987414
 20
8861.3029567603
 10
1922.4237423331
 20
8861.3824693565
 10
1920.9374707133
 20
8861.1450044517
 10
1919.5516925246
 20
8860.6031982307
 10
1918.3411221892
 20
8859.7863761787
 10
1917.371011892
 20
8858.7386457328
 10
1916.69367961
 20
8857.5162736778
 10
1916.345633188
 20
8856.1853019599
 10
1916.345633188
 20
8854.8174945716
 10
1916.69367961
 20
8853.4866420631
 10
1917.371011892
 20
8852.264270008
 10
1918.3411221892
 20
8851.2164203529
 10
1919.5516925246
 20
8850.3997175102
 10
1920.9374707133
 20
8849.8579112892
 10
1922.4237423331
 20
8849.6204463844
 10
1923.9303987414
 20
8849.6999589805
 10
1925.3762137086
 20
8850.0922767524
 10
1926.6832243592
 20
8850.7761804466
 10
1927.7809780032
 20
8851.7147151832
 10
1928.6103021295
 20
8852.8575746421
 10
1929.1264783532
 20
8854.1428892021
 10
1929.3016862065
 20
8855.5013982658
  0
LWPOLYLINE
  5
23F
330
1F
100
AcDbEntity
  8
0
  6
Continuous
 62
     7
370
    25
100
AcDbPolyline
 90
       28
 70
   128
 43
0.0
 10
1929.3016862065
 20
8900.8167831306
 10
1929.1264783532
 20
8902.1754114036
 10
1928.6103021295
 20
8903.4607259635
 10
1927.7809780032
 20
8904.6034662132
 10
1926.6832243592
 20
8905.5421201591
 10
1925.3762137086
 20
8906.2260238532
 10
1923.9303987414
 20
8906.6183416252
 10
1922.4237423331
 20
8906.6978542213
 10
1920.9374707133
 20
8906.4603893165
 10
1919.5516925246
 20
8905.9185830955
 10
1918.3411221892
 20
8905.1017610435
 10
1917.371011892
 20
8904.0540305976
 10
1916.69367961
 20
8902.8316585426
 10
1916.345633188
 20
8901.5006868247
 10
1916.345633188
 20
8900.1328794364
 10
1916.69367961
 20
8898.8020269279
 10
1917.371011892
 20
8897.5796548728
 10
1918.3411221892
 20
8896.531924427
 10
1919.5516925246
 20
8895.715102375
 10
1920.9374707133
 20
8895.173296154
 10
1922.4237423331
 20
8894.9358312492
 10
1923.9303987414
 20
8895.0153438453
 10
1925.3762137086
 20
8895.4076616172
 10
1926.6832243592
 20
8896.0915653114
 10
1927.7809780032
 20
8897.0302192573
 10
1928.6103021295
 20
8898.1729595069
 10
1929.1264783532
 20
8899.4582740669
 10
1929.3016862065
 20
8900.8167831306
  0
LWPOLYLINE
  5
240
330
1F
100
AcDbEntity
  8
0
  6
Continuous
 62
     7
370
    25
100
AcDbPolyline
 90
       28
 70
   128
 43
0.0
 10
4236.3016825111
 20
8855.5013982658
 10
4236.4769201667
 20
8854.1428892021
 10
4236.9930963904
 20
8852.8575746421
 10
4237.8223162086
 20
8851.7147151832
 10
4238.9202337653
 20
8850.7761804466
 10
4240.227244416
 20
8850.0922767524
 10
4241.6730146796
 20
8849.6999589805
 10
4243.179581681
 20
8849.6204463844
 10
4244.6658831031
 20
8849.8579112892
 10
4246.0515718848
 20
8850.3997175102
 10
4247.2622614295
 20
8851.2164203529
 10
4248.2323866279
 20
8852.264270008
 10
4248.9097338111
 20
8853.4866420631
 10
4249.2578249366
 20
8854.8174945716
 10
4249.2578249366
 20
8856.1853019599
 10
4248.9097338111
 20
8857.5162736778
 10
4248.2323866279
 20
8858.7386457328
 10
4247.2622614295
 20
8859.7863761787
 10
4246.0515718848
 20
8860.6031982307
 10
4244.6658831031
 20
8861.1450044517
 10
4243.179581681
 20
8861.3824693565
 10
4241.6730146796
 20
8861.3029567603
 10
4240.227244416
 20
8860.9106389884
 10
4238.9202337653
 20
8860.2267352943
 10
4237.8223162086
 20
8859.2880813484
 10
4236.9930963904
 20
8858.1453410987
 10
4236.4769201667
 20
8856.8600265388
 10
4236.3016825111
 20
8855.5013982658
  0
LINE
  5
241
330
1F
100
AcDbEntity
  8
0
  6
Continuous
 62
     7
370
    25
100
AcDbLine
 10
4267.8017836005
 20
8836.0158054237
 30
0.0
 11
4267.8017836005
 21
8920.302495182
 31
0.0
  0
LINE
  5
242
330
1F
100
AcDbEntity
  8
0
  6
Continuous
 62
     7
370
    25
100
AcDbLine
 10
1897.8016894252
 20
8836.0158054237
 30
0.0
 11
1897.8016894252
 21
8920.302495182
 31
0.0
  0
LINE
  5
243
330
1F
100
AcDbEntity
  8
0
  6
Continuous
 62
     7
370
    25
100
AcDbLine
 10
1897.8016894252
 20
8924.9536840324
 30
0.0
 11
1897.8016894252
 21
8943.1263057594
 31
0.0
  0
LINE
  5
244
330
1F
100
AcDbEntity
  8
0
  6
Continuous
 62
     7
370
    25
100
AcDbLine
 10
4267.8017836005
 20
8924.9536840324
 30
0.0
 11
4267.8017836005
 21
8943.1263057594
 31
0.0
  0
LINE
  5
245
330
1F
100
AcDbEntity
  8
0
  6
Continuous
 62
     7
370
    25
100
AcDbLine
 10
3072.7017145545
 20
8931.2929956321
 30
0.0
 11
3092.9016690642
 21
8931.2929956321
 31
0.0
  0
LINE
  5
246
330
1F
100
AcDbEntity
  8
0
  6
Continuous
 62
     7
370
    25
100
AcDbLine
 10
3092.9016690642
 20
8936.7869941596
 30
0.0
 11
3072.7017145545
 21
8936.7869941596
 31
0.0
  0
LWPOLYLINE
  5
247
330
1F
100
AcDbEntity
  8
0
  6
Continuous
 62
     7
370
    25
100
AcDbPolyline
 90
       15
 70
   128
 43
0.0
 10
4236.3112192542
 20
8901.1337606315
 10
4236.4769201667
 20
8900.0922290687
 10
4236.9930963904
 20
8898.8069145088
 10
4237.8223162086
 20
8897.6640550498
 10
4238.9202337653
 20
8896.7254011039
 10
4240.227244416
 20
8896.0414974098
 10
4241.6730146796
 20
8895.6492988471
 10
4243.179581681
 20
8895.5696670417
 10
4244.6658831031
 20
8895.8072511558
 10
4246.0515718848
 20
8896.3489381675
 10
4247.2622614295
 20
8897.1657602195
 10
4248.2323866279
 20
8898.2136098747
 10
4248.9097338111
 20
8899.4358627204
 10
4249.2578249366
 20
8900.7668344383
 10
4249.292157212
 20
8901.1337606315
  0
LWPOLYLINE
  5
248
330
1F
100
AcDbEntity
  8
0
  6
Continuous
 62
     7
370
    25
100
AcDbPolyline
 90
       15
 70
   128
 43
0.0
 10
1916.3111071975
 20
8901.1337606315
 10
1916.345633188
 20
8900.7668344383
 10
1916.69367961
 20
8899.4358627204
 10
1917.371011892
 20
8898.2136098747
 10
1918.3411221892
 20
8897.1657602195
 10
1919.5516925246
 20
8896.3489381675
 10
1920.9374707133
 20
8895.8072511558
 10
1922.4237423331
 20
8895.5696670417
 10
1923.9303987414
 20
8895.6492988471
 10
1925.3762137086
 20
8896.0414974098
 10
1926.6832243592
 20
8896.7254011039
 10
1927.7809780032
 20
8897.6640550498
 10
1928.6103021295
 20
8898.8069145088
 10
1929.1264783532
 20
8900.0922290687
 10
1929.2922686727
 20
8901.1337606315
  0
LINE
  5
249
330
1F
100
AcDbEntity
  8
0
  6
Continuous
 62
     7
370
    25
100
AcDbLine
 10
3092.9016690642
 20
8935.4275314216
 30
0.0
 11
3072.7017145545
 21
8935.4275314216
 31
0.0
  0
LWPOLYLINE
  5
24A
330
1F
100
AcDbEntity
  8
0
  6
Continuous
 62
     7
370
    25
100
AcDbPolyline
 90
       15
 70
   128
 43
0.0
 10
4236.3112192542
 20
8855.8183757667
 10
4236.4769201667
 20
8854.7768442039
 10
4236.9930963904
 20
8853.491529644
 10
4237.8223162086
 20
8852.348670185
 10
4238.9202337653
 20
8851.4100162391
 10
4240.227244416
 20
8850.726112545
 10
4241.6730146796
 20
8850.3339139823
 10
4243.179581681
 20
8850.2542821769
 10
4244.6658831031
 20
8850.491866291
 10
4246.0515718848
 20
8851.0335533027
 10
4247.2622614295
 20
8851.8503753547
 10
4248.2323866279
 20
8852.8982250099
 10
4248.9097338111
 20
8854.1204778556
 10
4249.2578249366
 20
8855.4514495735
 10
4249.292157212
 20
8855.8183757667
  0
LWPOLYLINE
  5
24B
330
1F
100
AcDbEntity
  8
0
  6
Continuous
 62
     7
370
    25
100
AcDbPolyline
 90
       15
 70
   128
 43
0.0
 10
1916.3111071975
 20
8855.8183757667
 10
1916.345633188
 20
8855.4514495735
 10
1916.69367961
 20
8854.1204778556
 10
1917.371011892
 20
8852.8982250099
 10
1918.3411221892
 20
8851.8503753547
 10
1919.5516925246
 20
8851.0335533027
 10
1920.9374707133
 20
8850.491866291
 10
1922.4237423331
 20
8850.2542821769
 10
1923.9303987414
 20
8850.3339139823
 10
1925.3762137086
 20
8850.726112545
 10
1926.6832243592
 20
8851.4100162391
 10
1927.7809780032
 20
8852.348670185
 10
1928.6103021295
 20
8853.491529644
 10
1929.1264783532
 20
8854.7768442039
 10
1929.2922686727
 20
8855.8183757667
  0
LINE
  5
24C
330
1F
100
AcDbEntity
  8
0
  6
Continuous
 62
     7
370
    25
100
AcDbLine
 10
4267.8017836005
 20
8836.0158054237
 30
0.0
 11
4267.8017836005
 21
8833.9949695472
 31
0.0
  0
LINE
  5
24D
330
1F
100
AcDbEntity
  8
0
  6
Continuous
 62
     7
370
    25
100
AcDbLine
 10
1897.8016894252
 20
8833.9949695472
 30
0.0
 11
1897.8016894252
 21
8836.0158054237
 31
0.0
  0
LINE
  5
24E
330
1F
100
AcDbEntity
  8
0
  6
Continuous
 62
     7
370
    25
100
AcDbLine
 10
1897.8016894252
 20
8943.1263057594
 30
0.0
 11
1897.8016894252
 21
8943.4542505149
 31
0.0
  0
LINE
  5
24F
330
1F
100
AcDbEntity
  8
0
  6
Continuous
 62
     7
370
    25
100
AcDbLine
 10
4267.8017836005
 20
8943.1263057594
 30
0.0
 11
4267.8017836005
 21
8943.4542505149
 31
0.0
  0
LINE
  5
250
330
1F
100
AcDbEntity
  8
0
  6
Continuous
 62
     7
370
    25
100
AcDbLine
 10
4267.8017836005
 20
8302.0143358116
 30
0.0
 11
4267.8017836005
 21
8297.3631469612
 31
0.0
  0
LINE
  5
251
330
1F
100
AcDbEntity
  8
0
  6
Continuous
 62
     7
370
    25
100
AcDbLine
 10
1897.8016894252
 20
8297.3631469612
 30
0.0
 11
1897.8016894252
 21
8302.0143358116
 31
0.0
  0
LWPOLYLINE
  5
252
330
1F
100
AcDbEntity
  8
0
  6
Continuous
 62
     7
370
    25
100
AcDbPolyline
 90
       28
 70
   128
 43
0.0
 10
4236.3016825111
 20
8277.8774945144
 10
4236.4769201667
 20
8276.518925846
 10
4236.9930963904
 20
8275.2336112861
 10
4237.8223162086
 20
8274.0908710365
 10
4238.9202337653
 20
8273.1522170906
 10
4240.227244416
 20
8272.4683133964
 10
4241.6730146796
 20
8272.0759956245
 10
4243.179581681
 20
8271.9964830284
 10
4244.6658831031
 20
8272.2340075378
 10
4246.0515718848
 20
8272.7757541541
 10
4247.2622614295
 20
8273.5925762062
 10
4248.2323866279
 20
8274.6403662567
 10
4248.9097338111
 20
8275.8626787071
 10
4249.2578249366
 20
8277.1935908203
 10
4249.2578249366
 20
8278.5613982086
 10
4248.9097338111
 20
8279.8923699264
 10
4248.2323866279
 20
8281.1146823768
 10
4247.2622614295
 20
8282.1624724273
 10
4246.0515718848
 20
8282.9792348747
 10
4244.6658831031
 20
8283.5210410957
 10
4243.179581681
 20
8283.7585656051
 10
4241.6730146796
 20
8283.6789934043
 10
4240.227244416
 20
8283.2867352371
 10
4238.9202337653
 20
8282.6028315429
 10
4237.8223162086
 20
8281.664177597
 10
4236.9930963904
 20
8280.5213777427
 10
4236.4769201667
 20
8279.2360631828
 10
4236.3016825111
 20
8277.8774945144
  0
LWPOLYLINE
  5
253
330
1F
100
AcDbEntity
  8
0
  6
Continuous
 62
     7
370
    25
100
AcDbPolyline
 90
       28
 70
   128
 43
0.0
 10
1929.3016862065
 20
8232.5621096496
 10
1929.1264783532
 20
8233.920678318
 10
1928.6103021295
 20
8235.2059928779
 10
1927.7809780032
 20
8236.3487927322
 10
1926.6832243592
 20
8237.2874466781
 10
1925.3762137086
 20
8237.9713503723
 10
1923.9303987414
 20
8238.3636085395
 10
1922.4237423331
 20
8238.4431807403
 10
1920.9374707133
 20
8238.2056562309
 10
1919.5516925246
 20
8237.6638500099
 10
1918.3411221892
 20
8236.8470875625
 10
1917.371011892
 20
8235.799297512
 10
1916.69367961
 20
8234.5769850616
 10
1916.345633188
 20
8233.2460133438
 10
1916.345633188
 20
8231.8782059554
 10
1916.69367961
 20
8230.5472938423
 10
1917.371011892
 20
8229.3249813919
 10
1918.3411221892
 20
8228.2771317367
 10
1919.5516925246
 20
8227.4603692893
 10
1920.9374707133
 20
8226.918622673
 10
1922.4237423331
 20
8226.6810981635
 10
1923.9303987414
 20
8226.7606107597
 10
1925.3762137086
 20
8227.1529285316
 10
1926.6832243592
 20
8227.8368322257
 10
1927.7809780032
 20
8228.775426567
 10
1928.6103021295
 20
8229.9182264213
 10
1929.1264783532
 20
8231.2035409812
 10
1929.3016862065
 20
8232.5621096496
  0
LWPOLYLINE
  5
254
330
1F
100
AcDbEntity
  8
0
  6
Continuous
 62
     7
370
    25
100
AcDbPolyline
 90
       28
 70
   128
 43
0.0
 10
1929.3016862065
 20
8277.8774945144
 10
1929.1264783532
 20
8279.2360631828
 10
1928.6103021295
 20
8280.5213777427
 10
1927.7809780032
 20
8281.664177597
 10
1926.6832243592
 20
8282.6028315429
 10
1925.3762137086
 20
8283.2867352371
 10
1923.9303987414
 20
8283.6789934043
 10
1922.4237423331
 20
8283.7585656051
 10
1920.9374707133
 20
8283.5210410957
 10
1919.5516925246
 20
8282.9792348747
 10
1918.3411221892
 20
8282.1624724273
 10
1917.371011892
 20
8281.1146823768
 10
1916.69367961
 20
8279.8923699264
 10
1916.345633188
 20
8278.5613982086
 10
1916.345633188
 20
8277.1935908203
 10
1916.69367961
 20
8275.8626787071
 10
1917.371011892
 20
8274.6403662567
 10
1918.3411221892
 20
8273.5925762062
 10
1919.5516925246
 20
8272.7757541541
 10
1920.9374707133
 20
8272.2340075378
 10
1922.4237423331
 20
8271.9964830284
 10
1923.9303987414
 20
8272.0759956245
 10
1925.3762137086
 20
8272.4683133964
 10
1926.6832243592
 20
8273.1522170906
 10
1927.7809780032
 20
8274.0908710365
 10
1928.6103021295
 20
8275.2336112861
 10
1929.1264783532
 20
8276.518925846
 10
1929.3016862065
 20
8277.8774945144
  0
LWPOLYLINE
  5
255
330
1F
100
AcDbEntity
  8
0
  6
Continuous
 62
     7
370
    25
100
AcDbPolyline
 90
       28
 70
   128
 43
0.0
 10
4236.3016825111
 20
8232.5621096496
 10
4236.4769201667
 20
8231.2035409812
 10
4236.9930963904
 20
8229.9182264213
 10
4237.8223162086
 20
8228.775426567
 10
4238.9202337653
 20
8227.8368322257
 10
4240.227244416
 20
8227.1529285316
 10
4241.6730146796
 20
8226.7606107597
 10
4243.179581681
 20
8226.6810981635
 10
4244.6658831031
 20
8226.918622673
 10
4246.0515718848
 20
8227.4603692893
 10
4247.2622614295
 20
8228.2771317367
 10
4248.2323866279
 20
8229.3249813919
 10
4248.9097338111
 20
8230.5472938423
 10
4249.2578249366
 20
8231.8782059554
 10
4249.2578249366
 20
8233.2460133438
 10
4248.9097338111
 20
8234.5769850616
 10
4248.2323866279
 20
8235.799297512
 10
4247.2622614295
 20
8236.8470875625
 10
4246.0515718848
 20
8237.6638500099
 10
4244.6658831031
 20
8238.2056562309
 10
4243.179581681
 20
8238.4431807403
 10
4241.6730146796
 20
8238.3636085395
 10
4240.227244416
 20
8237.9713503723
 10
4238.9202337653
 20
8237.2874466781
 10
4237.8223162086
 20
8236.3487927322
 10
4236.9930963904
 20
8235.2059928779
 10
4236.4769201667
 20
8233.920678318
 10
4236.3016825111
 20
8232.5621096496
  0
LINE
  5
256
330
1F
100
AcDbEntity
  8
0
  6
Continuous
 62
     7
370
    25
100
AcDbLine
 10
4267.8017836005
 20
8213.0765168075
 30
0.0
 11
4267.8017836005
 21
8297.3631469612
 31
0.0
  0
LINE
  5
257
330
1F
100
AcDbEntity
  8
0
  6
Continuous
 62
     7
370
    25
100
AcDbLine
 10
1897.8016894252
 20
8213.0765168075
 30
0.0
 11
1897.8016894252
 21
8297.3631469612
 31
0.0
  0
LINE
  5
258
330
1F
100
AcDbEntity
  8
0
  6
Continuous
 62
     7
370
    25
100
AcDbLine
 10
1897.8016894252
 20
8302.0143358116
 30
0.0
 11
1897.8016894252
 21
8320.1869575385
 31
0.0
  0
LINE
  5
259
330
1F
100
AcDbEntity
  8
0
  6
Continuous
 62
     7
370
    25
100
AcDbLine
 10
4267.8017836005
 20
8302.0143358116
 30
0.0
 11
4267.8017836005
 21
8320.1869575385
 31
0.0
  0
LINE
  5
25A
330
1F
100
AcDbEntity
  8
0
  6
Continuous
 62
     7
370
    25
100
AcDbLine
 10
3072.8016715438
 20
8308.3536474113
 30
0.0
 11
3092.801712075
 21
8308.3536474113
 31
0.0
  0
LINE
  5
25B
330
1F
100
AcDbEntity
  8
0
  6
Continuous
 62
     7
370
    25
100
AcDbLine
 10
3092.801712075
 20
8313.8477055435
 30
0.0
 11
3072.8016715438
 21
8313.8477055435
 31
0.0
  0
LWPOLYLINE
  5
25C
330
1F
100
AcDbEntity
  8
0
  6
Continuous
 62
     7
370
    25
100
AcDbPolyline
 90
       15
 70
   128
 43
0.0
 10
4236.3112192542
 20
8278.1944720153
 10
4236.4769201667
 20
8277.1528808479
 10
4236.9930963904
 20
8275.8675662879
 10
4237.8223162086
 20
8274.7247664337
 10
4238.9202337653
 20
8273.7861124877
 10
4240.227244416
 20
8273.1022087936
 10
4241.6730146796
 20
8272.7099506263
 10
4243.179581681
 20
8272.6303784255
 10
4244.6658831031
 20
8272.867902935
 10
4246.0515718848
 20
8273.4096495513
 10
4247.2622614295
 20
8274.2264716033
 10
4248.2323866279
 20
8275.2742616538
 10
4248.9097338111
 20
8276.4965741043
 10
4249.2578249366
 20
8277.8275458221
 10
4249.292157212
 20
8278.1944720153
  0
LWPOLYLINE
  5
25D
330
1F
100
AcDbEntity
  8
0
  6
Continuous
 62
     7
370
    25
100
AcDbPolyline
 90
       15
 70
   128
 43
0.0
 10
1916.3111071975
 20
8278.1944720153
 10
1916.345633188
 20
8277.8275458221
 10
1916.69367961
 20
8276.4965741043
 10
1917.371011892
 20
8275.2742616538
 10
1918.3411221892
 20
8274.2264716033
 10
1919.5516925246
 20
8273.4096495513
 10
1920.9374707133
 20
8272.867902935
 10
1922.4237423331
 20
8272.6303784255
 10
1923.9303987414
 20
8272.7099506263
 10
1925.3762137086
 20
8273.1022087936
 10
1926.6832243592
 20
8273.7861124877
 10
1927.7809780032
 20
8274.7247664337
 10
1928.6103021295
 20
8275.8675662879
 10
1929.1264783532
 20
8277.1528808479
 10
1929.2922686727
 20
8278.1944720153
  0
LINE
  5
25E
330
1F
100
AcDbEntity
  8
0
  6
Continuous
 62
     7
370
    25
100
AcDbLine
 10
3092.801712075
 20
8312.4882428054
 30
0.0
 11
3072.8016715438
 21
8312.4882428054
 31
0.0
  0
LWPOLYLINE
  5
25F
330
1F
100
AcDbEntity
  8
0
  6
Continuous
 62
     7
370
    25
100
AcDbPolyline
 90
       15
 70
   128
 43
0.0
 10
4236.3112192542
 20
8232.8790871505
 10
4236.4769201667
 20
8231.8374959831
 10
4236.9930963904
 20
8230.5521814231
 10
4237.8223162086
 20
8229.4093815689
 10
4238.9202337653
 20
8228.4707276229
 10
4240.227244416
 20
8227.7868239288
 10
4241.6730146796
 20
8227.3945657615
 10
4243.179581681
 20
8227.3149935607
 10
4244.6658831031
 20
8227.5525180702
 10
4246.0515718848
 20
8228.0942646865
 10
4247.2622614295
 20
8228.9110867385
 10
4248.2323866279
 20
8229.958876789
 10
4248.9097338111
 20
8231.1811892394
 10
4249.2578249366
 20
8232.5121609573
 10
4249.292157212
 20
8232.8790871505
  0
LWPOLYLINE
  5
260
330
1F
100
AcDbEntity
  8
0
  6
Continuous
 62
     7
370
    25
100
AcDbPolyline
 90
       15
 70
   128
 43
0.0
 10
1916.3111071975
 20
8232.8790871505
 10
1916.345633188
 20
8232.5121609573
 10
1916.69367961
 20
8231.1811892394
 10
1917.371011892
 20
8229.958876789
 10
1918.3411221892
 20
8228.9110867385
 10
1919.5516925246
 20
8228.0942646865
 10
1920.9374707133
 20
8227.5525180702
 10
1922.4237423331
 20
8227.3149935607
 10
1923.9303987414
 20
8227.3945657615
 10
1925.3762137086
 20
8227.7868239288
 10
1926.6832243592
 20
8228.4707276229
 10
1927.7809780032
 20
8229.4093815689
 10
1928.6103021295
 20
8230.5521814231
 10
1929.1264783532
 20
8231.8374959831
 10
1929.2922686727
 20
8232.8790871505
  0
LINE
  5
261
330
1F
100
AcDbEntity
  8
0
  6
Continuous
 62
     7
370
    25
100
AcDbLine
 10
4267.8017836005
 20
8213.0765168075
 30
0.0
 11
4267.8017836005
 21
8211.055680931
 31
0.0
  0
LINE
  5
262
330
1F
100
AcDbEntity
  8
0
  6
Continuous
 62
     7
370
    25
100
AcDbLine
 10
1897.8016894252
 20
8211.055680931
 30
0.0
 11
1897.8016894252
 21
8213.0765168075
 31
0.0
  0
LINE
  5
263
330
1F
100
AcDbEntity
  8
0
  6
Continuous
 62
     7
370
    25
100
AcDbLine
 10
1897.8016894252
 20
8320.1869575385
 30
0.0
 11
1897.8016894252
 21
8320.5149022941
 31
0.0
  0
LINE
  5
264
330
1F
100
AcDbEntity
  8
0
  6
Continuous
 62
     7
370
    25
100
AcDbLine
 10
4267.8017836005
 20
8320.1869575385
 30
0.0
 11
4267.8017836005
 21
8320.5149022941
 31
0.0
  0
LINE
  5
265
330
1F
100
AcDbEntity
  8
0
  6
Continuous
 62
     7
370
    25
100
AcDbLine
 10
4043.3017235191
 20
8153.5435168151
 30
0.0
 11
4043.3017235191
 21
8155.809268177
 31
0.0
  0
LINE
  5
266
330
1F
100
AcDbEntity
  8
0
  6
Continuous
 62
     7
370
    25
100
AcDbLine
 10
3992.3017244727
 20
8153.5435168151
 30
0.0
 11
4043.3017235191
 21
8153.5435168151
 31
0.0
  0
LINE
  5
267
330
1F
100
AcDbEntity
  8
0
  6
Continuous
 62
     7
370
    25
100
AcDbLine
 10
3992.3017244727
 20
8155.809268177
 30
0.0
 11
3992.3017244727
 21
8153.5435168151
 31
0.0
  0
LINE
  5
268
330
1F
100
AcDbEntity
  8
0
  6
Continuous
 62
     7
370
    25
100
AcDbLine
 10
3992.3017244727
 20
8155.809268177
 30
0.0
 11
4043.3017235191
 21
8155.809268177
 31
0.0
  0
ARC
  5
269
330
1F
100
AcDbEntity
  8
0
  6
Continuous
 62
     7
370
    25
100
AcDbCircle
 10
4043.39099691
 20
8151.6323616968
 30
0.0
 40
1.913239040097079
100
AcDbArc
 50
2.951632394
 51
92.6744417858
  0
ARC
  5
26A
330
1F
100
AcDbEntity
  8
0
  6
Continuous
 62
     7
370
    25
100
AcDbCircle
 10
4043.5027198604
 20
8151.5093429188
 30
0.0
 40
4.304620396134823
100
AcDbArc
 50
2.950027275
 51
92.6762942657
  0
LINE
  5
26B
330
1F
100
AcDbEntity
  8
0
  6
Continuous
 62
     7
370
    25
100
AcDbLine
 10
4047.801635781
 20
8151.7308799629
 30
0.0
 11
4045.3016977698
 21
8151.7308799629
 31
0.0
  0
ARC
  5
26C
330
1F
100
AcDbEntity
  8
0
  6
Continuous
 62
     7
370
    25
100
AcDbCircle
 10
3992.2124516082
 20
8151.6322354535
 30
0.0
 40
1.913365121345551
100
AcDbArc
 50
87.3257503553
 51
177.0447768887
  0
LINE
  5
26D
330
1F
100
AcDbEntity
  8
0
  6
Continuous
 62
     7
370
    25
100
AcDbLine
 10
3990.3016310126
 20
8151.7308799629
 30
0.0
 11
3987.8016930015
 21
8151.7308799629
 31
0.0
  0
ARC
  5
26E
330
1F
100
AcDbEntity
  8
0
  6
Continuous
 62
     7
370
    25
100
AcDbCircle
 10
3992.1006647659
 20
8151.5092871785
 30
0.0
 40
4.304679034855918
100
AcDbArc
 50
87.3228978933
 51
177.0492700508
  0
LINE
  5
26F
330
1F
100
AcDbEntity
  8
0
  6
Continuous
 62
     7
370
    25
100
AcDbLine
 10
4047.801635781
 20
8151.7308799629
 30
0.0
 11
4047.801635781
 21
8158.9580623512
 31
0.0
  0
LINE
  5
270
330
1F
100
AcDbEntity
  8
0
  6
Continuous
 62
     7
370
    25
100
AcDbLine
 10
3987.8016930015
 20
8151.7308799629
 30
0.0
 11
3987.8016930015
 21
8158.9580623512
 31
0.0
  0
LINE
  5
271
330
1F
100
AcDbEntity
  8
0
  6
Continuous
 62
     7
370
    25
100
AcDbLine
 10
3987.8016930015
 20
8055.6622592811
 30
0.0
 11
3990.3016310126
 21
8055.6622592811
 31
0.0
  0
LINE
  5
272
330
1F
100
AcDbEntity
  8
0
  6
Continuous
 62
     7
370
    25
100
AcDbLine
 10
3987.8016930015
 20
8055.6622592811
 30
0.0
 11
3987.8016930015
 21
8151.7308799629
 31
0.0
  0
LINE
  5
273
330
1F
100
AcDbEntity
  8
0
  6
Continuous
 62
     7
370
    25
100
AcDbLine
 10
3990.3016310126
 20
8055.6622592811
 30
0.0
 11
3990.3016310126
 21
8151.7308799629
 31
0.0
  0
LINE
  5
274
330
1F
100
AcDbEntity
  8
0
  6
Continuous
 62
     7
370
    25
100
AcDbLine
 10
4045.3016977698
 20
8137.6831380729
 30
0.0
 11
4047.801635781
 21
8137.6831380729
 31
0.0
  0
LINE
  5
275
330
1F
100
AcDbEntity
  8
0
  6
Continuous
 62
     7
370
    25
100
AcDbLine
 10
4047.801635781
 20
8151.7308799629
 30
0.0
 11
4047.801635781
 21
8137.6831380729
 31
0.0
  0
LINE
  5
276
330
1F
100
AcDbEntity
  8
0
  6
Continuous
 62
     7
370
    25
100
AcDbLine
 10
4045.3016977698
 20
8151.7308799629
 30
0.0
 11
4045.3016977698
 21
8137.6831380729
 31
0.0
  0
LINE
  5
277
330
1F
100
AcDbEntity
  8
0
  6
Continuous
 62
     7
370
    25
100
AcDbLine
 10
4047.801635781
 20
8069.7100607757
 30
0.0
 11
4045.3016977698
 21
8069.7100607757
 31
0.0
  0
LINE
  5
278
330
1F
100
AcDbEntity
  8
0
  6
Continuous
 62
     7
370
    25
100
AcDbLine
 10
4045.3016977698
 20
8055.6622592811
 30
0.0
 11
4047.801635781
 21
8055.6622592811
 31
0.0
  0
LINE
  5
279
330
1F
100
AcDbEntity
  8
0
  6
Continuous
 62
     7
370
    25
100
AcDbLine
 10
4045.3016977698
 20
8069.7100607757
 30
0.0
 11
4045.3016977698
 21
8055.6622592811
 31
0.0
  0
LINE
  5
27A
330
1F
100
AcDbEntity
  8
0
  6
Continuous
 62
     7
370
    25
100
AcDbLine
 10
4047.801635781
 20
8069.7100607757
 30
0.0
 11
4047.801635781
 21
8055.6622592811
 31
0.0
  0
LINE
  5
27B
330
1F
100
AcDbEntity
  8
0
  6
Continuous
 62
     7
370
    25
100
AcDbLine
 10
4045.3016977698
 20
8069.7100607757
 30
0.0
 11
4045.3016977698
 21
8137.6831380729
 31
0.0
  0
LINE
  5
27C
330
1F
100
AcDbEntity
  8
0
  6
Continuous
 62
     7
370
    25
100
AcDbLine
 10
4047.801635781
 20
8069.7100607757
 30
0.0
 11
4047.801635781
 21
8137.6831380729
 31
0.0
  0
ARC
  5
27D
330
1F
100
AcDbEntity
  8
0
  6
Continuous
 62
     7
370
    25
100
AcDbCircle
 10
4043.5027058352
 20
8055.8838432212
 30
0.0
 40
4.304636816401885
100
AcDbArc
 50
267.323902832
 51
357.0493589611
  0
ARC
  5
27E
330
1F
100
AcDbEntity
  8
0
  6
Continuous
 62
     7
370
    25
100
AcDbCircle
 10
4043.3909839534
 20
8055.7608232654
 30
0.0
 40
1.913254334202286
100
AcDbArc
 50
267.3259680398
 51
357.0470202873
  0
LINE
  5
27F
330
1F
100
AcDbEntity
  8
0
  6
Continuous
 62
     7
370
    25
100
AcDbLine
 10
4043.3017235191
 20
8051.5839008693
 30
0.0
 11
4043.3017235191
 21
8053.8496522312
 31
0.0
  0
ARC
  5
280
330
1F
100
AcDbEntity
  8
0
  6
Continuous
 62
     7
370
    25
100
AcDbCircle
 10
3992.2124645759
 20
8055.7609495239
 30
0.0
 40
1.913380430157234
100
AcDbArc
 50
182.9565707498
 51
272.6738394939
  0
LINE
  5
281
330
1F
100
AcDbEntity
  8
0
  6
Continuous
 62
     7
370
    25
100
AcDbLine
 10
3992.3017244727
 20
8053.8496522312
 30
0.0
 11
3992.3017244727
 21
8051.5839008693
 31
0.0
  0
ARC
  5
282
330
1F
100
AcDbEntity
  8
0
  6
Continuous
 62
     7
370
    25
100
AcDbCircle
 10
3992.1006787931
 20
8055.8838989648
 30
0.0
 40
4.30469545800419
100
AcDbArc
 50
182.9513437431
 51
272.676904978
  0
LINE
  5
283
330
1F
100
AcDbEntity
  8
0
  6
Continuous
 62
     7
370
    25
100
AcDbLine
 10
4043.3017235191
 20
8053.8496522312
 30
0.0
 11
3992.3017244727
 21
8053.8496522312
 31
0.0
  0
LINE
  5
284
330
1F
100
AcDbEntity
  8
0
  6
Continuous
 62
     7
370
    25
100
AcDbLine
 10
4043.3017235191
 20
8051.5839008693
 30
0.0
 11
3992.3017244727
 21
8051.5839008693
 31
0.0
  0
LWPOLYLINE
  5
285
330
1F
100
AcDbEntity
  8
0
  6
Continuous
 62
     7
370
    25
100
AcDbPolyline
 90
       14
 70
   128
 43
0.0
 10
4011.3016586692
 20
8128.4417955284
 10
4011.4906053931
 20
8129.0991751556
 10
4012.0462398917
 20
8129.7184078102
 10
4012.9363756568
 20
8130.2633730773
 10
4014.1092758567
 20
8130.7025401
 10
4015.4967527778
 20
8131.010278881
 10
4017.0182209403
 20
8131.1687676315
 10
4018.5852270515
 20
8131.1687676315
 10
4020.1065760047
 20
8131.010278881
 10
4021.4940529258
 20
8130.7025401
 10
4022.6669531257
 20
8130.2633730773
 10
4023.5572081
 20
8129.7184078102
 10
4024.1128425986
 20
8129.0991751556
 10
4024.3016701133
 20
8128.4417955284
  0
LINE
  5
286
330
1F
100
AcDbEntity
  8
0
  6
Continuous
 62
     7
370
    25
100
AcDbLine
 10
4011.3016586692
 20
8108.5787264709
 30
0.0
 11
4011.3016586692
 21
8128.4417955284
 31
0.0
  0
LWPOLYLINE
  5
287
330
1F
100
AcDbEntity
  8
0
  6
Continuous
 62
     7
370
    25
100
AcDbPolyline
 90
       14
 70
   128
 43
0.0
 10
4024.3016701133
 20
8108.5787264709
 10
4024.1128425986
 20
8107.9213468437
 10
4023.5572081
 20
8107.3021141891
 10
4022.6669531257
 20
8106.7570893173
 10
4021.4940529258
 20
8106.3179818992
 10
4020.1065760047
 20
8106.0102431182
 10
4018.5852270515
 20
8105.8517543678
 10
4017.0182209403
 20
8105.8517543678
 10
4015.4967527778
 20
8106.0102431182
 10
4014.1092758567
 20
8106.3179818992
 10
4012.9363756568
 20
8106.7570893173
 10
4012.0462398917
 20
8107.3021141891
 10
4011.4906053931
 20
8107.9213468437
 10
4011.3016586692
 20
8108.5787264709
  0
LINE
  5
288
330
1F
100
AcDbEntity
  8
0
  6
Continuous
 62
     7
370
    25
100
AcDbLine
 10
4024.3016701133
 20
8128.4417955284
 30
0.0
 11
4024.3016701133
 21
8108.5787264709
 31
0.0
  0
LWPOLYLINE
  5
289
330
1F
100
AcDbEntity
  8
0
  6
Continuous
 62
     7
370
    25
100
AcDbPolyline
 90
       14
 70
   128
 43
0.0
 10
4011.3016586692
 20
8080.6858984832
 10
4011.4906053931
 20
8081.3433377151
 10
4012.0462398917
 20
8081.962510765
 10
4012.9363756568
 20
8082.5075356368
 10
4014.1092758567
 20
8082.9466430549
 10
4015.4967527778
 20
8083.2544414405
 10
4017.0182209403
 20
8083.412930191
 10
4018.5852270515
 20
8083.412930191
 10
4020.1065760047
 20
8083.2544414405
 10
4021.4940529258
 20
8082.9466430549
 10
4022.6669531257
 20
8082.5075356368
 10
4023.5572081
 20
8081.962510765
 10
4024.1128425986
 20
8081.3433377151
 10
4024.3016701133
 20
8080.6858984832
  0
LINE
  5
28A
330
1F
100
AcDbEntity
  8
0
  6
Continuous
 62
     7
370
    25
100
AcDbLine
 10
4011.3016586692
 20
8060.8228890304
 30
0.0
 11
4011.3016586692
 21
8080.6858984832
 31
0.0
  0
LWPOLYLINE
  5
28B
330
1F
100
AcDbEntity
  8
0
  6
Continuous
 62
     7
370
    25
100
AcDbPolyline
 90
       14
 70
   128
 43
0.0
 10
4024.3016701133
 20
8060.8228890304
 10
4024.1128425986
 20
8060.1654497985
 10
4023.5572081
 20
8059.5462767486
 10
4022.6669531257
 20
8059.0012518768
 10
4021.4940529258
 20
8058.5620848541
 10
4020.1065760047
 20
8058.2543460731
 10
4018.5852270515
 20
8058.0958573226
 10
4017.0182209403
 20
8058.0958573226
 10
4015.4967527778
 20
8058.2543460731
 10
4014.1092758567
 20
8058.5620848541
 10
4012.9363756568
 20
8059.0012518768
 10
4012.0462398917
 20
8059.5462767486
 10
4011.4906053931
 20
8060.1654497985
 10
4011.3016586692
 20
8060.8228890304
  0
LINE
  5
28C
330
1F
100
AcDbEntity
  8
0
  6
Continuous
 62
     7
370
    25
100
AcDbLine
 10
4024.3016701133
 20
8080.6858984832
 30
0.0
 11
4024.3016701133
 21
8060.8228890304
 31
0.0
  0
LWPOLYLINE
  5
28D
330
1F
100
AcDbEntity
  8
0
  6
Continuous
 62
     7
370
    25
100
AcDbPolyline
 90
       14
 70
   128
 43
0.0
 10
4024.3016701133
 20
8078.4201471214
 10
4024.1128425986
 20
8079.0775267486
 10
4023.5572081
 20
8079.6967594032
 10
4022.6669531257
 20
8080.241784275
 10
4021.4940529258
 20
8080.6808916931
 10
4020.1065760047
 20
8080.988630474
 10
4018.5852270515
 20
8081.1471192245
 10
4017.0182209403
 20
8081.1471192245
 10
4015.4967527778
 20
8080.988630474
 10
4014.1092758567
 20
8080.6808916931
 10
4012.9363756568
 20
8080.241784275
 10
4012.0462398917
 20
8079.6967594032
 10
4011.4906053931
 20
8079.0775267486
 10
4011.3016586692
 20
8078.4201471214
  0
LWPOLYLINE
  5
28E
330
1F
100
AcDbEntity
  8
0
  6
Continuous
 62
     7
370
    25
100
AcDbPolyline
 90
       14
 70
   128
 43
0.0
 10
4024.3016701133
 20
8126.1759845619
 10
4024.1128425986
 20
8126.8334237937
 10
4023.5572081
 20
8127.4525968437
 10
4022.6669531257
 20
8127.9976217155
 10
4021.4940529258
 20
8128.4367887382
 10
4020.1065760047
 20
8128.7445275192
 10
4018.5852270515
 20
8128.9030162696
 10
4017.0182209403
 20
8128.9030162696
 10
4015.4967527778
 20
8128.7445275192
 10
4014.1092758567
 20
8128.4367887382
 10
4012.9363756568
 20
8127.9976217155
 10
4012.0462398917
 20
8127.4525968437
 10
4011.4906053931
 20
8126.8334237937
 10
4011.3016586692
 20
8126.1759845619
  0
ARC
  5
28F
330
1F
100
AcDbEntity
  8
0
  6
Continuous
 62
     7
370
    25
100
AcDbCircle
 10
2122.2123898072
 20
8151.6323621087
 30
0.0
 40
1.91323978797093
100
AcDbArc
 50
87.3248145277
 51
177.0483811109
  0
LINE
  5
290
330
1F
100
AcDbEntity
  8
0
  6
Continuous
 62
     7
370
    25
100
AcDbLine
 10
2120.3016881772
 20
8151.7308799629
 30
0.0
 11
2117.8016882332
 21
8151.7308799629
 31
0.0
  0
ARC
  5
291
330
1F
100
AcDbEntity
  8
0
  6
Continuous
 62
     7
370
    25
100
AcDbCircle
 10
2122.1007260587
 20
8151.5092127272
 30
0.0
 40
4.304748841585304
100
AcDbArc
 50
87.3242434839
 51
177.0483256872
  0
LINE
  5
292
330
1F
100
AcDbEntity
  8
0
  6
Continuous
 62
     7
370
    25
100
AcDbLine
 10
2122.3016880394
 20
8155.809268177
 30
0.0
 11
2122.3016880394
 21
8153.5435168151
 31
0.0
  0
LINE
  5
293
330
1F
100
AcDbEntity
  8
0
  6
Continuous
 62
     7
370
    25
100
AcDbLine
 10
2173.3016889484
 20
8153.5435168151
 30
0.0
 11
2173.3016889484
 21
8155.809268177
 31
0.0
  0
LINE
  5
294
330
1F
100
AcDbEntity
  8
0
  6
Continuous
 62
     7
370
    25
100
AcDbLine
 10
2122.3016880394
 20
8153.5435168151
 30
0.0
 11
2173.3016889484
 21
8153.5435168151
 31
0.0
  0
LINE
  5
295
330
1F
100
AcDbEntity
  8
0
  6
Continuous
 62
     7
370
    25
100
AcDbLine
 10
2122.3016880394
 20
8155.809268177
 30
0.0
 11
2173.3016889484
 21
8155.809268177
 31
0.0
  0
ARC
  5
296
330
1F
100
AcDbEntity
  8
0
  6
Continuous
 62
     7
370
    25
100
AcDbCircle
 10
2173.3909859216
 20
8151.6323602288
 30
0.0
 40
1.913241607085947
100
AcDbArc
 50
2.951672453
 51
92.6751451843
  0
ARC
  5
297
330
1F
100
AcDbEntity
  8
0
  6
Continuous
 62
     7
370
    25
100
AcDbCircle
 10
2173.5026516998
 20
8151.509215541
 30
0.0
 40
4.304746066811293
100
AcDbArc
 50
2.9516387156
 51
92.6757685123
  0
LINE
  5
298
330
1F
100
AcDbEntity
  8
0
  6
Continuous
 62
     7
370
    25
100
AcDbLine
 10
2177.801686892
 20
8151.7308799629
 30
0.0
 11
2175.3016892762
 21
8151.7308799629
 31
0.0
  0
LINE
  5
299
330
1F
100
AcDbEntity
  8
0
  6
Continuous
 62
     7
370
    25
100
AcDbLine
 10
2177.801686892
 20
8151.7308799629
 30
0.0
 11
2177.801686892
 21
8158.9580623512
 31
0.0
  0
LINE
  5
29A
330
1F
100
AcDbEntity
  8
0
  6
Continuous
 62
     7
370
    25
100
AcDbLine
 10
2117.8016882332
 20
8151.7308799629
 30
0.0
 11
2117.8016882332
 21
8158.9580623512
 31
0.0
  0
LINE
  5
29B
330
1F
100
AcDbEntity
  8
0
  6
Continuous
 62
     7
370
    25
100
AcDbLine
 10
2117.8016882332
 20
8055.6622592811
 30
0.0
 11
2120.3016881772
 21
8055.6622592811
 31
0.0
  0
LINE
  5
29C
330
1F
100
AcDbEntity
  8
0
  6
Continuous
 62
     7
370
    25
100
AcDbLine
 10
2117.8016882332
 20
8055.6622592811
 30
0.0
 11
2117.8016882332
 21
8151.7308799629
 31
0.0
  0
LINE
  5
29D
330
1F
100
AcDbEntity
  8
0
  6
Continuous
 62
     7
370
    25
100
AcDbLine
 10
2120.3016881772
 20
8055.6622592811
 30
0.0
 11
2120.3016881772
 21
8151.7308799629
 31
0.0
  0
LINE
  5
29E
330
1F
100
AcDbEntity
  8
0
  6
Continuous
 62
     7
370
    25
100
AcDbLine
 10
2175.3016892762
 20
8137.6831380729
 30
0.0
 11
2177.801686892
 21
8137.6831380729
 31
0.0
  0
LINE
  5
29F
330
1F
100
AcDbEntity
  8
0
  6
Continuous
 62
     7
370
    25
100
AcDbLine
 10
2175.3016892762
 20
8151.7308799629
 30
0.0
 11
2175.3016892762
 21
8137.6831380729
 31
0.0
  0
LINE
  5
2A0
330
1F
100
AcDbEntity
  8
0
  6
Continuous
 62
     7
370
    25
100
AcDbLine
 10
2177.801686892
 20
8151.7308799629
 30
0.0
 11
2177.801686892
 21
8137.6831380729
 31
0.0
  0
LINE
  5
2A1
330
1F
100
AcDbEntity
  8
0
  6
Continuous
 62
     7
370
    25
100
AcDbLine
 10
2177.801686892
 20
8069.7100607757
 30
0.0
 11
2175.3016892762
 21
8069.7100607757
 31
0.0
  0
LINE
  5
2A2
330
1F
100
AcDbEntity
  8
0
  6
Continuous
 62
     7
370
    25
100
AcDbLine
 10
2177.801686892
 20
8069.7100607757
 30
0.0
 11
2177.801686892
 21
8055.6622592811
 31
0.0
  0
LINE
  5
2A3
330
1F
100
AcDbEntity
  8
0
  6
Continuous
 62
     7
370
    25
100
AcDbLine
 10
2175.3016892762
 20
8055.6622592811
 30
0.0
 11
2177.801686892
 21
8055.6622592811
 31
0.0
  0
LINE
  5
2A4
330
1F
100
AcDbEntity
  8
0
  6
Continuous
 62
     7
370
    25
100
AcDbLine
 10
2175.3016892762
 20
8069.7100607757
 30
0.0
 11
2175.3016892762
 21
8055.6622592811
 31
0.0
  0
LINE
  5
2A5
330
1F
100
AcDbEntity
  8
0
  6
Continuous
 62
     7
370
    25
100
AcDbLine
 10
2175.3016892762
 20
8069.7100607757
 30
0.0
 11
2175.3016892762
 21
8137.6831380729
 31
0.0
  0
LINE
  5
2A6
330
1F
100
AcDbEntity
  8
0
  6
Continuous
 62
     7
370
    25
100
AcDbLine
 10
2177.801686892
 20
8069.7100607757
 30
0.0
 11
2177.801686892
 21
8137.6831380729
 31
0.0
  0
ARC
  5
2A7
330
1F
100
AcDbEntity
  8
0
  6
Continuous
 62
     7
370
    25
100
AcDbCircle
 10
2173.5026376723
 20
8055.8839706029
 30
0.0
 40
4.30476249092749
100
AcDbArc
 50
267.3244286113
 51
357.0477474953
  0
ARC
  5
2A8
330
1F
100
AcDbEntity
  8
0
  6
Continuous
 62
     7
370
    25
100
AcDbCircle
 10
2122.2124027646
 20
8055.7608228546
 30
0.0
 40
1.913255082916882
100
AcDbArc
 50
182.9529662377
 51
272.6747756156
  0
LINE
  5
2A9
330
1F
100
AcDbEntity
  8
0
  6
Continuous
 62
     7
370
    25
100
AcDbLine
 10
2122.3016880394
 20
8053.8496522312
 30
0.0
 11
2122.3016880394
 21
8051.5839008693
 31
0.0
  0
ARC
  5
2AA
330
1F
100
AcDbEntity
  8
0
  6
Continuous
 62
     7
370
    25
100
AcDbCircle
 10
2122.1007400862
 20
8055.8839734168
 30
0.0
 40
4.304765265774289
100
AcDbArc
 50
182.9522881023
 51
272.675559392
  0
ARC
  5
2AB
330
1F
100
AcDbEntity
  8
0
  6
Continuous
 62
     7
370
    25
100
AcDbCircle
 10
2173.3909729642
 20
8055.7608247346
 30
0.0
 40
1.913256902131812
100
AcDbArc
 50
267.3252646733
 51
357.0469801974
  0
LINE
  5
2AC
330
1F
100
AcDbEntity
  8
0
  6
Continuous
 62
     7
370
    25
100
AcDbLine
 10
2173.3016889484
 20
8051.5839008693
 30
0.0
 11
2173.3016889484
 21
8053.8496522312
 31
0.0
  0
LINE
  5
2AD
330
1F
100
AcDbEntity
  8
0
  6
Continuous
 62
     7
370
    25
100
AcDbLine
 10
2173.3016889484
 20
8053.8496522312
 30
0.0
 11
2122.3016880394
 21
8053.8496522312
 31
0.0
  0
LINE
  5
2AE
330
1F
100
AcDbEntity
  8
0
  6
Continuous
 62
     7
370
    25
100
AcDbLine
 10
2173.3016889484
 20
8051.5839008693
 30
0.0
 11
2122.3016880394
 21
8051.5839008693
 31
0.0
  0
LWPOLYLINE
  5
2AF
330
1F
100
AcDbEntity
  8
0
  6
Continuous
 62
     7
370
    25
100
AcDbPolyline
 90
       14
 70
   128
 43
0.0
 10
2141.3016874284
 20
8128.4417955284
 10
2141.4905670972
 20
8129.0991751556
 10
2142.0462239475
 20
8129.7184078102
 10
2142.9363690258
 20
8130.2633730773
 10
2144.109267363
 20
8130.7025401
 10
2145.4967573226
 20
8131.010278881
 10
2147.0181994081
 20
8131.1687676315
 10
2148.5851775796
 20
8131.1687676315
 10
2150.1066196651
 20
8131.010278881
 10
2151.4941077621
 20
8130.7025401
 10
2152.667007962
 20
8130.2633730773
 10
2153.5571511776
 20
8129.7184078102
 10
2154.1128117532
 20
8129.0991751556
 10
2154.3016876967
 20
8128.4417955284
  0
LINE
  5
2B0
330
1F
100
AcDbEntity
  8
0
  6
Continuous
 62
     7
370
    25
100
AcDbLine
 10
2141.3016874284
 20
8108.5787264709
 30
0.0
 11
2141.3016874284
 21
8128.4417955284
 31
0.0
  0
LWPOLYLINE
  5
2B1
330
1F
100
AcDbEntity
  8
0
  6
Continuous
 62
     7
370
    25
100
AcDbPolyline
 90
       14
 70
   128
 43
0.0
 10
2154.3016876967
 20
8108.5787264709
 10
2154.1128117532
 20
8107.9213468437
 10
2153.5571511776
 20
8107.3021141891
 10
2152.667007962
 20
8106.7570893173
 10
2151.4941077621
 20
8106.3179818992
 10
2150.1066196651
 20
8106.0102431182
 10
2148.5851775796
 20
8105.8517543678
 10
2147.0181994081
 20
8105.8517543678
 10
2145.4967573226
 20
8106.0102431182
 10
2144.109267363
 20
8106.3179818992
 10
2142.9363690258
 20
8106.7570893173
 10
2142.0462239475
 20
8107.3021141891
 10
2141.4905670972
 20
8107.9213468437
 10
2141.3016874284
 20
8108.5787264709
  0
LINE
  5
2B2
330
1F
100
AcDbEntity
  8
0
  6
Continuous
 62
     7
370
    25
100
AcDbLine
 10
2154.3016876967
 20
8128.4417955284
 30
0.0
 11
2154.3016876967
 21
8108.5787264709
 31
0.0
  0
LWPOLYLINE
  5
2B3
330
1F
100
AcDbEntity
  8
0
  6
Continuous
 62
     7
370
    25
100
AcDbPolyline
 90
       14
 70
   128
 43
0.0
 10
2141.3016874284
 20
8080.6858984832
 10
2141.4905670972
 20
8081.3433377151
 10
2142.0462239475
 20
8081.962510765
 10
2142.9363690258
 20
8082.5075356368
 10
2144.109267363
 20
8082.9466430549
 10
2145.4967573226
 20
8083.2544414405
 10
2147.0181994081
 20
8083.412930191
 10
2148.5851775796
 20
8083.412930191
 10
2150.1066196651
 20
8083.2544414405
 10
2151.4941077621
 20
8082.9466430549
 10
2152.667007962
 20
8082.5075356368
 10
2153.5571511776
 20
8081.962510765
 10
2154.1128117532
 20
8081.3433377151
 10
2154.3016876967
 20
8080.6858984832
  0
LINE
  5
2B4
330
1F
100
AcDbEntity
  8
0
  6
Continuous
 62
     7
370
    25
100
AcDbLine
 10
2141.3016874284
 20
8060.8228890304
 30
0.0
 11
2141.3016874284
 21
8080.6858984832
 31
0.0
  0
LWPOLYLINE
  5
2B5
330
1F
100
AcDbEntity
  8
0
  6
Continuous
 62
     7
370
    25
100
AcDbPolyline
 90
       14
 70
   128
 43
0.0
 10
2154.3016876967
 20
8060.8228890304
 10
2154.1128117532
 20
8060.1654497985
 10
2153.5571511776
 20
8059.5462767486
 10
2152.667007962
 20
8059.0012518768
 10
2151.4941077621
 20
8058.5620848541
 10
2150.1066196651
 20
8058.2543460731
 10
2148.5851775796
 20
8058.0958573226
 10
2147.0181994081
 20
8058.0958573226
 10
2145.4967573226
 20
8058.2543460731
 10
2144.109267363
 20
8058.5620848541
 10
2142.9363690258
 20
8059.0012518768
 10
2142.0462239475
 20
8059.5462767486
 10
2141.4905670972
 20
8060.1654497985
 10
2141.3016874284
 20
8060.8228890304
  0
LINE
  5
2B6
330
1F
100
AcDbEntity
  8
0
  6
Continuous
 62
     7
370
    25
100
AcDbLine
 10
2154.3016876967
 20
8080.6858984832
 30
0.0
 11
2154.3016876967
 21
8060.8228890304
 31
0.0
  0
LWPOLYLINE
  5
2B7
330
1F
100
AcDbEntity
  8
0
  6
Continuous
 62
     7
370
    25
100
AcDbPolyline
 90
       14
 70
   128
 43
0.0
 10
2154.3016876967
 20
8078.4201471214
 10
2154.1128117532
 20
8079.0775267486
 10
2153.5571511776
 20
8079.6967594032
 10
2152.667007962
 20
8080.241784275
 10
2151.4941077621
 20
8080.6808916931
 10
2150.1066196651
 20
8080.988630474
 10
2148.5851775796
 20
8081.1471192245
 10
2147.0181994081
 20
8081.1471192245
 10
2145.4967573226
 20
8080.988630474
 10
2144.109267363
 20
8080.6808916931
 10
2142.9363690258
 20
8080.241784275
 10
2142.0462239475
 20
8079.6967594032
 10
2141.4905670972
 20
8079.0775267486
 10
2141.3016874284
 20
8078.4201471214
  0
LWPOLYLINE
  5
2B8
330
1F
100
AcDbEntity
  8
0
  6
Continuous
 62
     7
370
    25
100
AcDbPolyline
 90
       14
 70
   128
 43
0.0
 10
2154.3016876967
 20
8126.1759845619
 10
2154.1128117532
 20
8126.8334237937
 10
2153.5571511776
 20
8127.4525968437
 10
2152.667007962
 20
8127.9976217155
 10
2151.4941077621
 20
8128.4367887382
 10
2150.1066196651
 20
8128.7445275192
 10
2148.5851775796
 20
8128.9030162696
 10
2147.0181994081
 20
8128.9030162696
 10
2145.4967573226
 20
8128.7445275192
 10
2144.109267363
 20
8128.4367887382
 10
2142.9363690258
 20
8127.9976217155
 10
2142.0462239475
 20
8127.4525968437
 10
2141.4905670972
 20
8126.8334237937
 10
2141.3016874284
 20
8126.1759845619
  0
LINE
  5
2B9
330
1F
100
AcDbEntity
  8
0
  6
Continuous
 62
     7
370
    25
100
AcDbLine
 10
3927.8016310126
 20
8158.9580623512
 30
0.0
 11
3927.8016310126
 21
6154.8268644218
 31
0.0
  0
LINE
  5
2BA
330
1F
100
AcDbEntity
  8
0
  6
Continuous
 62
     7
370
    25
100
AcDbLine
 10
3932.3016624839
 20
6154.8268644218
 30
0.0
 11
3927.8016310126
 21
6154.8268644218
 31
0.0
  0
LINE
  5
2BB
330
1F
100
AcDbEntity
  8
0
  6
Continuous
 62
     7
370
    25
100
AcDbLine
 10
3987.8016930015
 20
7725.1315562133
 30
0.0
 11
3987.8016930015
 21
6154.8268644218
 31
0.0
  0
LINE
  5
2BC
330
1F
100
AcDbEntity
  8
0
  6
Continuous
 62
     7
370
    25
100
AcDbLine
 10
3987.8016930015
 20
6154.8268644218
 30
0.0
 11
3983.3016615302
 21
6154.8268644218
 31
0.0
  0
LINE
  5
2BD
330
1F
100
AcDbEntity
  8
0
  6
Continuous
 62
     7
370
    25
100
AcDbLine
 10
3983.3016615302
 20
6154.8268644218
 30
0.0
 11
3932.3016624839
 21
6154.8268644218
 31
0.0
  0
LINE
  5
2BE
330
1F
100
AcDbEntity
  8
0
  6
Continuous
 62
     7
370
    25
100
AcDbLine
 10
2117.8016882331
 20
7725.1315562133
 30
0.0
 11
2117.8016882332
 21
6154.8268644218
 31
0.0
  0
LINE
  5
2BF
330
1F
100
AcDbEntity
  8
0
  6
Continuous
 62
     7
370
    25
100
AcDbLine
 10
2117.8016882332
 20
6154.8268644218
 30
0.0
 11
2113.3016884268
 21
6154.8268644218
 31
0.0
  0
LINE
  5
2C0
330
1F
100
AcDbEntity
  8
0
  6
Continuous
 62
     7
370
    25
100
AcDbLine
 10
2113.3016884268
 20
6154.8268644218
 30
0.0
 11
2062.3016875178
 21
6154.8268644218
 31
0.0
  0
LINE
  5
2C1
330
1F
100
AcDbEntity
  8
0
  6
Continuous
 62
     7
370
    25
100
AcDbLine
 10
2057.8016895742
 20
8158.9580623512
 30
0.0
 11
2057.8016895742
 21
6154.8268644218
 31
0.0
  0
LINE
  5
2C2
330
1F
100
AcDbEntity
  8
0
  6
Continuous
 62
     7
370
    25
100
AcDbLine
 10
2062.3016875178
 20
6154.8268644218
 30
0.0
 11
2057.8016895742
 21
6154.8268644218
 31
0.0
  0
LINE
  5
2C3
330
1F
100
AcDbEntity
  8
0
  6
Continuous
 62
     8
370
    25
100
AcDbLine
 10
2121.3016883411
 20
8051.6858546142
 30
0.0
 11
2121.3016883411
 21
7985.5286626224
 31
0.0
  0
LINE
  5
2C4
330
1F
100
AcDbEntity
  8
0
  6
Continuous
 62
     8
370
    25
100
AcDbLine
 10
3991.3016777427
 20
8051.6858546142
 30
0.0
 11
3991.3016777427
 21
7985.5286626224
 31
0.0
  0
LINE
  5
2C5
330
1F
100
AcDbEntity
  8
0
  6
Continuous
 62
     8
370
    25
100
AcDbLine
 10
3991.3016777427
 20
7984.2339603309
 30
0.0
 11
3991.3016777427
 21
7935.0348858241
 31
0.0
  0
LINE
  5
2C6
330
1F
100
AcDbEntity
  8
0
  6
Continuous
 62
     8
370
    25
100
AcDbLine
 10
2114.3016881251
 20
8158.9580623512
 30
0.0
 11
2114.3016881251
 21
8130.4554192428
 31
0.0
  0
LINE
  5
2C7
330
1F
100
AcDbEntity
  8
0
  6
Continuous
 62
     8
370
    25
100
AcDbLine
 10
3984.3017082603
 20
8158.9580623512
 30
0.0
 11
3984.3017082603
 21
8130.4554192428
 31
0.0
  0
LINE
  5
2C8
330
1F
100
AcDbEntity
  8
0
  6
Continuous
 62
     8
370
    25
100
AcDbLine
 10
2121.3016883411
 20
7984.2339603309
 30
0.0
 11
2121.3016883411
 21
7935.0348858241
 31
0.0
  0
LINE
  5
2C9
330
1F
100
AcDbEntity
  8
0
  6
Continuous
 62
     8
370
    25
100
AcDbLine
 10
3092.9016690642
 20
8924.9536840324
 30
0.0
 11
3072.7017145545
 21
8924.9536840324
 31
0.0
  0
LINE
  5
2CA
330
1F
100
AcDbEntity
  8
0
  6
Continuous
 62
     8
370
    25
100
AcDbLine
 10
3092.9016690642
 20
8920.302495182
 30
0.0
 11
3072.7017145545
 21
8920.302495182
 31
0.0
  0
LINE
  5
2CB
330
1F
100
AcDbEntity
  8
0
  6
Continuous
 62
     8
370
    25
100
AcDbLine
 10
4267.8017836005
 20
8920.302495182
 30
0.0
 11
4232.7018003852
 21
8920.302495182
 31
0.0
  0
LINE
  5
2CC
330
1F
100
AcDbEntity
  8
0
  6
Continuous
 62
     8
370
    25
100
AcDbLine
 10
4267.8017836005
 20
8924.9536840324
 30
0.0
 11
4232.7018003852
 21
8924.9536840324
 31
0.0
  0
LINE
  5
2CD
330
1F
100
AcDbEntity
  8
0
  6
Continuous
 62
     8
370
    25
100
AcDbLine
 10
1932.9016875417
 20
8924.9536840324
 30
0.0
 11
1897.8016894252
 21
8924.9536840324
 31
0.0
  0
LINE
  5
2CE
330
1F
100
AcDbEntity
  8
0
  6
Continuous
 62
     8
370
    25
100
AcDbLine
 10
1932.9016875417
 20
8920.302495182
 30
0.0
 11
1897.8016894252
 21
8920.302495182
 31
0.0
  0
LINE
  5
2CF
330
1F
100
AcDbEntity
  8
0
  6
Continuous
 62
     8
370
    25
100
AcDbLine
 10
4267.8017836005
 20
8836.0158054237
 30
0.0
 11
4232.8016977698
 21
8836.0158054237
 31
0.0
  0
LINE
  5
2D0
330
1F
100
AcDbEntity
  8
0
  6
Continuous
 62
     8
370
    25
100
AcDbLine
 10
3092.801712075
 20
8836.0158054237
 30
0.0
 11
3072.8016715438
 21
8836.0158054237
 31
0.0
  0
LINE
  5
2D1
330
1F
100
AcDbEntity
  8
0
  6
Continuous
 62
     8
370
    25
100
AcDbLine
 10
1932.8016858489
 20
8836.0158054237
 30
0.0
 11
1897.8016894252
 21
8836.0158054237
 31
0.0
  0
LINE
  5
2D2
330
1F
100
AcDbEntity
  8
0
  6
Continuous
 62
     8
370
    25
100
AcDbLine
 10
4267.8017836005
 20
8943.1263057594
 30
0.0
 11
4232.7018003852
 21
8943.1263057594
 31
0.0
  0
LINE
  5
2D3
330
1F
100
AcDbEntity
  8
0
  6
Continuous
 62
     8
370
    25
100
AcDbLine
 10
3092.9016690642
 20
8943.1263057594
 30
0.0
 11
3072.7017145545
 21
8943.1263057594
 31
0.0
  0
LINE
  5
2D4
330
1F
100
AcDbEntity
  8
0
  6
Continuous
 62
     8
370
    25
100
AcDbLine
 10
1932.9016875417
 20
8943.1263057594
 30
0.0
 11
1897.8016894252
 21
8943.1263057594
 31
0.0
  0
LINE
  5
2D5
330
1F
100
AcDbEntity
  8
0
  6
Continuous
 62
     8
370
    25
100
AcDbLine
 10
4248.794816056
 20
8853.8549987678
 30
0.0
 11
4236.8085604102
 21
8853.8549987678
 31
0.0
  0
LINE
  5
2D6
330
1F
100
AcDbEntity
  8
0
  6
Continuous
 62
     8
370
    25
100
AcDbLine
 10
1928.7949275167
 20
8853.8549987678
 30
0.0
 11
1916.8084483535
 21
8853.8549987678
 31
0.0
  0
LINE
  5
2D7
330
1F
100
AcDbEntity
  8
0
  6
Continuous
 62
     8
370
    25
100
AcDbLine
 10
4249.2051344306
 20
8856.5127698783
 30
0.0
 11
4236.3982420356
 21
8856.5127698783
 31
0.0
  0
LINE
  5
2D8
330
1F
100
AcDbEntity
  8
0
  6
Continuous
 62
     8
370
    25
100
AcDbLine
 10
1929.2051862867
 20
8856.5127698783
 30
0.0
 11
1916.3981895835
 21
8856.5127698783
 31
0.0
  0
LINE
  5
2D9
330
1F
100
AcDbEntity
  8
0
  6
Continuous
 62
     8
370
    25
100
AcDbLine
 10
3092.801712075
 20
8302.0143358116
 30
0.0
 11
3072.8016715438
 21
8302.0143358116
 31
0.0
  0
LINE
  5
2DA
330
1F
100
AcDbEntity
  8
0
  6
Continuous
 62
     8
370
    25
100
AcDbLine
 10
3092.801712075
 20
8297.3631469612
 30
0.0
 11
3072.8016715438
 21
8297.3631469612
 31
0.0
  0
LINE
  5
2DB
330
1F
100
AcDbEntity
  8
0
  6
Continuous
 62
     8
370
    25
100
AcDbLine
 10
4267.8017836005
 20
8297.3631469612
 30
0.0
 11
4232.8016977698
 21
8297.3631469612
 31
0.0
  0
LINE
  5
2DC
330
1F
100
AcDbEntity
  8
0
  6
Continuous
 62
     8
370
    25
100
AcDbLine
 10
4267.8017836005
 20
8302.0143358116
 30
0.0
 11
4232.8016977698
 21
8302.0143358116
 31
0.0
  0
LINE
  5
2DD
330
1F
100
AcDbEntity
  8
0
  6
Continuous
 62
     8
370
    25
100
AcDbLine
 10
1932.8016858489
 20
8302.0143358116
 30
0.0
 11
1897.8016894252
 21
8302.0143358116
 31
0.0
  0
LINE
  5
2DE
330
1F
100
AcDbEntity
  8
0
  6
Continuous
 62
     8
370
    25
100
AcDbLine
 10
1932.8016858489
 20
8297.3631469612
 30
0.0
 11
1897.8016894252
 21
8297.3631469612
 31
0.0
  0
LINE
  5
2DF
330
1F
100
AcDbEntity
  8
0
  6
Continuous
 62
     8
370
    25
100
AcDbLine
 10
4267.8017836005
 20
8213.0765168075
 30
0.0
 11
4232.8016977698
 21
8213.0765168075
 31
0.0
  0
LINE
  5
2E0
330
1F
100
AcDbEntity
  8
0
  6
Continuous
 62
     8
370
    25
100
AcDbLine
 10
3092.801712075
 20
8213.0765168075
 30
0.0
 11
3072.8016715438
 21
8213.0765168075
 31
0.0
  0
LINE
  5
2E1
330
1F
100
AcDbEntity
  8
0
  6
Continuous
 62
     8
370
    25
100
AcDbLine
 10
1932.8016858489
 20
8213.0765168075
 30
0.0
 11
1897.8016894252
 21
8213.0765168075
 31
0.0
  0
LINE
  5
2E2
330
1F
100
AcDbEntity
  8
0
  6
Continuous
 62
     8
370
    25
100
AcDbLine
 10
4267.8017836005
 20
8320.1869575385
 30
0.0
 11
4232.7018003852
 21
8320.1869575385
 31
0.0
  0
LINE
  5
2E3
330
1F
100
AcDbEntity
  8
0
  6
Continuous
 62
     8
370
    25
100
AcDbLine
 10
3092.9016690642
 20
8320.1869575385
 30
0.0
 11
3072.7017145545
 21
8320.1869575385
 31
0.0
  0
LINE
  5
2E4
330
1F
100
AcDbEntity
  8
0
  6
Continuous
 62
     8
370
    25
100
AcDbLine
 10
1932.9016875417
 20
8320.1869575385
 30
0.0
 11
1897.8016894252
 21
8320.1869575385
 31
0.0
  0
LINE
  5
2E5
330
1F
100
AcDbEntity
  8
0
  6
Continuous
 62
     8
370
    25
100
AcDbLine
 10
4248.794816056
 20
8230.915650547
 30
0.0
 11
4236.8085604102
 21
8230.915650547
 31
0.0
  0
LINE
  5
2E6
330
1F
100
AcDbEntity
  8
0
  6
Continuous
 62
     8
370
    25
100
AcDbLine
 10
1928.7949275167
 20
8230.915650547
 30
0.0
 11
1916.8084483535
 21
8230.915650547
 31
0.0
  0
LINE
  5
2E7
330
1F
100
AcDbEntity
  8
0
  6
Continuous
 62
     8
370
    25
100
AcDbLine
 10
4249.2051344306
 20
8233.5734812622
 30
0.0
 11
4236.3982420356
 21
8233.5734812622
 31
0.0
  0
LINE
  5
2E8
330
1F
100
AcDbEntity
  8
0
  6
Continuous
 62
     8
370
    25
100
AcDbLine
 10
1929.2051862867
 20
8233.5734812622
 30
0.0
 11
1916.3981895835
 21
8233.5734812622
 31
0.0
  0
LINE
  5
2E9
330
1F
100
AcDbEntity
  8
0
  6
Continuous
 62
     8
370
    25
100
AcDbLine
 10
4043.3017235191
 20
8155.809268177
 30
0.0
 11
4043.3017235191
 21
8158.9580623512
 31
0.0
  0
LINE
  5
2EA
330
1F
100
AcDbEntity
  8
0
  6
Continuous
 62
     8
370
    25
100
AcDbLine
 10
3992.3017244727
 20
8155.809268177
 30
0.0
 11
3992.3017244727
 21
8158.9580623512
 31
0.0
  0
LINE
  5
2EB
330
1F
100
AcDbEntity
  8
0
  6
Continuous
 62
     8
370
    25
100
AcDbLine
 10
4043.3017235191
 20
8053.8496522312
 30
0.0
 11
4043.3017235191
 21
8153.5435168151
 31
0.0
  0
LINE
  5
2EC
330
1F
100
AcDbEntity
  8
0
  6
Continuous
 62
     8
370
    25
100
AcDbLine
 10
3992.3017244727
 20
8053.8496522312
 30
0.0
 11
3992.3017244727
 21
8153.5435168151
 31
0.0
  0
LINE
  5
2ED
330
1F
100
AcDbEntity
  8
0
  6
Continuous
 62
     8
370
    25
100
AcDbLine
 10
2173.3016889484
 20
8155.809268177
 30
0.0
 11
2173.3016889484
 21
8158.9580623512
 31
0.0
  0
LINE
  5
2EE
330
1F
100
AcDbEntity
  8
0
  6
Continuous
 62
     8
370
    25
100
AcDbLine
 10
2122.3016880394
 20
8155.809268177
 30
0.0
 11
2122.3016880394
 21
8158.9580623512
 31
0.0
  0
LINE
  5
2EF
330
1F
100
AcDbEntity
  8
0
  6
Continuous
 62
     8
370
    25
100
AcDbLine
 10
2122.3016880394
 20
8053.8496522312
 30
0.0
 11
2122.3016880394
 21
8153.5435168151
 31
0.0
  0
LINE
  5
2F0
330
1F
100
AcDbEntity
  8
0
  6
Continuous
 62
     8
370
    25
100
AcDbLine
 10
2173.3016889484
 20
8053.8496522312
 30
0.0
 11
2173.3016889484
 21
8153.5435168151
 31
0.0
  0
LINE
  5
2F1
330
1F
100
AcDbEntity
  8
0
  6
Continuous
 62
     8
370
    25
100
AcDbLine
 10
3932.3016624839
 20
8158.9580623512
 30
0.0
 11
3932.3016624839
 21
6154.8268644218
 31
0.0
  0
LINE
  5
2F2
330
1F
100
AcDbEntity
  8
0
  6
Continuous
 62
     8
370
    25
100
AcDbLine
 10
3983.3016615302
 20
7884.2538444404
 30
0.0
 11
3983.3016615302
 21
6154.8268644218
 31
0.0
  0
LINE
  5
2F3
330
1F
100
AcDbEntity
  8
0
  6
Continuous
 62
     8
370
    25
100
AcDbLine
 10
2113.3016884268
 20
7884.2538444404
 30
0.0
 11
2113.3016884268
 21
6154.8268644218
 31
0.0
  0
LINE
  5
2F4
330
1F
100
AcDbEntity
  8
0
  6
Continuous
 62
     8
370
    25
100
AcDbLine
 10
2062.3016875178
 20
8158.9580623512
 30
0.0
 11
2062.3016875178
 21
6154.8268644218
 31
0.0
  0
POINT
  5
2F5
330
1F
100
AcDbEntity
  8
0
  6
Continuous
 62
     7
370
     0
100
AcDbPoint
 10
3957.8016882331
 20
6154.8268405799
 30
0.0
  0
POINT
  5
2F6
330
1F
100
AcDbEntity
  8
0
  6
Continuous
 62
     7
370
     0
100
AcDbPoint
 10
2087.8016882331
 20
6154.8268405799
 30
0.0
  0
DIMENSION
  5
2F7
330
1F
100
AcDbEntity
  8
0
  6
Continuous
 62
     7
370
    18
100
AcDbDimension
  2
_D_8
 10
3957.8016882331
 20
5904.8268405799
 30
0.0
 11
2986.8540611188
 21
5904.8268405799
 31
0.0
 70
   160
  1
<>
 71
     2
 42
-1.0
  3
SLDDIMSTYLE0
100
AcDbAlignedDimension
 13
2087.8016882331
 23
6154.8268405799
 33
0.0
 14
3957.8016882331
 24
6154.8268405799
 34
0.0
 50
0.0
100
AcDbRotatedDimension
  0
DIMENSION
  5
301
330
1F
100
AcDbEntity
  8
0
  6
Continuous
 62
     7
370
    18
100
AcDbDimension
  2
_D_9
 10
3072.8016882331
 20
9408.7800321589
 30
0.0
 11
2520.3149293318
 21
9408.7800321589
 31
0.0
 70
   160
  1
<>
 71
     2
 42
-1.0
  3
SLDDIMSTYLE0
100
AcDbAlignedDimension
 13
1932.8016882331
 23
9158.7800321589
 33
0.0
 14
3072.8016882331
 24
9158.7800321589
 34
0.0
 50
0.0
100
AcDbRotatedDimension
  0
LINE
  5
30B
330
1F
100
AcDbEntity
  8
0
  6
Continuous
 62
     7
370
    25
100
AcDbLine
 10
4232.7018003852
 20
4160.4355858312
 30
0.0
 11
4267.8017836005
 21
4160.4355858312
 31
0.0
  0
LINE
  5
30C
330
1F
100
AcDbEntity
  8
0
  6
Continuous
 62
     7
370
    25
100
AcDbLine
 10
1897.8016894252
 20
4160.4355858312
 30
0.0
 11
1932.9016875417
 21
4160.4355858312
 31
0.0
  0
LINE
  5
30D
330
1F
100
AcDbEntity
  8
0
  6
Continuous
 62
     7
370
    25
100
AcDbLine
 10
3072.7017145545
 20
4160.4355858312
 30
0.0
 11
3092.9016690642
 21
4160.4355858312
 31
0.0
  0
LINE
  5
30E
330
1F
100
AcDbEntity
  8
0
  6
Continuous
 62
     7
370
    25
100
AcDbLine
 10
4267.8017836005
 20
4245.7102821813
 30
0.0
 11
4232.7018003852
 21
4245.7102821813
 31
0.0
  0
LINE
  5
30F
330
1F
100
AcDbEntity
  8
0
  6
Continuous
 62
     7
370
    25
100
AcDbLine
 10
3092.9016690642
 20
4245.7102821813
 30
0.0
 11
3072.7017145545
 21
4245.7102821813
 31
0.0
  0
LINE
  5
310
330
1F
100
AcDbEntity
  8
0
  6
Continuous
 62
     7
370
    25
100
AcDbLine
 10
1932.9016875417
 20
4245.7102821813
 30
0.0
 11
1897.8016894252
 21
4245.7102821813
 31
0.0
  0
LINE
  5
311
330
1F
100
AcDbEntity
  8
0
  6
Continuous
 62
     7
370
    25
100
AcDbLine
 10
4232.7018003852
 20
2824.5376633154
 30
0.0
 11
4267.8017836005
 21
2824.5376633154
 31
0.0
  0
LINE
  5
312
330
1F
100
AcDbEntity
  8
0
  6
Continuous
 62
     7
370
    25
100
AcDbLine
 10
1897.8016894252
 20
2824.5376633154
 30
0.0
 11
1932.9016875417
 21
2824.5376633154
 31
0.0
  0
LINE
  5
313
330
1F
100
AcDbEntity
  8
0
  6
Continuous
 62
     7
370
    25
100
AcDbLine
 10
3072.7017145545
 20
2824.5376633154
 30
0.0
 11
3092.9016690642
 21
2824.5376633154
 31
0.0
  0
LINE
  5
314
330
1F
100
AcDbEntity
  8
0
  6
Continuous
 62
     7
370
    25
100
AcDbLine
 10
4267.8017836005
 20
2909.8123596655
 30
0.0
 11
4232.7018003852
 21
2909.8123596655
 31
0.0
  0
LINE
  5
315
330
1F
100
AcDbEntity
  8
0
  6
Continuous
 62
     7
370
    25
100
AcDbLine
 10
3092.9016690642
 20
2909.8123596655
 30
0.0
 11
3072.7017145545
 21
2909.8123596655
 31
0.0
  0
LINE
  5
316
330
1F
100
AcDbEntity
  8
0
  6
Continuous
 62
     7
370
    25
100
AcDbLine
 10
1932.9016875417
 20
2909.8123596655
 30
0.0
 11
1897.8016894252
 21
2909.8123596655
 31
0.0
  0
LINE
  5
317
330
1F
100
AcDbEntity
  8
0
  6
Continuous
 62
     7
370
    25
100
AcDbLine
 10
3092.801712075
 20
2502.8685616003
 30
0.0
 11
4232.8016977698
 21
2502.8685616003
 31
0.0
  0
LINE
  5
318
330
1F
100
AcDbEntity
  8
0
  6
Continuous
 62
     7
370
    25
100
AcDbLine
 10
3092.801712075
 20
2761.1664818273
 30
0.0
 11
3092.801712075
 21
2502.8685616003
 31
0.0
  0
LINE
  5
319
330
1F
100
AcDbEntity
  8
0
  6
Continuous
 62
     7
370
    25
100
AcDbLine
 10
3092.9016690642
 20
2761.1664818273
 30
0.0
 11
3092.801712075
 21
2761.1664818273
 31
0.0
  0
LINE
  5
31A
330
1F
100
AcDbEntity
  8
0
  6
Continuous
 62
     7
370
    25
100
AcDbLine
 10
3092.9016690642
 20
2761.1664818273
 30
0.0
 11
3092.9016690642
 21
3019.4639252172
 31
0.0
  0
LINE
  5
31B
330
1F
100
AcDbEntity
  8
0
  6
Continuous
 62
     7
370
    25
100
AcDbLine
 10
3092.9016690642
 20
3019.4639252172
 30
0.0
 11
3092.801712075
 21
3019.4639252172
 31
0.0
  0
LINE
  5
31C
330
1F
100
AcDbEntity
  8
0
  6
Continuous
 62
     7
370
    25
100
AcDbLine
 10
3092.801712075
 20
4052.6551292883
 30
0.0
 11
3092.801712075
 21
3019.4639252172
 31
0.0
  0
LINE
  5
31D
330
1F
100
AcDbEntity
  8
0
  6
Continuous
 62
     7
370
    25
100
AcDbLine
 10
3092.9016690642
 20
4052.6551292883
 30
0.0
 11
3092.801712075
 21
4052.6551292883
 31
0.0
  0
LINE
  5
31E
330
1F
100
AcDbEntity
  8
0
  6
Continuous
 62
     7
370
    25
100
AcDbLine
 10
3092.9016690642
 20
4052.6551292883
 30
0.0
 11
3092.9016690642
 21
4310.9525726782
 31
0.0
  0
LINE
  5
31F
330
1F
100
AcDbEntity
  8
0
  6
Continuous
 62
     7
370
    25
100
AcDbLine
 10
3092.9016690642
 20
4310.9525726782
 30
0.0
 11
3092.801712075
 21
4310.9525726782
 31
0.0
  0
LINE
  5
320
330
1F
100
AcDbEntity
  8
0
  6
Continuous
 62
     7
370
    25
100
AcDbLine
 10
3092.801712075
 20
4569.2504929052
 30
0.0
 11
3092.801712075
 21
4310.9525726782
 31
0.0
  0
LINE
  5
321
330
1F
100
AcDbEntity
  8
0
  6
Continuous
 62
     7
370
    25
100
AcDbLine
 10
4232.8016977698
 20
4569.2504929052
 30
0.0
 11
3092.801712075
 21
4569.2504929052
 31
0.0
  0
LINE
  5
322
330
1F
100
AcDbEntity
  8
0
  6
Continuous
 62
     7
370
    25
100
AcDbLine
 10
4232.8016977698
 20
4310.9525726782
 30
0.0
 11
4232.8016977698
 21
4569.2504929052
 31
0.0
  0
LINE
  5
323
330
1F
100
AcDbEntity
  8
0
  6
Continuous
 62
     7
370
    25
100
AcDbLine
 10
4232.7018003852
 20
4310.9525726782
 30
0.0
 11
4232.8016977698
 21
4310.9525726782
 31
0.0
  0
LINE
  5
324
330
1F
100
AcDbEntity
  8
0
  6
Continuous
 62
     7
370
    25
100
AcDbLine
 10
4232.7018003852
 20
4052.6551292883
 30
0.0
 11
4232.7018003852
 21
4310.9525726782
 31
0.0
  0
LINE
  5
325
330
1F
100
AcDbEntity
  8
0
  6
Continuous
 62
     7
370
    25
100
AcDbLine
 10
4232.7018003852
 20
4052.6551292883
 30
0.0
 11
4232.8016977698
 21
4052.6551292883
 31
0.0
  0
LINE
  5
326
330
1F
100
AcDbEntity
  8
0
  6
Continuous
 62
     7
370
    25
100
AcDbLine
 10
4232.8016977698
 20
3019.4639252172
 30
0.0
 11
4232.8016977698
 21
4052.6551292883
 31
0.0
  0
LINE
  5
327
330
1F
100
AcDbEntity
  8
0
  6
Continuous
 62
     7
370
    25
100
AcDbLine
 10
4232.7018003852
 20
3019.4639252172
 30
0.0
 11
4232.8016977698
 21
3019.4639252172
 31
0.0
  0
LINE
  5
328
330
1F
100
AcDbEntity
  8
0
  6
Continuous
 62
     7
370
    25
100
AcDbLine
 10
4232.7018003852
 20
2761.1664818273
 30
0.0
 11
4232.7018003852
 21
3019.4639252172
 31
0.0
  0
LINE
  5
329
330
1F
100
AcDbEntity
  8
0
  6
Continuous
 62
     7
370
    25
100
AcDbLine
 10
4232.7018003852
 20
2761.1664818273
 30
0.0
 11
4232.8016977698
 21
2761.1664818273
 31
0.0
  0
LINE
  5
32A
330
1F
100
AcDbEntity
  8
0
  6
Continuous
 62
     7
370
    25
100
AcDbLine
 10
4232.8016977698
 20
2502.8685616003
 30
0.0
 11
4232.8016977698
 21
2761.1664818273
 31
0.0
  0
LINE
  5
32B
330
1F
100
AcDbEntity
  8
0
  6
Continuous
 62
     7
370
    25
100
AcDbLine
 10
3101.8017154128
 20
4561.093716477
 30
0.0
 11
4223.8016348273
 21
4561.093716477
 31
0.0
  0
LINE
  5
32C
330
1F
100
AcDbEntity
  8
0
  6
Continuous
 62
     7
370
    25
100
AcDbLine
 10
3101.8017154128
 20
2511.0253380285
 30
0.0
 11
3101.8017154128
 21
4561.093716477
 31
0.0
  0
LINE
  5
32D
330
1F
100
AcDbEntity
  8
0
  6
Continuous
 62
     7
370
    25
100
AcDbLine
 10
4223.8016348273
 20
2511.0253380285
 30
0.0
 11
3101.8017154128
 21
2511.0253380285
 31
0.0
  0
LINE
  5
32E
330
1F
100
AcDbEntity
  8
0
  6
Continuous
 62
     7
370
    25
100
AcDbLine
 10
4223.8016348273
 20
4561.093716477
 30
0.0
 11
4223.8016348273
 21
2511.0253380285
 31
0.0
  0
LINE
  5
32F
330
1F
100
AcDbEntity
  8
0
  6
Continuous
 62
     7
370
    25
100
AcDbLine
 10
3092.801712075
 20
4586.1548470007
 30
0.0
 11
3092.801712075
 21
4569.2504929052
 31
0.0
  0
LINE
  5
330
330
1F
100
AcDbEntity
  8
0
  6
Continuous
 62
     7
370
    25
100
AcDbLine
 10
4232.8016977698
 20
4586.1548470007
 30
0.0
 11
3092.801712075
 21
4586.1548470007
 31
0.0
  0
LINE
  5
331
330
1F
100
AcDbEntity
  8
0
  6
Continuous
 62
     7
370
    25
100
AcDbLine
 10
4232.8016977698
 20
4586.1548470007
 30
0.0
 11
4232.8016977698
 21
4569.2504929052
 31
0.0
  0
LINE
  5
332
330
1F
100
AcDbEntity
  8
0
  6
Continuous
 62
     7
370
    25
100
AcDbLine
 10
4222.8017073066
 20
4560.4313896642
 30
0.0
 11
3102.8017025382
 21
4560.4313896642
 31
0.0
  0
LINE
  5
333
330
1F
100
AcDbEntity
  8
0
  6
Continuous
 62
     7
370
    25
100
AcDbLine
 10
3102.8017025382
 20
4560.4313896642
 30
0.0
 11
3101.8017154128
 21
4561.093716477
 31
0.0
  0
LINE
  5
334
330
1F
100
AcDbEntity
  8
0
  6
Continuous
 62
     7
370
    25
100
AcDbLine
 10
4223.8016348273
 20
4561.093716477
 30
0.0
 11
4222.8017073066
 21
4560.4313896642
 31
0.0
  0
LINE
  5
335
330
1F
100
AcDbEntity
  8
0
  6
Continuous
 62
     7
370
    25
100
AcDbLine
 10
3102.8017025382
 20
4560.4313896642
 30
0.0
 11
3102.8017025382
 21
2512.1754692541
 31
0.0
  0
LINE
  5
336
330
1F
100
AcDbEntity
  8
0
  6
Continuous
 62
     7
370
    25
100
AcDbLine
 10
3102.8017025382
 20
2512.1754692541
 30
0.0
 11
3101.8017154128
 21
2511.0253380285
 31
0.0
  0
LINE
  5
337
330
1F
100
AcDbEntity
  8
0
  6
Continuous
 62
     7
370
    25
100
AcDbLine
 10
4223.8016348273
 20
2511.0253380285
 30
0.0
 11
4222.8017073066
 21
2512.1754692541
 31
0.0
  0
LINE
  5
338
330
1F
100
AcDbEntity
  8
0
  6
Continuous
 62
     7
370
    25
100
AcDbLine
 10
4222.8017073066
 20
2512.1754692541
 30
0.0
 11
4222.8017073066
 21
4560.4313896642
 31
0.0
  0
LINE
  5
339
330
1F
100
AcDbEntity
  8
0
  6
Continuous
 62
     7
370
    25
100
AcDbLine
 10
3102.8017025382
 20
2512.5655220495
 30
0.0
 11
4222.8017073066
 21
2512.5655220495
 31
0.0
  0
LINE
  5
33A
330
1F
100
AcDbEntity
  8
0
  6
Continuous
 62
     7
370
    25
100
AcDbLine
 10
3092.801712075
 20
4069.5594833837
 30
0.0
 11
3092.801712075
 21
4052.6551292883
 31
0.0
  0
LINE
  5
33B
330
1F
100
AcDbEntity
  8
0
  6
Continuous
 62
     7
370
    25
100
AcDbLine
 10
3092.9016690642
 20
4069.5594833837
 30
0.0
 11
3092.801712075
 21
4069.5594833837
 31
0.0
  0
LINE
  5
33C
330
1F
100
AcDbEntity
  8
0
  6
Continuous
 62
     7
370
    25
100
AcDbLine
 10
4232.8016977698
 20
4069.5594833837
 30
0.0
 11
4232.8016977698
 21
4052.6551292883
 31
0.0
  0
LINE
  5
33D
330
1F
100
AcDbEntity
  8
0
  6
Continuous
 62
     7
370
    25
100
AcDbLine
 10
4232.7018003852
 20
4069.5594833837
 30
0.0
 11
4232.8016977698
 21
4069.5594833837
 31
0.0
  0
LINE
  5
33E
330
1F
100
AcDbEntity
  8
0
  6
Continuous
 62
     7
370
    25
100
AcDbLine
 10
3092.801712075
 20
2778.0708359228
 30
0.0
 11
3092.801712075
 21
2761.1664818273
 31
0.0
  0
LINE
  5
33F
330
1F
100
AcDbEntity
  8
0
  6
Continuous
 62
     7
370
    25
100
AcDbLine
 10
3092.9016690642
 20
2778.0708359228
 30
0.0
 11
3092.801712075
 21
2778.0708359228
 31
0.0
  0
LINE
  5
340
330
1F
100
AcDbEntity
  8
0
  6
Continuous
 62
     7
370
    25
100
AcDbLine
 10
4232.8016977698
 20
2778.0708359228
 30
0.0
 11
4232.8016977698
 21
2761.1664818273
 31
0.0
  0
LINE
  5
341
330
1F
100
AcDbEntity
  8
0
  6
Continuous
 62
     7
370
    25
100
AcDbLine
 10
4232.7018003852
 20
2778.0708359228
 30
0.0
 11
4232.8016977698
 21
2778.0708359228
 31
0.0
  0
LINE
  5
342
330
1F
100
AcDbEntity
  8
0
  6
Continuous
 62
     7
370
    25
100
AcDbLine
 10
3102.8017025382
 20
2512.1754692541
 30
0.0
 11
4222.8017073066
 21
2512.1754692541
 31
0.0
  0
LINE
  5
343
330
1F
100
AcDbEntity
  8
0
  6
Continuous
 62
     7
370
    25
100
AcDbLine
 10
1932.8016858489
 20
2502.8685616003
 30
0.0
 11
3072.8016715438
 21
2502.8685616003
 31
0.0
  0
LINE
  5
344
330
1F
100
AcDbEntity
  8
0
  6
Continuous
 62
     7
370
    25
100
AcDbLine
 10
1932.8016858489
 20
2761.1664818273
 30
0.0
 11
1932.8016858489
 21
2502.8685616003
 31
0.0
  0
LINE
  5
345
330
1F
100
AcDbEntity
  8
0
  6
Continuous
 62
     7
370
    25
100
AcDbLine
 10
1932.9016875417
 20
2761.1664818273
 30
0.0
 11
1932.8016858489
 21
2761.1664818273
 31
0.0
  0
LINE
  5
346
330
1F
100
AcDbEntity
  8
0
  6
Continuous
 62
     7
370
    25
100
AcDbLine
 10
1932.9016875417
 20
2761.1664818273
 30
0.0
 11
1932.9016875417
 21
3019.4639252172
 31
0.0
  0
LINE
  5
347
330
1F
100
AcDbEntity
  8
0
  6
Continuous
 62
     7
370
    25
100
AcDbLine
 10
1932.9016875417
 20
3019.4639252172
 30
0.0
 11
1932.8016858489
 21
3019.4639252172
 31
0.0
  0
LINE
  5
348
330
1F
100
AcDbEntity
  8
0
  6
Continuous
 62
     7
370
    25
100
AcDbLine
 10
1932.8016858489
 20
4052.6551292883
 30
0.0
 11
1932.8016858489
 21
3019.4639252172
 31
0.0
  0
LINE
  5
349
330
1F
100
AcDbEntity
  8
0
  6
Continuous
 62
     7
370
    25
100
AcDbLine
 10
1932.9016875417
 20
4052.6551292883
 30
0.0
 11
1932.8016858489
 21
4052.6551292883
 31
0.0
  0
LINE
  5
34A
330
1F
100
AcDbEntity
  8
0
  6
Continuous
 62
     7
370
    25
100
AcDbLine
 10
1932.9016875417
 20
4052.6551292883
 30
0.0
 11
1932.9016875417
 21
4310.9525726782
 31
0.0
  0
LINE
  5
34B
330
1F
100
AcDbEntity
  8
0
  6
Continuous
 62
     7
370
    25
100
AcDbLine
 10
1932.9016875417
 20
4310.9525726782
 30
0.0
 11
1932.8016858489
 21
4310.9525726782
 31
0.0
  0
LINE
  5
34C
330
1F
100
AcDbEntity
  8
0
  6
Continuous
 62
     7
370
    25
100
AcDbLine
 10
1932.8016858489
 20
4569.2504929052
 30
0.0
 11
1932.8016858489
 21
4310.9525726782
 31
0.0
  0
LINE
  5
34D
330
1F
100
AcDbEntity
  8
0
  6
Continuous
 62
     7
370
    25
100
AcDbLine
 10
3072.8016715438
 20
4569.2504929052
 30
0.0
 11
1932.8016858489
 21
4569.2504929052
 31
0.0
  0
LINE
  5
34E
330
1F
100
AcDbEntity
  8
0
  6
Continuous
 62
     7
370
    25
100
AcDbLine
 10
3072.8016715438
 20
4310.9525726782
 30
0.0
 11
3072.8016715438
 21
4569.2504929052
 31
0.0
  0
LINE
  5
34F
330
1F
100
AcDbEntity
  8
0
  6
Continuous
 62
     7
370
    25
100
AcDbLine
 10
3072.7017145545
 20
4310.9525726782
 30
0.0
 11
3072.8016715438
 21
4310.9525726782
 31
0.0
  0
LINE
  5
350
330
1F
100
AcDbEntity
  8
0
  6
Continuous
 62
     7
370
    25
100
AcDbLine
 10
3072.7017145545
 20
4052.6551292883
 30
0.0
 11
3072.7017145545
 21
4310.9525726782
 31
0.0
  0
LINE
  5
351
330
1F
100
AcDbEntity
  8
0
  6
Continuous
 62
     7
370
    25
100
AcDbLine
 10
3072.7017145545
 20
4052.6551292883
 30
0.0
 11
3072.8016715438
 21
4052.6551292883
 31
0.0
  0
LINE
  5
352
330
1F
100
AcDbEntity
  8
0
  6
Continuous
 62
     7
370
    25
100
AcDbLine
 10
3072.8016715438
 20
3019.4639252172
 30
0.0
 11
3072.8016715438
 21
4052.6551292883
 31
0.0
  0
LINE
  5
353
330
1F
100
AcDbEntity
  8
0
  6
Continuous
 62
     7
370
    25
100
AcDbLine
 10
3072.7017145545
 20
3019.4639252172
 30
0.0
 11
3072.8016715438
 21
3019.4639252172
 31
0.0
  0
LINE
  5
354
330
1F
100
AcDbEntity
  8
0
  6
Continuous
 62
     7
370
    25
100
AcDbLine
 10
3072.7017145545
 20
2761.1664818273
 30
0.0
 11
3072.7017145545
 21
3019.4639252172
 31
0.0
  0
LINE
  5
355
330
1F
100
AcDbEntity
  8
0
  6
Continuous
 62
     7
370
    25
100
AcDbLine
 10
3072.7017145545
 20
2761.1664818273
 30
0.0
 11
3072.8016715438
 21
2761.1664818273
 31
0.0
  0
LINE
  5
356
330
1F
100
AcDbEntity
  8
0
  6
Continuous
 62
     7
370
    25
100
AcDbLine
 10
3072.8016715438
 20
2502.8685616003
 30
0.0
 11
3072.8016715438
 21
2761.1664818273
 31
0.0
  0
LINE
  5
357
330
1F
100
AcDbEntity
  8
0
  6
Continuous
 62
     7
370
    25
100
AcDbLine
 10
1941.8016891868
 20
4561.093716477
 30
0.0
 11
3063.8016682059
 21
4561.093716477
 31
0.0
  0
LINE
  5
358
330
1F
100
AcDbEntity
  8
0
  6
Continuous
 62
     7
370
    25
100
AcDbLine
 10
1941.8016891868
 20
2511.0253380285
 30
0.0
 11
1941.8016891868
 21
4561.093716477
 31
0.0
  0
LINE
  5
359
330
1F
100
AcDbEntity
  8
0
  6
Continuous
 62
     7
370
    25
100
AcDbLine
 10
3063.8016682059
 20
2511.0253380285
 30
0.0
 11
1941.8016891868
 21
2511.0253380285
 31
0.0
  0
LINE
  5
35A
330
1F
100
AcDbEntity
  8
0
  6
Continuous
 62
     7
370
    25
100
AcDbLine
 10
3063.8016682059
 20
4561.093716477
 30
0.0
 11
3063.8016682059
 21
2511.0253380285
 31
0.0
  0
LINE
  5
35B
330
1F
100
AcDbEntity
  8
0
  6
Continuous
 62
     7
370
    25
100
AcDbLine
 10
1932.8016858489
 20
4586.1548470007
 30
0.0
 11
1932.8016858489
 21
4569.2504929052
 31
0.0
  0
LINE
  5
35C
330
1F
100
AcDbEntity
  8
0
  6
Continuous
 62
     7
370
    25
100
AcDbLine
 10
3072.8016715438
 20
4586.1548470007
 30
0.0
 11
1932.8016858489
 21
4586.1548470007
 31
0.0
  0
LINE
  5
35D
330
1F
100
AcDbEntity
  8
0
  6
Continuous
 62
     7
370
    25
100
AcDbLine
 10
3072.8016715438
 20
4586.1548470007
 30
0.0
 11
3072.8016715438
 21
4569.2504929052
 31
0.0
  0
LINE
  5
35E
330
1F
100
AcDbEntity
  8
0
  6
Continuous
 62
     7
370
    25
100
AcDbLine
 10
3062.8016810805
 20
4560.4313896642
 30
0.0
 11
1942.8016912133
 21
4560.4313896642
 31
0.0
  0
LINE
  5
35F
330
1F
100
AcDbEntity
  8
0
  6
Continuous
 62
     7
370
    25
100
AcDbLine
 10
1942.8016912133
 20
4560.4313896642
 30
0.0
 11
1941.8016891868
 21
4561.093716477
 31
0.0
  0
LINE
  5
360
330
1F
100
AcDbEntity
  8
0
  6
Continuous
 62
     7
370
    25
100
AcDbLine
 10
3063.8016682059
 20
4561.093716477
 30
0.0
 11
3062.8016810805
 21
4560.4313896642
 31
0.0
  0
LINE
  5
361
330
1F
100
AcDbEntity
  8
0
  6
Continuous
 62
     7
370
    25
100
AcDbLine
 10
1942.8016912133
 20
4560.4313896642
 30
0.0
 11
1942.8016912133
 21
2512.1754692541
 31
0.0
  0
LINE
  5
362
330
1F
100
AcDbEntity
  8
0
  6
Continuous
 62
     7
370
    25
100
AcDbLine
 10
1942.8016912133
 20
2512.1754692541
 30
0.0
 11
1941.8016891868
 21
2511.0253380285
 31
0.0
  0
LINE
  5
363
330
1F
100
AcDbEntity
  8
0
  6
Continuous
 62
     7
370
    25
100
AcDbLine
 10
3063.8016682059
 20
2511.0253380285
 30
0.0
 11
3062.8016810805
 21
2512.1754692541
 31
0.0
  0
LINE
  5
364
330
1F
100
AcDbEntity
  8
0
  6
Continuous
 62
     7
370
    25
100
AcDbLine
 10
3062.8016810805
 20
2512.1754692541
 30
0.0
 11
3062.8016810805
 21
4560.4313896642
 31
0.0
  0
LINE
  5
365
330
1F
100
AcDbEntity
  8
0
  6
Continuous
 62
     7
370
    25
100
AcDbLine
 10
1942.8016912133
 20
2512.5655220495
 30
0.0
 11
3062.8016810805
 21
2512.5655220495
 31
0.0
  0
LINE
  5
366
330
1F
100
AcDbEntity
  8
0
  6
Continuous
 62
     7
370
    25
100
AcDbLine
 10
1932.8016858489
 20
4069.5594833837
 30
0.0
 11
1932.8016858489
 21
4052.6551292883
 31
0.0
  0
LINE
  5
367
330
1F
100
AcDbEntity
  8
0
  6
Continuous
 62
     7
370
    25
100
AcDbLine
 10
1932.9016875417
 20
4069.5594833837
 30
0.0
 11
1932.8016858489
 21
4069.5594833837
 31
0.0
  0
LINE
  5
368
330
1F
100
AcDbEntity
  8
0
  6
Continuous
 62
     7
370
    25
100
AcDbLine
 10
3072.8016715438
 20
4069.5594833837
 30
0.0
 11
3072.8016715438
 21
4052.6551292883
 31
0.0
  0
LINE
  5
369
330
1F
100
AcDbEntity
  8
0
  6
Continuous
 62
     7
370
    25
100
AcDbLine
 10
3072.7017145545
 20
4069.5594833837
 30
0.0
 11
3072.8016715438
 21
4069.5594833837
 31
0.0
  0
LINE
  5
36A
330
1F
100
AcDbEntity
  8
0
  6
Continuous
 62
     7
370
    25
100
AcDbLine
 10
1932.8016858489
 20
2778.0708359228
 30
0.0
 11
1932.8016858489
 21
2761.1664818273
 31
0.0
  0
LINE
  5
36B
330
1F
100
AcDbEntity
  8
0
  6
Continuous
 62
     7
370
    25
100
AcDbLine
 10
1932.9016875417
 20
2778.0708359228
 30
0.0
 11
1932.8016858489
 21
2778.0708359228
 31
0.0
  0
LINE
  5
36C
330
1F
100
AcDbEntity
  8
0
  6
Continuous
 62
     7
370
    25
100
AcDbLine
 10
3072.8016715438
 20
2778.0708359228
 30
0.0
 11
3072.8016715438
 21
2761.1664818273
 31
0.0
  0
LINE
  5
36D
330
1F
100
AcDbEntity
  8
0
  6
Continuous
 62
     7
370
    25
100
AcDbLine
 10
3072.7017145545
 20
2778.0708359228
 30
0.0
 11
3072.8016715438
 21
2778.0708359228
 31
0.0
  0
LINE
  5
36E
330
1F
100
AcDbEntity
  8
0
  6
Continuous
 62
     7
370
    25
100
AcDbLine
 10
1942.8016912133
 20
2512.1754692541
 30
0.0
 11
3062.8016810805
 21
2512.1754692541
 31
0.0
  0
LINE
  5
36F
330
1F
100
AcDbEntity
  8
0
  6
Continuous
 62
     7
370
    25
100
AcDbLine
 10
4267.8017836005
 20
4201.4273689733
 30
0.0
 11
4267.8017836005
 21
4206.0784386144
 31
0.0
  0
LINE
  5
370
330
1F
100
AcDbEntity
  8
0
  6
Continuous
 62
     7
370
    25
100
AcDbLine
 10
1897.8016894252
 20
4201.4273689733
 30
0.0
 11
1897.8016894252
 21
4206.0784386144
 31
0.0
  0
LINE
  5
371
330
1F
100
AcDbEntity
  8
0
  6
Continuous
 62
     7
370
    25
100
AcDbLine
 10
1897.8016894252
 20
4162.4564217077
 30
0.0
 11
1897.8016894252
 21
4201.4273689733
 31
0.0
  0
LINE
  5
372
330
1F
100
AcDbEntity
  8
0
  6
Continuous
 62
     7
370
    25
100
AcDbLine
 10
4267.8017836005
 20
4162.4564217077
 30
0.0
 11
4267.8017836005
 21
4201.4273689733
 31
0.0
  0
LINE
  5
373
330
1F
100
AcDbEntity
  8
0
  6
Continuous
 62
     7
370
    25
100
AcDbLine
 10
3072.7017145545
 20
4176.0505722509
 30
0.0
 11
3092.9016690642
 21
4176.0505722509
 31
0.0
  0
LINE
  5
374
330
1F
100
AcDbEntity
  8
0
  6
Continuous
 62
     7
370
    25
100
AcDbLine
 10
3092.9016690642
 20
4187.832741593
 30
0.0
 11
3072.7017145545
 21
4187.832741593
 31
0.0
  0
LINE
  5
375
330
1F
100
AcDbEntity
  8
0
  6
Continuous
 62
     7
370
    25
100
AcDbLine
 10
4267.8017836005
 20
4213.051705216
 30
0.0
 11
4232.7018003852
 21
4213.051705216
 31
0.0
  0
LINE
  5
376
330
1F
100
AcDbEntity
  8
0
  6
Continuous
 62
     7
370
    25
100
AcDbLine
 10
3092.9016690642
 20
4213.051705216
 30
0.0
 11
3072.7017145545
 21
4213.051705216
 31
0.0
  0
LINE
  5
377
330
1F
100
AcDbEntity
  8
0
  6
Continuous
 62
     7
370
    25
100
AcDbLine
 10
1932.9016875417
 20
4213.051705216
 30
0.0
 11
1897.8016894252
 21
4213.051705216
 31
0.0
  0
LINE
  5
378
330
1F
100
AcDbEntity
  8
0
  6
Continuous
 62
     7
370
    25
100
AcDbLine
 10
4267.8017836005
 20
4206.0784386144
 30
0.0
 11
4267.8017836005
 21
4213.051705216
 31
0.0
  0
LINE
  5
379
330
1F
100
AcDbEntity
  8
0
  6
Continuous
 62
     7
370
    25
100
AcDbLine
 10
1897.8016894252
 20
4206.0784386144
 30
0.0
 11
1897.8016894252
 21
4213.051705216
 31
0.0
  0
LINE
  5
37A
330
1F
100
AcDbEntity
  8
0
  6
Continuous
 62
     7
370
    25
100
AcDbLine
 10
3072.7017145545
 20
4176.6847656713
 30
0.0
 11
3092.9016690642
 21
4176.6847656713
 31
0.0
  0
LINE
  5
37B
330
1F
100
AcDbEntity
  8
0
  6
Continuous
 62
     7
370
    25
100
AcDbLine
 10
4267.8017836005
 20
4162.4564217077
 30
0.0
 11
4267.8017836005
 21
4160.4355858312
 31
0.0
  0
LINE
  5
37C
330
1F
100
AcDbEntity
  8
0
  6
Continuous
 62
     7
370
    25
100
AcDbLine
 10
1897.8016894252
 20
4160.4355858312
 30
0.0
 11
1897.8016894252
 21
4162.4564217077
 31
0.0
  0
LINE
  5
37D
330
1F
100
AcDbEntity
  8
0
  6
Continuous
 62
     7
370
    25
100
AcDbLine
 10
4267.8017836005
 20
4238.4089516149
 30
0.0
 11
4267.8017836005
 21
4245.3822182165
 31
0.0
  0
LINE
  5
37E
330
1F
100
AcDbEntity
  8
0
  6
Continuous
 62
     7
370
    25
100
AcDbLine
 10
4267.8017836005
 20
4238.4089516149
 30
0.0
 11
4232.7018003852
 21
4238.4089516149
 31
0.0
  0
LINE
  5
37F
330
1F
100
AcDbEntity
  8
0
  6
Continuous
 62
     7
370
    25
100
AcDbLine
 10
3092.9016690642
 20
4238.4089516149
 30
0.0
 11
3072.7017145545
 21
4238.4089516149
 31
0.0
  0
LINE
  5
380
330
1F
100
AcDbEntity
  8
0
  6
Continuous
 62
     7
370
    25
100
AcDbLine
 10
1932.9016875417
 20
4238.4089516149
 30
0.0
 11
1897.8016894252
 21
4238.4089516149
 31
0.0
  0
LINE
  5
381
330
1F
100
AcDbEntity
  8
0
  6
Continuous
 62
     7
370
    25
100
AcDbLine
 10
1897.8016894252
 20
4238.4089516149
 30
0.0
 11
1897.8016894252
 21
4245.3822182165
 31
0.0
  0
LINE
  5
382
330
1F
100
AcDbEntity
  8
0
  6
Continuous
 62
     7
370
    25
100
AcDbLine
 10
4267.8017836005
 20
4238.4089516149
 30
0.0
 11
4267.8017836005
 21
4237.0494888769
 31
0.0
  0
LINE
  5
383
330
1F
100
AcDbEntity
  8
0
  6
Continuous
 62
     7
370
    25
100
AcDbLine
 10
4267.8017836005
 20
4237.0494888769
 30
0.0
 11
4232.7018003852
 21
4237.0494888769
 31
0.0
  0
LINE
  5
384
330
1F
100
AcDbEntity
  8
0
  6
Continuous
 62
     7
370
    25
100
AcDbLine
 10
3092.9016690642
 20
4237.0494888769
 30
0.0
 11
3072.7017145545
 21
4237.0494888769
 31
0.0
  0
LINE
  5
385
330
1F
100
AcDbEntity
  8
0
  6
Continuous
 62
     7
370
    25
100
AcDbLine
 10
1932.9016875417
 20
4237.0494888769
 30
0.0
 11
1897.8016894252
 21
4237.0494888769
 31
0.0
  0
LINE
  5
386
330
1F
100
AcDbEntity
  8
0
  6
Continuous
 62
     7
370
    25
100
AcDbLine
 10
1897.8016894252
 20
4238.4089516149
 30
0.0
 11
1897.8016894252
 21
4237.0494888769
 31
0.0
  0
LINE
  5
387
330
1F
100
AcDbEntity
  8
0
  6
Continuous
 62
     7
370
    25
100
AcDbLine
 10
4267.8017836005
 20
4245.3822182165
 30
0.0
 11
4267.8017836005
 21
4245.7102821813
 31
0.0
  0
LINE
  5
388
330
1F
100
AcDbEntity
  8
0
  6
Continuous
 62
     7
370
    25
100
AcDbLine
 10
1897.8016894252
 20
4245.3822182165
 30
0.0
 11
1897.8016894252
 21
4245.7102821813
 31
0.0
  0
LINE
  5
389
330
1F
100
AcDbEntity
  8
0
  6
Continuous
 62
     7
370
    25
100
AcDbLine
 10
1897.8016894252
 20
4237.0494888769
 30
0.0
 11
1897.8016894252
 21
4213.051705216
 31
0.0
  0
LINE
  5
38A
330
1F
100
AcDbEntity
  8
0
  6
Continuous
 62
     7
370
    25
100
AcDbLine
 10
4267.8017836005
 20
4237.0494888769
 30
0.0
 11
4267.8017836005
 21
4213.051705216
 31
0.0
  0
LINE
  5
38B
330
1F
100
AcDbEntity
  8
0
  6
Continuous
 62
     7
370
    25
100
AcDbLine
 10
3072.7017145545
 20
4229.4606255041
 30
0.0
 11
3092.9016690642
 21
4229.4606255041
 31
0.0
  0
LINE
  5
38C
330
1F
100
AcDbEntity
  8
0
  6
Continuous
 62
     7
370
    25
100
AcDbLine
 10
3092.9016690642
 20
4217.6789329992
 30
0.0
 11
3072.7017145545
 21
4217.6789329992
 31
0.0
  0
LINE
  5
38D
330
1F
100
AcDbEntity
  8
0
  6
Continuous
 62
     7
370
    25
100
AcDbLine
 10
3092.9016690642
 20
4218.3126495825
 30
0.0
 11
3072.7017145545
 21
4218.3126495825
 31
0.0
  0
LINE
  5
38E
330
1F
100
AcDbEntity
  8
0
  6
Continuous
 62
     7
370
    25
100
AcDbLine
 10
4267.8017836005
 20
2865.5299232946
 30
0.0
 11
4267.8017836005
 21
2870.1809929357
 31
0.0
  0
LINE
  5
38F
330
1F
100
AcDbEntity
  8
0
  6
Continuous
 62
     7
370
    25
100
AcDbLine
 10
1897.8016894252
 20
2865.5299232946
 30
0.0
 11
1897.8016894252
 21
2870.1809929357
 31
0.0
  0
LINE
  5
390
330
1F
100
AcDbEntity
  8
0
  6
Continuous
 62
     7
370
    25
100
AcDbLine
 10
1897.8016894252
 20
2826.5584991918
 30
0.0
 11
1897.8016894252
 21
2865.5299232946
 31
0.0
  0
LINE
  5
391
330
1F
100
AcDbEntity
  8
0
  6
Continuous
 62
     7
370
    25
100
AcDbLine
 10
4267.8017836005
 20
2826.5584991918
 30
0.0
 11
4267.8017836005
 21
2865.5299232946
 31
0.0
  0
LINE
  5
392
330
1F
100
AcDbEntity
  8
0
  6
Continuous
 62
     7
370
    25
100
AcDbLine
 10
3072.7017145545
 20
2840.1531265722
 30
0.0
 11
3092.9016690642
 21
2840.1531265722
 31
0.0
  0
LINE
  5
393
330
1F
100
AcDbEntity
  8
0
  6
Continuous
 62
     7
370
    25
100
AcDbLine
 10
3092.9016690642
 20
2851.9352959142
 30
0.0
 11
3072.7017145545
 21
2851.9352959142
 31
0.0
  0
LINE
  5
394
330
1F
100
AcDbEntity
  8
0
  6
Continuous
 62
     7
370
    25
100
AcDbLine
 10
4267.8017836005
 20
2877.1542595373
 30
0.0
 11
4232.7018003852
 21
2877.1542595373
 31
0.0
  0
LINE
  5
395
330
1F
100
AcDbEntity
  8
0
  6
Continuous
 62
     7
370
    25
100
AcDbLine
 10
3092.9016690642
 20
2877.1542595373
 30
0.0
 11
3072.7017145545
 21
2877.1542595373
 31
0.0
  0
LINE
  5
396
330
1F
100
AcDbEntity
  8
0
  6
Continuous
 62
     7
370
    25
100
AcDbLine
 10
1932.9016875417
 20
2877.1542595373
 30
0.0
 11
1897.8016894252
 21
2877.1542595373
 31
0.0
  0
LINE
  5
397
330
1F
100
AcDbEntity
  8
0
  6
Continuous
 62
     7
370
    25
100
AcDbLine
 10
4267.8017836005
 20
2870.1809929357
 30
0.0
 11
4267.8017836005
 21
2877.1542595373
 31
0.0
  0
LINE
  5
398
330
1F
100
AcDbEntity
  8
0
  6
Continuous
 62
     7
370
    25
100
AcDbLine
 10
1897.8016894252
 20
2870.1809929357
 30
0.0
 11
1897.8016894252
 21
2877.1542595373
 31
0.0
  0
LINE
  5
399
330
1F
100
AcDbEntity
  8
0
  6
Continuous
 62
     7
370
    25
100
AcDbLine
 10
3072.7017145545
 20
2840.7868431555
 30
0.0
 11
3092.9016690642
 21
2840.7868431555
 31
0.0
  0
LINE
  5
39A
330
1F
100
AcDbEntity
  8
0
  6
Continuous
 62
     7
370
    25
100
AcDbLine
 10
4267.8017836005
 20
2826.5584991918
 30
0.0
 11
4267.8017836005
 21
2824.5376633154
 31
0.0
  0
LINE
  5
39B
330
1F
100
AcDbEntity
  8
0
  6
Continuous
 62
     7
370
    25
100
AcDbLine
 10
1897.8016894252
 20
2824.5376633154
 30
0.0
 11
1897.8016894252
 21
2826.5584991918
 31
0.0
  0
LINE
  5
39C
330
1F
100
AcDbEntity
  8
0
  6
Continuous
 62
     7
370
    25
100
AcDbLine
 10
4267.8017836005
 20
2902.5115059362
 30
0.0
 11
4267.8017836005
 21
2909.4842957006
 31
0.0
  0
LINE
  5
39D
330
1F
100
AcDbEntity
  8
0
  6
Continuous
 62
     7
370
    25
100
AcDbLine
 10
4267.8017836005
 20
2902.5115059362
 30
0.0
 11
4232.7018003852
 21
2902.5115059362
 31
0.0
  0
LINE
  5
39E
330
1F
100
AcDbEntity
  8
0
  6
Continuous
 62
     7
370
    25
100
AcDbLine
 10
3092.9016690642
 20
2902.5115059362
 30
0.0
 11
3072.7017145545
 21
2902.5115059362
 31
0.0
  0
LINE
  5
39F
330
1F
100
AcDbEntity
  8
0
  6
Continuous
 62
     7
370
    25
100
AcDbLine
 10
1932.9016875417
 20
2902.5115059362
 30
0.0
 11
1897.8016894252
 21
2902.5115059362
 31
0.0
  0
LINE
  5
3A0
330
1F
100
AcDbEntity
  8
0
  6
Continuous
 62
     7
370
    25
100
AcDbLine
 10
1897.8016894252
 20
2902.5115059362
 30
0.0
 11
1897.8016894252
 21
2909.4842957006
 31
0.0
  0
LINE
  5
3A1
330
1F
100
AcDbEntity
  8
0
  6
Continuous
 62
     7
370
    25
100
AcDbLine
 10
4267.8017836005
 20
2902.5115059362
 30
0.0
 11
4267.8017836005
 21
2901.1520431982
 31
0.0
  0
LINE
  5
3A2
330
1F
100
AcDbEntity
  8
0
  6
Continuous
 62
     7
370
    25
100
AcDbLine
 10
4267.8017836005
 20
2901.1520431982
 30
0.0
 11
4232.7018003852
 21
2901.1520431982
 31
0.0
  0
LINE
  5
3A3
330
1F
100
AcDbEntity
  8
0
  6
Continuous
 62
     7
370
    25
100
AcDbLine
 10
3092.9016690642
 20
2901.1520431982
 30
0.0
 11
3072.7017145545
 21
2901.1520431982
 31
0.0
  0
LINE
  5
3A4
330
1F
100
AcDbEntity
  8
0
  6
Continuous
 62
     7
370
    25
100
AcDbLine
 10
1932.9016875417
 20
2901.1520431982
 30
0.0
 11
1897.8016894252
 21
2901.1520431982
 31
0.0
  0
LINE
  5
3A5
330
1F
100
AcDbEntity
  8
0
  6
Continuous
 62
     7
370
    25
100
AcDbLine
 10
1897.8016894252
 20
2902.5115059362
 30
0.0
 11
1897.8016894252
 21
2901.1520431982
 31
0.0
  0
LINE
  5
3A6
330
1F
100
AcDbEntity
  8
0
  6
Continuous
 62
     7
370
    25
100
AcDbLine
 10
4267.8017836005
 20
2909.4842957006
 30
0.0
 11
4267.8017836005
 21
2909.8123596655
 31
0.0
  0
LINE
  5
3A7
330
1F
100
AcDbEntity
  8
0
  6
Continuous
 62
     7
370
    25
100
AcDbLine
 10
1897.8016894252
 20
2909.4842957006
 30
0.0
 11
1897.8016894252
 21
2909.8123596655
 31
0.0
  0
LINE
  5
3A8
330
1F
100
AcDbEntity
  8
0
  6
Continuous
 62
     7
370
    25
100
AcDbLine
 10
1897.8016894252
 20
2901.1520431982
 30
0.0
 11
1897.8016894252
 21
2877.1542595373
 31
0.0
  0
LINE
  5
3A9
330
1F
100
AcDbEntity
  8
0
  6
Continuous
 62
     7
370
    25
100
AcDbLine
 10
4267.8017836005
 20
2901.1520431982
 30
0.0
 11
4267.8017836005
 21
2877.1542595373
 31
0.0
  0
LINE
  5
3AA
330
1F
100
AcDbEntity
  8
0
  6
Continuous
 62
     7
370
    25
100
AcDbLine
 10
3072.7017145545
 20
2893.5631798254
 30
0.0
 11
3092.9016690642
 21
2893.5631798254
 31
0.0
  0
LINE
  5
3AB
330
1F
100
AcDbEntity
  8
0
  6
Continuous
 62
     7
370
    25
100
AcDbLine
 10
3092.9016690642
 20
2881.7810104833
 30
0.0
 11
3072.7017145545
 21
2881.7810104833
 31
0.0
  0
LINE
  5
3AC
330
1F
100
AcDbEntity
  8
0
  6
Continuous
 62
     7
370
    25
100
AcDbLine
 10
3092.9016690642
 20
2882.4147270666
 30
0.0
 11
3072.7017145545
 21
2882.4147270666
 31
0.0
  0
LINE
  5
3AD
330
1F
100
AcDbEntity
  8
0
  6
Continuous
 62
     8
370
    25
100
AcDbLine
 10
4267.8017836005
 20
4206.0784386144
 30
0.0
 11
4232.7018003852
 21
4206.0784386144
 31
0.0
  0
LINE
  5
3AE
330
1F
100
AcDbEntity
  8
0
  6
Continuous
 62
     8
370
    25
100
AcDbLine
 10
3092.9016690642
 20
4206.0784386144
 30
0.0
 11
3072.7017145545
 21
4206.0784386144
 31
0.0
  0
LINE
  5
3AF
330
1F
100
AcDbEntity
  8
0
  6
Continuous
 62
     8
370
    25
100
AcDbLine
 10
1932.9016875417
 20
4206.0784386144
 30
0.0
 11
1897.8016894252
 21
4206.0784386144
 31
0.0
  0
LINE
  5
3B0
330
1F
100
AcDbEntity
  8
0
  6
Continuous
 62
     8
370
    25
100
AcDbLine
 10
4267.8017836005
 20
4201.4273689733
 30
0.0
 11
4232.7018003852
 21
4201.4273689733
 31
0.0
  0
LINE
  5
3B1
330
1F
100
AcDbEntity
  8
0
  6
Continuous
 62
     8
370
    25
100
AcDbLine
 10
3092.9016690642
 20
4201.4273689733
 30
0.0
 11
3072.7017145545
 21
4201.4273689733
 31
0.0
  0
LINE
  5
3B2
330
1F
100
AcDbEntity
  8
0
  6
Continuous
 62
     8
370
    25
100
AcDbLine
 10
1932.9016875417
 20
4201.4273689733
 30
0.0
 11
1897.8016894252
 21
4201.4273689733
 31
0.0
  0
LINE
  5
3B3
330
1F
100
AcDbEntity
  8
0
  6
Continuous
 62
     8
370
    25
100
AcDbLine
 10
3092.9016690642
 20
4162.4564217077
 30
0.0
 11
3072.7017145545
 21
4162.4564217077
 31
0.0
  0
LINE
  5
3B4
330
1F
100
AcDbEntity
  8
0
  6
Continuous
 62
     8
370
    25
100
AcDbLine
 10
1932.9016875417
 20
4162.4564217077
 30
0.0
 11
1897.8016894252
 21
4162.4564217077
 31
0.0
  0
LINE
  5
3B5
330
1F
100
AcDbEntity
  8
0
  6
Continuous
 62
     8
370
    25
100
AcDbLine
 10
4267.8017836005
 20
4162.4564217077
 30
0.0
 11
4232.7018003852
 21
4162.4564217077
 31
0.0
  0
LINE
  5
3B6
330
1F
100
AcDbEntity
  8
0
  6
Continuous
 62
     8
370
    25
100
AcDbLine
 10
4267.8017836005
 20
4245.3822182165
 30
0.0
 11
4232.7018003852
 21
4245.3822182165
 31
0.0
  0
LINE
  5
3B7
330
1F
100
AcDbEntity
  8
0
  6
Continuous
 62
     8
370
    25
100
AcDbLine
 10
3092.9016690642
 20
4245.3822182165
 30
0.0
 11
3072.7017145545
 21
4245.3822182165
 31
0.0
  0
LINE
  5
3B8
330
1F
100
AcDbEntity
  8
0
  6
Continuous
 62
     8
370
    25
100
AcDbLine
 10
1932.9016875417
 20
4245.3822182165
 30
0.0
 11
1897.8016894252
 21
4245.3822182165
 31
0.0
  0
LINE
  5
3B9
330
1F
100
AcDbEntity
  8
0
  6
Continuous
 62
     8
370
    25
100
AcDbLine
 10
4267.8017836005
 20
2870.1809929357
 30
0.0
 11
4232.7018003852
 21
2870.1809929357
 31
0.0
  0
LINE
  5
3BA
330
1F
100
AcDbEntity
  8
0
  6
Continuous
 62
     8
370
    25
100
AcDbLine
 10
3092.9016690642
 20
2870.1809929357
 30
0.0
 11
3072.7017145545
 21
2870.1809929357
 31
0.0
  0
LINE
  5
3BB
330
1F
100
AcDbEntity
  8
0
  6
Continuous
 62
     8
370
    25
100
AcDbLine
 10
1932.9016875417
 20
2870.1809929357
 30
0.0
 11
1897.8016894252
 21
2870.1809929357
 31
0.0
  0
LINE
  5
3BC
330
1F
100
AcDbEntity
  8
0
  6
Continuous
 62
     8
370
    25
100
AcDbLine
 10
4267.8017836005
 20
2865.5299232946
 30
0.0
 11
4232.7018003852
 21
2865.5299232946
 31
0.0
  0
LINE
  5
3BD
330
1F
100
AcDbEntity
  8
0
  6
Continuous
 62
     8
370
    25
100
AcDbLine
 10
3092.9016690642
 20
2865.5299232946
 30
0.0
 11
3072.7017145545
 21
2865.5299232946
 31
0.0
  0
LINE
  5
3BE
330
1F
100
AcDbEntity
  8
0
  6
Continuous
 62
     8
370
    25
100
AcDbLine
 10
1932.9016875417
 20
2865.5299232946
 30
0.0
 11
1897.8016894252
 21
2865.5299232946
 31
0.0
  0
LINE
  5
3BF
330
1F
100
AcDbEntity
  8
0
  6
Continuous
 62
     8
370
    25
100
AcDbLine
 10
3092.9016690642
 20
2826.5584991918
 30
0.0
 11
3072.7017145545
 21
2826.5584991918
 31
0.0
  0
LINE
  5
3C0
330
1F
100
AcDbEntity
  8
0
  6
Continuous
 62
     8
370
    25
100
AcDbLine
 10
1932.9016875417
 20
2826.5584991918
 30
0.0
 11
1897.8016894252
 21
2826.5584991918
 31
0.0
  0
LINE
  5
3C1
330
1F
100
AcDbEntity
  8
0
  6
Continuous
 62
     8
370
    25
100
AcDbLine
 10
4267.8017836005
 20
2826.5584991918
 30
0.0
 11
4232.7018003852
 21
2826.5584991918
 31
0.0
  0
LINE
  5
3C2
330
1F
100
AcDbEntity
  8
0
  6
Continuous
 62
     8
370
    25
100
AcDbLine
 10
4267.8017836005
 20
2909.4842957006
 30
0.0
 11
4232.7018003852
 21
2909.4842957006
 31
0.0
  0
LINE
  5
3C3
330
1F
100
AcDbEntity
  8
0
  6
Continuous
 62
     8
370
    25
100
AcDbLine
 10
3092.9016690642
 20
2909.4842957006
 30
0.0
 11
3072.7017145545
 21
2909.4842957006
 31
0.0
  0
LINE
  5
3C4
330
1F
100
AcDbEntity
  8
0
  6
Continuous
 62
     8
370
    25
100
AcDbLine
 10
1932.9016875417
 20
2909.4842957006
 30
0.0
 11
1897.8016894252
 21
2909.4842957006
 31
0.0
  0
DIMENSION
  5
3C5
330
1F
100
AcDbEntity
  8
0
  6
Continuous
 62
     7
370
    18
100
AcDbDimension
  2
_D_10
 10
4267.801688233
 20
4986.1550840921
 30
0.0
 11
3056.6728654272
 21
4986.155084092
 31
0.0
 70
   160
  1
<>
 71
     2
 42
-1.0
  3
SLDDIMSTYLE0
100
AcDbAlignedDimension
 13
1897.8016882331
 23
4201.427428495
 33
0.0
 14
4267.8016882331
 24
4201.427428495
 34
0.0
 50
0.0
100
AcDbRotatedDimension
  0
ENDSEC
  0
SECTION
  2
OBJECTS
  0
DICTIONARY
  5
C
330
0
100
AcDbDictionary
281
     1
  3
ACAD_GROUP
350
D
  3
ACAD_LAYOUT
350
1A
  3
ACAD_MLINESTYLE
350
17
  3
ACAD_PLOTSETTINGS
350
19
  3
ACAD_PLOTSTYLENAME
350
E
  3
ACAD_SCALELIST
350
47
  0
DICTIONARY
  5
D
102
{ACAD_REACTORS
330
C
102
}
330
C
100
AcDbDictionary
281
     1
  0
DICTIONARY
  5
1A
102
{ACAD_REACTORS
330
C
102
}
330
C
100
AcDbDictionary
281
     1
  3
Layout1
350
1E
  3
Layout2
350
26
  3
Model
350
22
  0
DICTIONARY
  5
17
102
{ACAD_REACTORS
330
C
102
}
330
C
100
AcDbDictionary
281
     1
  3
Standard
350
18
  0
DICTIONARY
  5
19
102
{ACAD_REACTORS
330
C
102
}
330
C
100
AcDbDictionary
281
     1
  0
ACDBDICTIONARYWDFLT
  5
E
102
{ACAD_REACTORS
330
C
102
}
330
C
100
AcDbDictionary
281
     1
  3
Normal
350
F
100
AcDbDictionaryWithDefault
340
F
  0
DICTIONARY
  5
47
102
{ACAD_REACTORS
330
C
102
}
330
C
100
AcDbDictionary
281
     1
  3
A0
350
48
  3
A1
350
49
  3
A2
350
4A
  3
A3
350
4B
  3
A4
350
4C
  3
A5
350
4D
  3
A6
350
4E
  3
A7
350
4F
  3
A8
350
50
  3
A9
350
51
  3
B0
350
52
  3
B1
350
53
  3
B2
350
54
  3
B3
350
55
  3
B4
350
56
  3
B5
350
57
  3
B6
350
58
  3
B7
350
59
  3
B8
350
5A
  3
B9
350
5B
  3
C0
350
5C
  3
C1
350
5D
  3
C2
350
5E
  3
C3
350
5F
  3
C4
350
60
  3
C5
350
61
  3
C6
350
62
  3
C7
350
63
  3
C8
350
64
  3
C9
350
65
  3
D0
350
66
  3
D1
350
67
  3
D2
350
68
  0
LAYOUT
  5
1E
102
{ACAD_REACTORS
330
1A
102
}
330
1A
100
AcDbPlotSettings
  1

  2
none_device
  4

  6

 40
0.0
 41
0.0
 42
0.0
 43
0.0
 44
0.0
 45
0.0
 46
0.0
 47
0.0
 48
0.0
 49
0.0
140
0.0
141
0.0
142
1.0
143
1.0
 70
   688
 72
     1
 73
     0
 74
     5
  7

 75
    16
147
1.0
148
0.0
149
0.0
100
AcDbLayout
  1
Layout1
 70
     1
 71
     1
 10
0.0
 20
0.0
 11
420.0
 21
297.0
 12
0.0
 22
0.0
 32
0.0
 14
1.0000000000E+20
 24
1.0000000000E+20
 34
1.0000000000E+20
 15
-1.0000000000E+20
 25
-1.0000000000E+20
 35
-1.0000000000E+20
146
0.0
 13
0.0
 23
0.0
 33
0.0
 16
1.0
 26
0.0
 36
0.0
 17
0.0
 27
1.0
 37
0.0
 76
     0
330
1B
  0
LAYOUT
  5
26
102
{ACAD_REACTORS
330
1A
102
}
330
1A
100
AcDbPlotSettings
  1

  2
none_device
  4

  6

 40
0.0
 41
0.0
 42
0.0
 43
0.0
 44
0.0
 45
0.0
 46
0.0
 47
0.0
 48
0.0
 49
0.0
140
0.0
141
0.0
142
1.0
143
1.0
 70
   688
 72
     1
 73
     0
 74
     5
  7

 75
    16
147
1.0
148
0.0
149
0.0
100
AcDbLayout
  1
Layout2
 70
     1
 71
     2
 10
0.0
 20
0.0
 11
0.0
 21
0.0
 12
0.0
 22
0.0
 32
0.0
 14
0.0
 24
0.0
 34
0.0
 15
0.0
 25
0.0
 35
0.0
146
0.0
 13
0.0
 23
0.0
 33
0.0
 16
1.0
 26
0.0
 36
0.0
 17
0.0
 27
1.0
 37
0.0
 76
     0
330
23
  0
LAYOUT
  5
22
102
{ACAD_REACTORS
330
1A
102
}
330
1A
100
AcDbPlotSettings
  1

  2
none_device
  4
Letter_(8.50_x_11.00_Inches)
  6

 40
6.35
 41
6.35
 42
6.35000508
 43
6.35000508
 44
215.9
 45
279.4
 46
0.0
 47
0.0
 48
0.0
 49
0.0
140
0.0
141
0.0
142
1.0
143
1.0
 70
  1712
 72
     1
 73
     0
 74
     0
  7

 75
     0
147
1.0
148
0.0
149
0.0
100
AcDbLayout
  1
Model
 70
     1
 71
     0
 10
0.0
 20
0.0
 11
14850.0
 21
10500.0
 12
0.0
 22
0.0
 32
0.0
 14
0.0
 24
0.0
 34
0.0
 15
14850.0
 25
10500.0
 35
0.0
146
0.0
 13
0.0
 23
0.0
 33
0.0
 16
1.0
 26
0.0
 36
0.0
 17
0.0
 27
1.0
 37
0.0
 76
     0
330
1F
331
29
  0
MLINESTYLE
  5
18
102
{ACAD_REACTORS
330
17
102
}
330
17
100
AcDbMlineStyle
  2
Standard
 70
     0
  3

 62
   256
 51
90.0
 52
90.0
 71
     2
 49
0.5
 62
   256
  6
BYLAYER
 49
-0.5
 62
   256
  6
BYLAYER
  0
ACDBPLACEHOLDER
  5
F
102
{ACAD_REACTORS
330
E
102
}
330
E
  0
SCALE
  5
48
102
{ACAD_REACTORS
330
47
102
}
330
47
100
AcDbScale
 70
     0
300
1:1
140
1.0
141
1.0
290
     1
  0
SCALE
  5
49
102
{ACAD_REACTORS
330
47
102
}
330
47
100
AcDbScale
 70
     0
300
1:2
140
1.0
141
2.0
290
     0
  0
SCALE
  5
4A
102
{ACAD_REACTORS
330
47
102
}
330
47
100
AcDbScale
 70
     0
300
1:4
140
1.0
141
4.0
290
     0
  0
SCALE
  5
4B
102
{ACAD_REACTORS
330
47
102
}
330
47
100
AcDbScale
 70
     0
300
1:5
140
1.0
141
5.0
290
     0
  0
SCALE
  5
4C
102
{ACAD_REACTORS
330
47
102
}
330
47
100
AcDbScale
 70
     0
300
1:8
140
1.0
141
8.0
290
     0
  0
SCALE
  5
4D
102
{ACAD_REACTORS
330
47
102
}
330
47
100
AcDbScale
 70
     0
300
1:10
140
1.0
141
10.0
290
     0
  0
SCALE
  5
4E
102
{ACAD_REACTORS
330
47
102
}
330
47
100
AcDbScale
 70
     0
300
1:16
140
1.0
141
16.0
290
     0
  0
SCALE
  5
4F
102
{ACAD_REACTORS
330
47
102
}
330
47
100
AcDbScale
 70
     0
300
1:20
140
1.0
141
20.0
290
     0
  0
SCALE
  5
50
102
{ACAD_REACTORS
330
47
102
}
330
47
100
AcDbScale
 70
     0
300
1:30
140
1.0
141
30.0
290
     0
  0
SCALE
  5
51
102
{ACAD_REACTORS
330
47
102
}
330
47
100
AcDbScale
 70
     0
300
1:40
140
1.0
141
40.0
290
     0
  0
SCALE
  5
52
102
{ACAD_REACTORS
330
47
102
}
330
47
100
AcDbScale
 70
     0
300
1:50
140
1.0
141
50.0
290
     0
  0
SCALE
  5
53
102
{ACAD_REACTORS
330
47
102
}
330
47
100
AcDbScale
 70
     0
300
1:100
140
1.0
141
100.0
290
     0
  0
SCALE
  5
54
102
{ACAD_REACTORS
330
47
102
}
330
47
100
AcDbScale
 70
     0
300
2:1
140
2.0
141
1.0
290
     0
  0
SCALE
  5
55
102
{ACAD_REACTORS
330
47
102
}
330
47
100
AcDbScale
 70
     0
300
4:1
140
4.0
141
1.0
290
     0
  0
SCALE
  5
56
102
{ACAD_REACTORS
330
47
102
}
330
47
100
AcDbScale
 70
     0
300
8:1
140
8.0
141
1.0
290
     0
  0
SCALE
  5
57
102
{ACAD_REACTORS
330
47
102
}
330
47
100
AcDbScale
 70
     0
300
10:1
140
10.0
141
1.0
290
     0
  0
SCALE
  5
58
102
{ACAD_REACTORS
330
47
102
}
330
47
100
AcDbScale
 70
     0
300
100:1
140
100.0
141
1.0
290
     0
  0
SCALE
  5
59
102
{ACAD_REACTORS
330
47
102
}
330
47
100
AcDbScale
 70
     0
300
1/128" = 1'-0"
140
0.0078125
141
12.0
290
     0
  0
SCALE
  5
5A
102
{ACAD_REACTORS
330
47
102
}
330
47
100
AcDbScale
 70
     0
300
1/64" = 1'-0"
140
0.015625
141
12.0
290
     0
  0
SCALE
  5
5B
102
{ACAD_REACTORS
330
47
102
}
330
47
100
AcDbScale
 70
     0
300
1/32" = 1'-0"
140
0.03125
141
12.0
290
     0
  0
SCALE
  5
5C
102
{ACAD_REACTORS
330
47
102
}
330
47
100
AcDbScale
 70
     0
300
1/16" = 1'-0"
140
0.0625
141
12.0
290
     0
  0
SCALE
  5
5D
102
{ACAD_REACTORS
330
47
102
}
330
47
100
AcDbScale
 70
     0
300
3/32" = 1'-0"
140
0.09375
141
12.0
290
     0
  0
SCALE
  5
5E
102
{ACAD_REACTORS
330
47
102
}
330
47
100
AcDbScale
 70
     0
300
1/8" = 1'-0"
140
0.125
141
12.0
290
     0
  0
SCALE
  5
5F
102
{ACAD_REACTORS
330
47
102
}
330
47
100
AcDbScale
 70
     0
300
3/16" = 1'-0"
140
0.1875
141
12.0
290
     0
  0
SCALE
  5
60
102
{ACAD_REACTORS
330
47
102
}
330
47
100
AcDbScale
 70
     0
300
1/4" = 1'-0"
140
0.25
141
12.0
290
     0
  0
SCALE
  5
61
102
{ACAD_REACTORS
330
47
102
}
330
47
100
AcDbScale
 70
     0
300
3/8" = 1'-0"
140
0.375
141
12.0
290
     0
  0
SCALE
  5
62
102
{ACAD_REACTORS
330
47
102
}
330
47
100
AcDbScale
 70
     0
300
1/2" = 1'-0"
140
0.5
141
12.0
290
     0
  0
SCALE
  5
63
102
{ACAD_REACTORS
330
47
102
}
330
47
100
AcDbScale
 70
     0
300
3/4" = 1'-0"
140
0.75
141
12.0
290
     0
  0
SCALE
  5
64
102
{ACAD_REACTORS
330
47
102
}
330
47
100
AcDbScale
 70
     0
300
1" = 1'-0"
140
1.0
141
12.0
290
     0
  0
SCALE
  5
65
102
{ACAD_REACTORS
330
47
102
}
330
47
100
AcDbScale
 70
     0
300
1-1/2" = 1'-0"
140
1.5
141
12.0
290
     0
  0
SCALE
  5
66
102
{ACAD_REACTORS
330
47
102
}
330
47
100
AcDbScale
 70
     0
300
3" = 1'-0"
140
3.0
141
12.0
290
     0
  0
SCALE
  5
67
102
{ACAD_REACTORS
330
47
102
}
330
47
100
AcDbScale
 70
     0
300
6" = 1'-0"
140
6.0
141
12.0
290
     0
  0
SCALE
  5
68
102
{ACAD_REACTORS
330
47
102
}
330
47
100
AcDbScale
 70
     0
300
1'-0" = 1'-0"
140
12.0
141
12.0
290
     0
  0
ENDSEC
  0
EOF
